<?xml version="1.0" standalone="no"?>
<!DOCTYPE svg PUBLIC "-//W3C//DTD SVG 1.1//EN" "http://www.w3.org/Graphics/SVG/1.1/DTD/svg11.dtd" >
<svg xmlns="http://www.w3.org/2000/svg">
<metadata></metadata>
<defs>
<font id="microsoft_yi_baitiregular" horiz-adv-x="1400" vert-adv-y="2048" >
<font-face units-per-em="2048" ascent="1638" descent="-410" />
<missing-glyph horiz-adv-x="900" />
<glyph unicode="&#xd;" horiz-adv-x="456" vert-adv-y="2191" />
<glyph unicode=" " horiz-adv-x="900" vert-adv-y="2191" />
<glyph unicode="!" horiz-adv-x="646" vert-adv-y="2191" d="M396 873l-40 -584h-66l-40 584v222h146v-222zM396 0h-146v146h146v-146z" />
<glyph unicode="&#x22;" horiz-adv-x="724" vert-adv-y="2191" d="M305 1095l-35 -305h-83l-36 305h154zM572 1095l-35 -305h-82l-37 305h154z" />
<glyph unicode="#" horiz-adv-x="1314" vert-adv-y="2191" d="M1113 775q-5 -24 -8 -36t-7 -30h-207l-83 -322h214q-5 -25 -9 -37.5t-8 -30.5h-217q-17 -75 -37 -158.5t-37 -160.5h-59l75 319h-266q-18 -75 -37.5 -158.5t-37.5 -160.5h-58l75 319h-205q5 24 8 37t7 31h208l84 322h-215q5 23 8 36t7 30h219q17 72 37 154.5t37 156.5h57 l-75 -311h267q17 72 37 154t37 157h59l-71 -311h201zM835 709h-272l-84 -322h268z" />
<glyph unicode="$" horiz-adv-x="856" vert-adv-y="2191" d="M804 277q0 -63 -25.5 -116.5t-70 -92.5t-105.5 -62t-132 -26v-141h-55v141q-62 7 -114.5 32.5t-92 64t-64 87t-28.5 101.5h86q4 -81 62 -134.5t151 -66.5v487q-55 13 -103 41.5t-84 66t-56.5 80.5t-20.5 87q0 124 68.5 199.5t195.5 89.5v132h55v-131q122 -6 237 -79 l-64 -64q-41 26 -84 41.5t-89 19.5v-416q69 -16 129.5 -49t106 -78t71.5 -100t26 -114zM719 277q0 44 -12 80t-40.5 67t-76 57.5t-119.5 52.5v-473q49 4 94 23t79 48.5t54.5 66.5t20.5 78zM416 1031q-37 -8 -69.5 -24.5t-56.5 -42t-38 -60t-14 -78.5q0 -122 178 -190v395z " />
<glyph unicode="%" horiz-adv-x="1213" vert-adv-y="2191" d="M911 561q108 0 169.5 -75.5t61.5 -213.5q0 -139 -61.5 -215.5t-169.5 -76.5q-107 0 -168 76t-61 216q0 138 61 213.5t168 75.5zM301 1115q53 0 95.5 -20t72 -57.5t45.5 -91.5t16 -123q0 -139 -61.5 -214t-167.5 -75q-108 0 -169 75t-61 214t61 215.5t169 76.5zM301 594 q67 0 105.5 54.5t38.5 174.5q0 121 -38.5 176t-105.5 55q-68 0 -107 -55t-39 -176q0 -120 39 -174.5t107 -54.5zM911 40q68 0 106.5 55.5t38.5 176.5q0 120 -39 174.5t-106 54.5t-105.5 -54.5t-38.5 -174.5q0 -121 38.5 -176.5t105.5 -55.5zM940 1095l-582 -1095h-87 l582 1095h87z" />
<glyph unicode="&#x26;" horiz-adv-x="1130" vert-adv-y="2191" d="M1044 71l-55 -56l-158 156q-39 -56 -81 -92.5t-86.5 -58.5t-91.5 -31t-95 -9q-70 0 -131 24t-106 66.5t-71 100.5t-26 125q0 196 225 331q-75 81 -113 143.5t-38 107.5q0 55 18.5 98t50.5 71.5t76.5 43.5t95.5 15q52 0 97 -17.5t78.5 -48t52.5 -72.5t19 -90 q0 -35 -16 -70t-45 -68.5t-69.5 -64t-89.5 -55.5l327 -323q12 25 23 57t20 69.5t14.5 78t6.5 81.5h75q-3 -193 -82 -335zM414 584q-39 -26 -74 -59.5t-61 -71t-41 -76.5t-15 -76q0 -53 20 -98t55.5 -77.5t85 -51t109.5 -18.5q155 0 276 175zM621 878q0 75 -46.5 115 t-119.5 40q-40 0 -69.5 -13t-49 -35t-29 -49.5t-9.5 -57.5q0 -25 12.5 -52t33 -54t45 -53.5t48.5 -51.5q39 24 72.5 46.5t58 47t39 53t14.5 64.5z" />
<glyph unicode="'" horiz-adv-x="311" vert-adv-y="2191" d="M233 1095l-36 -305h-82l-37 305h155z" />
<glyph unicode="(" horiz-adv-x="1033" vert-adv-y="2191" d="M648 -146q-154 145 -228.5 300t-74.5 329q0 89 21.5 176t60.5 168.5t93.5 155t120.5 135.5q15 -16 26.5 -28.5t26.5 -28.5q-132 -142 -198.5 -286.5t-66.5 -291.5q0 -78 20.5 -156.5t57 -153t86 -142t106.5 -122.5z" />
<glyph unicode=")" horiz-adv-x="1033" vert-adv-y="2191" d="M703 483q0 -171 -76 -328.5t-225 -300.5q-15 16 -27 28t-26 27q58 55 107.5 122.5t86 142t57 153t20.5 156.5q0 147 -67 291.5t-198 286.5q15 17 26.5 29.5t26.5 27.5q66 -62 120 -135.5t93 -155t60.5 -169t21.5 -175.5z" />
<glyph unicode="*" horiz-adv-x="1188" vert-adv-y="2191" d="M973 487h-308l48 -48t56.5 -56t59 -57.5t53.5 -52.5q-14 -13 -22.5 -21.5t-17.5 -16.5l-221 220v-317h-52v318q-21 -22 -49.5 -50.5l-59 -59t-60.5 -61t-55 -55.5l-40 39l218 218h-307v61h311q-23 23 -51 51.5t-58 58.5t-59 59.5t-54 53.5l39 39l225 -226v319h52v-315 q21 21 49.5 49t58.5 58t59.5 60t54.5 55l23 -23t19 -18l-222 -221h310v-61z" />
<glyph unicode="+" horiz-adv-x="915" vert-adv-y="2191" d="M758 413h-255v-259h-87v259h-259v87h259v257h87v-257h255v-87z" />
<glyph unicode="," horiz-adv-x="488" vert-adv-y="2191" d="M317 0q0 -94 -37 -150t-109 -56v68q71 0 71 138h-71v146h146v-146z" />
<glyph unicode="-" horiz-adv-x="915" vert-adv-y="2191" d="M758 413h-601v87h601v-87z" />
<glyph unicode="." horiz-adv-x="488" vert-adv-y="2191" d="M317 0h-146v146h146v-146z" />
<glyph unicode="/" horiz-adv-x="885" vert-adv-y="2191" d="M826 1057l-649 -1104l-67 43l649 1103z" />
<glyph unicode="0" horiz-adv-x="1050" vert-adv-y="2191" d="M919 548q0 -115 -27 -218t-77.5 -181t-124 -123.5t-166.5 -45.5t-166 46t-123.5 124t-77 181t-26.5 217t26.5 217t76.5 180.5t123.5 123.5t166.5 46t166.5 -45.5t124.5 -123t77.5 -180.5t26.5 -218zM840 548q0 99 -20.5 187.5t-60 154.5t-98.5 105t-136 39 q-76 0 -134.5 -38.5t-98.5 -105t-60.5 -155t-20.5 -187.5q0 -98 20 -186t59.5 -155t98.5 -106t136 -39q78 0 137 39.5t98.5 106.5t59.5 155t20 185z" />
<glyph unicode="1" horiz-adv-x="1050" vert-adv-y="2191" d="M700 0h-80v890q-51 -33 -118 -55t-152 -24v80q123 5 196.5 56t96.5 148h57v-1095z" />
<glyph unicode="2" horiz-adv-x="1050" vert-adv-y="2191" d="M829 816q0 -130 -123 -239l-250 -203q-68 -60 -96.5 -133t-28.5 -159h489v-82h-587q-1 21 -1.5 33.5t-0.5 23.5q0 98 32.5 185.5t98.5 159.5l247 209q70 54 104.5 105.5t35.5 99.5q0 46 -13.5 86t-41 69t-68.5 46t-96 17q-81 0 -141.5 -30t-105.5 -95l-62 43 q25 39 59.5 69t75 51t85 32t89.5 11q66 0 121 -21.5t94.5 -60.5t61.5 -94t22 -123z" />
<glyph unicode="3" horiz-adv-x="1050" vert-adv-y="2191" d="M864 312q0 -74 -26 -135.5t-71.5 -105t-108.5 -67.5t-136 -24q-72 0 -131.5 19.5t-103 55.5t-70 87t-32.5 115h80q3 -42 23.5 -78.5t54 -62.5t79.5 -41t100 -15q56 0 104 18t83.5 50.5t55.5 78t20 101.5q0 58 -20.5 102.5t-57.5 74.5t-90 45t-117 15h-35v80h11 q116 0 184 52t68 158q0 48 -16 85.5t-45 63t-68.5 38.5t-86.5 13q-92 0 -155 -44.5t-77 -135.5h-79q11 61 38 109.5t67 82t91.5 51t111.5 17.5q70 0 125 -22t93.5 -60t59 -89.5t20.5 -111.5q0 -32 -6.5 -67t-22 -66.5t-41.5 -57.5t-64 -40q46 -17 81.5 -46t60 -67t37 -83 t12.5 -93z" />
<glyph unicode="4" horiz-adv-x="1050" vert-adv-y="2191" d="M898 336h-194v-336h-80v336h-472v92l438 667h114v-679h194v-80zM624 416v595l-391 -595h391z" />
<glyph unicode="5" horiz-adv-x="1050" vert-adv-y="2191" d="M871 363q0 -81 -22.5 -151t-68 -121.5t-113.5 -81t-159 -29.5q-65 0 -121 18t-99.5 52.5t-72 86t-37.5 118.5h89q9 -51 31 -88t54.5 -60.5t72 -35t83.5 -11.5q73 0 126.5 26t88.5 68.5t51.5 96t16.5 109.5q0 58 -18 107t-52.5 85t-84.5 56t-114 20q-63 0 -124.5 -22 t-106.5 -70h-82q11 144 22 280t23 279h564v-80h-480l-37 -379q23 22 52.5 36.5t61.5 22t65 10.5t63 3q70 0 130.5 -27t104 -73.5t68.5 -109.5t25 -135z" />
<glyph unicode="6" horiz-adv-x="1050" vert-adv-y="2191" d="M775 337q0 54 -16.5 103.5t-47.5 87t-76.5 60t-102.5 22.5q-32 0 -66.5 -10.5t-67.5 -28.5t-64 -42.5t-56 -52.5q4 -206 73 -311t185 -105q57 0 101.5 23.5t75 62t46.5 88.5t16 103zM865 347q0 -74 -19.5 -140.5t-60.5 -116.5t-103 -80t-143 -30q-87 0 -153 35t-111 102 t-68 165t-23 224q0 301 89 455t278 154q114 0 190 -64t100 -184h-80q-15 81 -74 124t-143 43q-57 0 -104.5 -30.5t-83.5 -89t-58 -143t-27 -192.5q67 54 135.5 82.5t149.5 28.5q70 0 127.5 -27.5t97.5 -75t62 -109.5t22 -131z" />
<glyph unicode="7" horiz-adv-x="1050" vert-adv-y="2191" d="M870 1019l-404 -1019h-90l403 1013h-599v82h690v-76z" />
<glyph unicode="8" horiz-adv-x="1050" vert-adv-y="2191" d="M733 848q0 44 -15 77.5t-43 56t-66.5 34t-84.5 11.5t-84.5 -11.5t-66 -34t-42.5 -56t-15 -77.5q0 -38 15.5 -70.5t44 -61t68 -54t88.5 -48.5q97 42 149 100.5t52 133.5zM777 279q-5 54 -27 90.5t-55.5 63.5t-77.5 49t-93 48q-88 -40 -138.5 -76.5t-75.5 -68.5t-31 -58.5 t-6 -47.5q0 -54 22 -95t57.5 -68.5t80.5 -41.5t91 -14q51 0 97.5 14t81 41.5t55 68.5t19.5 95zM814 848q0 -77 -45 -150t-136 -125q69 -35 112.5 -69t68.5 -70t34 -74t9 -81q0 -74 -25.5 -129.5t-70 -93.5t-105.5 -57t-132 -19t-131.5 19t-104.5 57t-69.5 93.5t-25.5 129.5 q0 85 55 158.5t184 132.5q-107 61 -151.5 131t-44.5 147q0 63 22 111.5t60.5 81.5t91 49.5t114.5 16.5t115 -16.5t92 -49t61 -81t22 -112.5z" />
<glyph unicode="9" horiz-adv-x="1050" vert-adv-y="2191" d="M781 598q0 108 -20.5 189.5t-56.5 136.5t-85.5 83t-107.5 28q-57 0 -102.5 -25t-77 -65t-48.5 -91.5t-17 -103.5q0 -55 16.5 -104t48 -86t78 -58.5t105.5 -21.5q32 0 67 8.5t70 24t68 37.5t62 48zM864 579q0 -299 -89.5 -449t-279.5 -150q-115 0 -191 62.5t-96 177.5h82 q6 -44 23.5 -74.5t45 -49.5t64.5 -27.5t81 -8.5q57 0 105 28t85 83t60.5 137.5t29.5 190.5q-25 -19 -54 -36.5t-63.5 -31.5t-75.5 -22.5t-91 -8.5q-70 0 -128 27t-99 73.5t-64 108.5t-23 132q0 74 21.5 141.5t62.5 119.5t101.5 82.5t137.5 30.5q86 0 152 -35.5t111 -104 t68.5 -168.5t23.5 -228z" />
<glyph unicode=":" horiz-adv-x="488" vert-adv-y="2191" d="M317 0h-146v146h146v-146zM317 447h-146v146h146v-146z" />
<glyph unicode=";" horiz-adv-x="488" vert-adv-y="2191" d="M317 447h-146v146h146v-146zM317 0q0 -94 -37 -150t-109 -56v68q71 0 71 138h-71v146h146v-146z" />
<glyph unicode="&#x3c;" horiz-adv-x="1207" vert-adv-y="2191" d="M1023 189q-6 -27 -12 -50.5t-11 -49.5q-105 50 -206.5 99t-203 97t-203 97t-206.5 99v81q207 97 410.5 195t409.5 196q8 -29 12.5 -49.5t10.5 -47.5l-702 -333z" />
<glyph unicode="=" horiz-adv-x="862" vert-adv-y="2191" d="M703 528h-544v87h544v-87zM703 300h-544v87h544v-87z" />
<glyph unicode="&#x3e;" horiz-adv-x="1207" vert-adv-y="2191" d="M1026 481q-208 -100 -410 -195.5t-409 -195.5q-8 30 -12.5 51.5t-10.5 48.5l701 333q-83 39 -172 81t-179 85t-178.5 85t-172.5 82q6 26 12 49t11 48q104 -50 206 -98.5l204 -97t204 -97.5t206 -98v-81z" />
<glyph unicode="?" horiz-adv-x="1167" vert-adv-y="2191" d="M880 846q0 -50 -12 -89t-33.5 -71t-50.5 -59t-63 -54q-28 -23 -53 -46t-43.5 -49t-29.5 -57t-11 -69v-93h-80v82q0 60 13.5 103t37.5 77.5t57.5 63.5t73.5 61q24 19 44.5 40t36 45.5t24.5 53t9 61.5q0 37 -17.5 71t-45 60t-63 42t-71.5 16q-50 0 -92 -18t-73 -49.5 t-49.5 -74t-21.5 -92.5h-79q4 67 28 124.5t65 99.5t97.5 66t124.5 24q58 0 108.5 -20t88 -56t59 -85.5t21.5 -107.5zM617 0h-146v146h146v-146z" />
<glyph unicode="@" horiz-adv-x="1512" vert-adv-y="2191" d="M1350 490q0 -87 -16.5 -164t-46.5 -135.5t-72 -92.5t-92 -34q-29 0 -56.5 8.5t-52 26.5t-44 47t-32.5 70q-48 -45 -110 -65t-123 -20q-59 0 -106 23.5t-80 67t-50.5 105t-17.5 138.5q0 72 23 132t62.5 103.5t93.5 67.5t117 24q39 0 85.5 -17t103.5 -50v77h81v-533 q0 -60 28.5 -96t82.5 -36q34 0 63 28t49 75.5t31.5 110.5t11.5 134q0 133 -35 238.5t-101 179t-161 112.5t-214 39q-114 0 -212 -46t-170.5 -125t-114 -184.5t-41.5 -223.5q0 -127 38.5 -233t109 -182.5t168.5 -119t218 -42.5q66 0 125.5 6.5t115.5 21.5v-75 q-57 -12 -116.5 -17.5t-124.5 -5.5q-133 0 -243.5 48.5t-190.5 135t-124.5 206t-44.5 260.5q0 136 47 254.5t129 206t192.5 137.5t238.5 50q133 0 240 -46t182 -129.5t115.5 -201t40.5 -259.5zM935 649q-48 23 -91.5 41t-83.5 18q-109 0 -168 -59.5t-59 -180.5 q0 -126 53 -187.5t150 -61.5q57 0 106.5 22t92.5 58v350z" />
<glyph unicode="A" horiz-adv-x="1037" vert-adv-y="2191" d="M1009 0h-96l-134 352h-539q-29 -83 -63 -175.5t-65 -176.5h-85q54 142 106.5 278t104.5 270.5t104.5 270.5t106.5 277h113zM756 415l-254 609l-241 -609h495z" />
<glyph unicode="B" horiz-adv-x="1037" vert-adv-y="2191" d="M938 307q0 -149 -100.5 -228t-295.5 -79h-398v1095h396q165 0 252.5 -62.5t87.5 -199.5q0 -38 -7.5 -78.5t-27.5 -75.5t-55 -62.5t-90 -39.5q77 -7 123.5 -33.5t72 -64.5t34 -83.5t8.5 -88.5zM224 80h317q310 0 310 227q0 59 -16 102t-54.5 70.5t-102 41t-159.5 13.5 h-295v-454zM224 614h294q146 0 215 47t69 158q0 100 -64 148.5t-205 48.5l-309 -1v-401z" />
<glyph unicode="C" horiz-adv-x="1122" vert-adv-y="2191" d="M938 802q-11 49 -41 91.5t-75 74t-103.5 49.5t-125.5 18q-95 0 -172.5 -31t-132 -91.5t-84 -151t-29.5 -210.5t29.5 -211.5t84 -153.5t131 -94t170.5 -32q142 0 234 63.5t114 185.5h83q-12 -78 -49 -139.5t-93 -103.5t-129 -64t-158 -22q-116 0 -208.5 40.5t-157.5 114.5 t-100 179.5t-35 236.5q0 130 35 234t100.5 177.5t158 113t207.5 39.5q79 0 150.5 -23t128.5 -64.5t96 -99t54 -126.5h-83z" />
<glyph unicode="D" horiz-adv-x="1122" vert-adv-y="2191" d="M1026 556q0 -556 -553 -556h-331v1094h331q277 0 415 -133.5t138 -404.5zM941 556q0 108 -21.5 193t-75.5 144.5t-144.5 90.5t-228.5 31h-249v-935h249q137 0 227.5 32t144.5 93.5t76 149.5t22 201z" />
<glyph unicode="E" horiz-adv-x="1037" vert-adv-y="2191" d="M935 0h-791v1095h764v-80h-684v-405h641v-80h-641v-450h711v-80z" />
<glyph unicode="F" horiz-adv-x="950" vert-adv-y="2191" d="M854 1015h-629v-411h547v-80h-547v-524h-80v1095h709v-80z" />
<glyph unicode="G" horiz-adv-x="1210" vert-adv-y="2191" d="M612 -20q-117 0 -213.5 41t-165.5 115.5t-106.5 180t-37.5 234.5q0 130 38 234t106.5 177.5t163.5 113t210 39.5q90 0 168 -22.5t139 -64t101 -99.5t55 -129h-86q-8 48 -38.5 90.5t-79.5 74.5t-114 51t-143 19q-96 0 -176 -31t-137.5 -92.5t-89.5 -152t-32 -208.5 q0 -117 32 -208.5t89.5 -154.5t138 -95.5t177.5 -32.5q136 0 236 52t169 144v197h-302v80h382v-533h-46l-35 146q-38 -46 -84 -77.5t-97.5 -51t-107.5 -28.5t-114 -9z" />
<glyph unicode="H" horiz-adv-x="1122" vert-adv-y="2191" d="M979 0h-81v545h-675v-545h-80v1095h80v-470h675v470h81v-1095z" />
<glyph unicode="I" horiz-adv-x="432" vert-adv-y="2191" d="M257 0h-80v1095h80v-1095z" />
<glyph unicode="J" horiz-adv-x="777" vert-adv-y="2191" d="M629 342q0 -99 -18 -167.5t-54 -112t-89.5 -63t-125.5 -19.5q-63 0 -114 20.5t-87 58.5t-55 91.5t-19 120.5l80 1q5 -109 53.5 -160.5t141.5 -51.5q48 0 86.5 10.5t65.5 40.5t41 83t14 139v762h80v-753z" />
<glyph unicode="K" horiz-adv-x="1037" vert-adv-y="2191" d="M989 0h-107l-437 598l-223 -216v-382h-80v1095h80v-602l621 602h111l-451 -438z" />
<glyph unicode="L" horiz-adv-x="865" vert-adv-y="2191" d="M791 0h-645v1095h80v-1015h565v-80z" />
<glyph unicode="M" horiz-adv-x="1296" vert-adv-y="2191" d="M1162 0h-80v964l-394 -964h-84l-393 964v-964h-80v1095h116l399 -995l402 995h114v-1095z" />
<glyph unicode="N" horiz-adv-x="1122" vert-adv-y="2191" d="M987 0h-105l-668 1000v-1000h-80v1095h110l663 -998v998h80v-1095z" />
<glyph unicode="O" horiz-adv-x="1210" vert-adv-y="2191" d="M606 1115q112 0 207 -40t163.5 -114t107 -178t38.5 -232q0 -127 -38 -232t-106.5 -180.5t-163 -117t-208.5 -41.5t-209 41.5t-163.5 116.5t-106.5 180t-38 233q0 129 38.5 233t107.5 177.5t163.5 113.5t207.5 40zM605 60q94 0 173.5 32.5t137.5 95.5t90 154.5t32 208.5 q0 118 -32.5 208t-90 151.5t-136 93t-171.5 31.5q-95 0 -174.5 -32t-137.5 -93.5t-90.5 -151.5t-32.5 -207t32 -208.5t89.5 -154.5t137 -95.5t173.5 -32.5z" />
<glyph unicode="P" horiz-adv-x="1037" vert-adv-y="2191" d="M143 1095h398q80 0 154 -13t130.5 -47.5t90 -93.5t33.5 -150q0 -161 -101.5 -245t-296.5 -84h-328v-462h-80v1095zM223 542h331q84 0 143 16t96.5 47t54.5 76.5t17 105.5q0 73 -25.5 118t-69 69.5t-100.5 32.5t-120 8h-327v-473z" />
<glyph unicode="Q" horiz-adv-x="1210" vert-adv-y="2191" d="M606 1115q112 0 207 -40t163.5 -114t107 -178t38.5 -232q0 -137 -43 -247t-121 -186l173 -136q-15 -19 -25.5 -32t-21.5 -27l-186 145q-61 -43 -134.5 -65.5t-157.5 -22.5q-114 0 -209 41.5t-163.5 116.5t-106.5 180t-38 233q0 129 38.5 233t107.5 177.5t163.5 113.5 t207.5 40zM605 60q64 0 121 15.5t106 44.5l-121 95q17 20 26.5 32.5t22.5 27.5l136 -108q67 63 104.5 159.5t37.5 224.5q0 118 -32.5 208t-90 151.5t-136 93t-171.5 31.5q-95 0 -174.5 -32t-137.5 -93.5t-90.5 -151.5t-32.5 -207t32 -208.5t89.5 -154.5t137 -95.5 t173.5 -32.5z" />
<glyph unicode="R" horiz-adv-x="1122" vert-adv-y="2191" d="M1021 0h-88l-109 291q-16 42 -35.5 79t-45.5 64.5t-59.5 43.5t-78.5 16h-383v-494h-80v1095h493q69 0 133.5 -12.5t115 -44.5t80.5 -88.5t30 -144.5q0 -55 -13.5 -102.5t-41 -85t-70 -64t-99.5 -38.5q31 -24 51 -46t34.5 -47t26 -55t26.5 -69zM222 574h380q81 0 139 12 t95.5 39.5t55.5 71.5t18 108q0 113 -71.5 161.5t-213.5 48.5h-403v-441z" />
<glyph unicode="S" horiz-adv-x="1037" vert-adv-y="2191" d="M545 -20q-111 0 -194 23.5t-139.5 67t-86.5 105t-35 138.5h79q12 -74 45 -123t81.5 -78t110.5 -41t132 -12q73 0 131.5 15.5t100 45t63.5 71t22 93.5q0 55 -19 92.5t-64 65.5t-118.5 50t-182.5 45q-90 20 -154.5 46t-106.5 60.5t-62 79t-20 103.5q0 64 27 117t76.5 91 t119 59t153.5 21t154 -19.5t122.5 -56.5t85 -90t41.5 -120h-77q-11 44 -36 82t-64.5 65.5t-94 43t-124.5 15.5q-147 0 -222.5 -54t-75.5 -148q0 -43 14 -75t47.5 -57.5t88.5 -45t137 -36.5q48 -10 99 -21t99.5 -26t92.5 -37t76.5 -54t52 -76.5t19.5 -105.5 q0 -70 -29.5 -128.5t-82 -101t-125 -66t-157.5 -23.5z" />
<glyph unicode="T" horiz-adv-x="950" vert-adv-y="2191" d="M896 1015h-383v-1015h-80v1015h-379v80h842v-80z" />
<glyph unicode="U" horiz-adv-x="1122" vert-adv-y="2191" d="M561 -20q-98 0 -167.5 20.5t-115.5 55.5t-73 82t-41 100t-17.5 110t-3.5 111v636h80v-633q0 -125 22.5 -203.5t66 -122.5t106 -60t143.5 -16q82 0 145.5 16t106 60.5t64.5 122.5t22 203v633h80v-636q0 -113 -19 -202t-66 -150.5t-128 -94t-205 -32.5z" />
<glyph unicode="V" horiz-adv-x="1037" vert-adv-y="2191" d="M998 1095l-429 -1095h-103l-429 1095h89l392 -995l392 995h88z" />
<glyph unicode="W" horiz-adv-x="1467" vert-adv-y="2191" d="M1435 1095l-285 -1095h-120l-300 990l-290 -990h-120l-283 1095h85l258 -990l290 990h120l300 -990l260 990h85z" />
<glyph unicode="X" horiz-adv-x="1037" vert-adv-y="2191" d="M179 1095l349 -481l349 481h99l-399 -548l398 -547h-98l-349 479l-349 -479h-98l398 547l-399 548h99z" />
<glyph unicode="Y" horiz-adv-x="1037" vert-adv-y="2191" d="M988 1095l-428 -625v-470h-80v470l-432 625h94l378 -541l375 541h93z" />
<glyph unicode="Z" horiz-adv-x="950" vert-adv-y="2191" d="M890 0h-842v106l739 909h-674v80h756v-107l-740 -908h761v-80z" />
<glyph unicode="[" horiz-adv-x="648" vert-adv-y="2191" d="M477 -173h-304v1268h304v-82h-217v-1104h217v-82z" />
<glyph unicode="\" horiz-adv-x="832" vert-adv-y="2191" d="M728 -10l-67 -40l-565 961l67 40z" />
<glyph unicode="]" horiz-adv-x="648" vert-adv-y="2191" d="M477 -173h-304v82h217v1104h-217v82h304v-1268z" />
<glyph unicode="^" horiz-adv-x="789" vert-adv-y="2191" d="M635 859l-49 -58l-191 162l-192 -162l-49 58l241 196z" />
<glyph unicode="_" horiz-adv-x="793" vert-adv-y="2191" d="M797 -198h-799v63h799v-63z" />
<glyph unicode="`" horiz-adv-x="495" vert-adv-y="2191" d="M370 850h-89l-146 186h146z" />
<glyph unicode="a" horiz-adv-x="850" vert-adv-y="2191" d="M636 100q-41 -36 -80 -59.5t-76.5 -37t-74.5 -18.5t-75 -5q-51 0 -95 15.5t-76 44t-50.5 69t-18.5 89.5q0 133 113.5 207t340.5 74h92q0 51 -6 94t-28 74.5t-65 49.5t-117 18q-109 0 -163.5 -34t-64.5 -103h-79q12 110 86 163.5t220 53.5q81 0 137.5 -20t92 -57.5 t51.5 -91t16 -120.5v-506h-80v100zM636 399h-121q-174 0 -259.5 -50t-85.5 -143q0 -69 54 -107.5t148 -38.5q41 0 79.5 12.5t72.5 32.5t62.5 44.5t49.5 47.5v202z" />
<glyph unicode="b" horiz-adv-x="850" vert-adv-y="2191" d="M215 651q31 42 65 69.5t68 44t66 23.5t61 7q72 0 128 -28.5t94 -81t58 -126.5t20 -164q0 -95 -24 -171.5t-65.5 -130.5t-98 -83.5t-121.5 -29.5q-57 0 -124 22.5t-127 78.5v-81h-80v1095h80v-444zM215 185q54 -57 112.5 -91t129.5 -34q108 0 173 85t65 250q0 158 -61 239 t-170 81q-72 0 -132.5 -43t-116.5 -121v-366z" />
<glyph unicode="c" horiz-adv-x="764" vert-adv-y="2191" d="M429 -20q-77 0 -140.5 27t-109 79t-70.5 128t-25 174q0 96 24.5 172t70 128t109 79.5t141.5 27.5q56 0 104.5 -15t86 -44t63 -72t35.5 -98h-78q-5 36 -22.5 64t-45.5 47t-64.5 28.5t-78.5 9.5q-59 0 -108 -20.5t-84 -61.5t-54 -102.5t-19 -142.5q0 -82 19 -143.5 t54 -102.5t84 -61.5t108 -20.5q39 0 75 9.5t64.5 28t47.5 46t24 64.5h78q-11 -56 -36.5 -98.5t-63 -71.5t-86 -43.5t-103.5 -14.5z" />
<glyph unicode="d" horiz-adv-x="850" vert-adv-y="2191" d="M639 107q-36 -42 -70.5 -67t-67 -38.5t-63 -17.5t-58.5 -4q-73 0 -129 29t-94 81.5t-57.5 126.5t-19.5 165q0 96 23.5 172.5t65 130t98 82t121.5 28.5q28 0 57 -3t60 -12.5t64.5 -28.5t69.5 -51v395h80v-1095h-80v107zM639 603q-54 56 -112.5 84t-129.5 28 q-54 0 -97.5 -20.5t-74.5 -62t-48 -104t-17 -146.5q0 -158 61 -240t170 -82q72 0 132 39.5t116 117.5v386z" />
<glyph unicode="e" horiz-adv-x="850" vert-adv-y="2191" d="M440 -20q-81 0 -147 27.5t-113.5 80t-73.5 128.5t-26 173q0 94 25 169.5t71 128t109 80.5t140 28q79 0 143 -28t109 -80.5t69 -128t24 -170.5v-18h-610q6 -79 29 -137t60 -96.5t85.5 -57.5t105.5 -19q40 0 80 9.5t72.5 28.5t54.5 47t26 64h79q-11 -55 -39 -97.5t-69 -72 t-93 -44.5t-111 -15zM689 450q-20 133 -90.5 199t-173.5 66q-51 0 -95 -16t-78.5 -49t-58 -83t-33.5 -117h529z" />
<glyph unicode="f" horiz-adv-x="425" vert-adv-y="2191" d="M241 695v-695h-80v695h-120v80h120v90q0 240 191 240q20 0 39.5 -1t33.5 -3v-77q-8 1 -14 1h-11q-44 0 -74.5 -8t-49.5 -27t-27 -50t-8 -77v-88h147v-80h-147z" />
<glyph unicode="g" horiz-adv-x="850" vert-adv-y="2191" d="M719 46q0 -93 -20 -158.5t-59.5 -106.5t-99.5 -60t-139 -19q-66 0 -119 14.5t-91 41.5t-59.5 67t-24.5 91h80q5 -69 57 -101.5t154 -32.5q60 0 105 14.5t75 47.5t45.5 87t15.5 133v49q-39 -46 -73.5 -72.5t-66.5 -40t-61.5 -17t-57.5 -3.5q-73 0 -129 29t-94 81.5 t-57.5 126.5t-19.5 165q0 96 23.5 172.5t65 130t98 82t121.5 28.5q28 0 58 -4t62 -14.5t65 -28.5t66 -46v73h80v-729zM639 603q-54 56 -112.5 84t-129.5 28q-54 0 -97.5 -20.5t-74.5 -62t-48 -104t-17 -146.5q0 -158 61 -240t170 -82q72 0 132 39.5t116 117.5v386z" />
<glyph unicode="h" horiz-adv-x="850" vert-adv-y="2191" d="M211 660q38 43 74.5 70t71 41t66 19t59.5 5q239 0 239 -282v-513h-80v506q0 54 -9.5 93.5t-31 65t-56 38t-84.5 12.5q-66 0 -126.5 -39t-122.5 -110v-566h-80v1095h80v-435z" />
<glyph unicode="i" horiz-adv-x="348" vert-adv-y="2191" d="M217 0h-80v775h80v-775zM218 970h-80v125h80v-125z" />
<glyph unicode="j" horiz-adv-x="348" vert-adv-y="2191" d="M218 -33q0 -83 -13 -134.5t-36 -80.5t-56 -39.5t-73 -10.5q-34 0 -62 3v85q6 -1 12 -1h10q42 0 69 6t42 25t21 55.5t6 96.5v805h80v-810zM218 970h-80v125h80v-125z" />
<glyph unicode="k" horiz-adv-x="764" vert-adv-y="2191" d="M720 0h-100l-282 437l-127 -124v-313h-80v1095h80v-681l372 363h104l-294 -286z" />
<glyph unicode="l" horiz-adv-x="348" vert-adv-y="2191" d="M217 0h-80v1095h80v-1095z" />
<glyph unicode="m" horiz-adv-x="1274" vert-adv-y="2191" d="M1152 0h-80v506q0 111 -34.5 160t-121.5 49q-64 0 -124.5 -39.5t-117.5 -111.5v-564h-80v506q0 55 -7.5 95t-25.5 65t-47.5 37t-72.5 12q-63 0 -120 -39.5t-115 -111.5v-564h-80v775h80v-115q40 45 75.5 71.5t67 40.5t60 18.5t54.5 4.5q75 0 128 -35t77 -107 q30 42 63.5 69.5t68 43.5t69.5 22.5t68 6.5q215 0 215 -282v-513z" />
<glyph unicode="n" horiz-adv-x="850" vert-adv-y="2191" d="M205 660q39 46 76.5 73t73 41t67.5 17.5t60 3.5q239 0 239 -282v-513h-80v506q0 54 -9.5 93.5t-31 65t-56 38t-84.5 12.5q-66 0 -129.5 -39t-125.5 -110v-566h-80v775h80v-115z" />
<glyph unicode="o" horiz-adv-x="850" vert-adv-y="2191" d="M425 795q79 0 143 -27.5t109 -80t69 -128t24 -170.5q0 -97 -24.5 -173t-69.5 -128.5t-109 -80t-142 -27.5t-141.5 27t-108.5 79.5t-70 128.5t-25 174q0 96 24.5 171.5t69.5 127.5t109 79.5t142 27.5zM425 60q59 0 107.5 20.5t83.5 62t54.5 103t19.5 143.5 q0 81 -19.5 142.5t-54.5 102t-83.5 61t-107.5 20.5q-60 0 -108.5 -20.5t-83.5 -61t-54 -102t-19 -142.5q0 -82 19 -143.5t54 -103t83.5 -62t108.5 -20.5z" />
<glyph unicode="p" horiz-adv-x="850" vert-adv-y="2191" d="M205 660q38 46 73.5 73t68.5 41t63.5 18t59.5 4q72 0 128 -29t94 -81.5t58 -126.5t20 -164q0 -95 -23.5 -171.5t-65 -130.5t-98 -83.5t-122.5 -29.5q-28 0 -58 2.5t-62 12.5t-66 29.5t-70 52.5v-362h-80v1060h80v-115zM205 174q108 -114 248 -114q54 0 97.5 21.5 t74.5 63.5t48 104.5t17 145.5q0 158 -60.5 239t-170.5 81q-144 0 -254 -155v-386z" />
<glyph unicode="q" horiz-adv-x="850" vert-adv-y="2191" d="M725 -285h-80v392q-35 -43 -70.5 -68t-69.5 -38t-65.5 -17t-59.5 -4q-73 0 -129 29t-94 81.5t-57.5 126.5t-19.5 165q0 96 23.5 172.5t65 130t98 82t121.5 28.5q28 0 58 -2.5t62 -12.5t66.5 -28.5t70.5 -50.5v74h80v-1060zM645 603q-109 112 -248 112q-54 0 -97.5 -20.5 t-74.5 -62t-48 -104t-17 -146.5q0 -158 61 -240t170 -82q142 0 254 157v386z" />
<glyph unicode="r" horiz-adv-x="509" vert-adv-y="2191" d="M485 713q-11 2 -24 2h-29q-34 0 -66 -14t-61 -36.5t-54 -51t-43 -58.5v-555h-80v775h80v-107q34 40 67.5 65t65 39t60.5 18.5t53 4.5q8 0 15 -0.5t16 -1.5v-80z" />
<glyph unicode="s" horiz-adv-x="764" vert-adv-y="2191" d="M386 -20q-285 0 -311 229h81q9 -70 64.5 -109.5t164.5 -39.5q53 0 93 11.5t66.5 31t39.5 46.5t13 58t-10.5 53t-38 40t-75 34.5t-121.5 35.5q-63 16 -112 33t-82.5 42t-50.5 60.5t-17 88.5q0 46 19.5 83.5t54.5 63.5t85 40t111 14q138 0 209.5 -46.5t79.5 -146.5h-81 q-8 58 -55.5 85.5t-141.5 27.5q-44 0 -81 -8t-63.5 -23.5t-41.5 -39t-15 -53.5q0 -17 6 -35t30.5 -37t73.5 -38.5t134 -40.5q67 -17 116.5 -35.5t82 -44t48.5 -59.5t16 -80q0 -51 -20.5 -95.5t-58 -76.5t-91.5 -50.5t-121 -18.5z" />
<glyph unicode="t" horiz-adv-x="425" vert-adv-y="2191" d="M381 -7q-17 -2 -34 -3t-34 -1q-52 0 -83.5 14.5t-48 43.5t-21.5 72.5t-5 101.5v474h-99v80h99v203h80v-203h127v-80h-127v-481q0 -48 7 -76.5t21 -44t34.5 -20t46.5 -4.5h19t18 1v-77z" />
<glyph unicode="u" horiz-adv-x="850" vert-adv-y="2191" d="M645 104q-29 -35 -65.5 -58.5t-74 -38t-74 -21t-65.5 -6.5q-238 0 -238 283v512h80v-505q0 -109 40.5 -159.5t140.5 -50.5q72 0 135.5 40t120.5 114v561h80v-775h-80v104z" />
<glyph unicode="v" horiz-adv-x="764" vert-adv-y="2191" d="M712 775l-294 -775h-72l-294 775h81l249 -665l250 665h80z" />
<glyph unicode="w" horiz-adv-x="1103" vert-adv-y="2191" d="M1068 775l-218 -775h-100l-199 650l-191 -650h-100l-225 775h90l185 -655l191 655h100l199 -655l179 655h89z" />
<glyph unicode="x" horiz-adv-x="764" vert-adv-y="2191" d="M624 0l-225 318l-225 -318h-97l273 388l-273 387h98l224 -318l224 318h98l-273 -387l273 -388h-97z" />
<glyph unicode="y" horiz-adv-x="764" vert-adv-y="2191" d="M712 775l-282 -789q-26 -70 -52.5 -123t-57.5 -89t-68.5 -54t-83.5 -18q-16 0 -31 1t-30 3v86q8 -1 17 -1h19q69 0 118 47.5t86 154.5l-295 782h88l253 -676l232 676h87z" />
<glyph unicode="z" horiz-adv-x="764" vert-adv-y="2191" d="M679 680l-537 -600h562v-80h-646v95l528 600h-499v80h592v-95z" />
<glyph unicode="{" horiz-adv-x="543" vert-adv-y="2191" d="M476 -171h-58q-119 0 -150 75q-11 26 -16 87.5t-5 158.5q0 129 -44.5 194.5t-135.5 65.5v103q91 0 135.5 66t44.5 195q0 193 21 244q32 77 150 77h58v-78h-40q-40 0 -64.5 -11t-38 -35.5t-18 -63t-4.5 -92.5q0 -78 -4 -132t-13 -84q-24 -85 -110 -138q91 -54 115 -155 q6 -27 8.5 -86t3.5 -151q0 -44 4 -74.5t16 -50.5t32.5 -29t53.5 -9h59v-77z" />
<glyph unicode="|" horiz-adv-x="489" vert-adv-y="2191" d="M283 -53h-77v1148h77v-1148z" />
<glyph unicode="}" horiz-adv-x="542" vert-adv-y="2191" d="M74 -94h59q33 0 53.5 9t32.5 29t16 50.5t4 74.5q0 183 12 237q22 100 115 155q-86 52 -111 138q-16 58 -16 216q0 54 -4.5 92.5t-18 63t-38.5 35.5t-65 11h-39v78h58q117 0 150 -77q20 -49 20 -244q0 -129 45 -195t136 -66v-103q-91 0 -136 -65.5t-45 -194.5 q0 -97 -4.5 -158.5t-15.5 -87.5q-33 -75 -150 -75h-58v77z" />
<glyph unicode="~" horiz-adv-x="1135" vert-adv-y="2191" d="M1015 688v-51q0 -79 -13.5 -141t-42 -105t-74 -65.5t-108.5 -22.5q-46 0 -79 10.5t-59 30t-49.5 48.5t-50.5 65q-18 26 -37.5 51t-42 45t-48.5 32t-57 12q-78 0 -110 -50.5t-32 -150.5v-90h-94v68q0 155 56 236t184 81q46 0 79.5 -12t60 -33t49 -49t46.5 -59 q19 -24 39 -49.5t41.5 -45.5t46 -33t53.5 -13q46 0 75 18.5t45.5 50t22 71.5t5.5 84v67h94z" />
<glyph unicode="&#xa0;" horiz-adv-x="900" vert-adv-y="2191" />
<glyph unicode="&#xa1;" horiz-adv-x="646" vert-adv-y="2191" d="M356 486l40 -584v-222h-146v222l40 584h66zM396 775v-146h-146v146h146z" />
<glyph unicode="&#xa2;" horiz-adv-x="919" vert-adv-y="2191" d="M729 1041l-53 -193q69 -28 116 -84.5t63 -141.5h-86q-7 52 -37 90t-78 58l-194 -701q37 -9 78 -9q43 0 82.5 11.5t70.5 33t51.5 53t26.5 72.5h86q-12 -61 -40 -108t-69.5 -78.5t-94 -47.5t-113.5 -16q-50 0 -99 11l-51 -184l-70 23l51 186q-97 48 -153 151.5t-56 259.5 q0 106 27 189t76.5 140t119 87t155.5 30q34 0 66 -6l54 196zM538 793q-65 0 -119.5 -23.5t-94 -70t-61.5 -115t-22 -157.5q0 -124 40.5 -206.5t110.5 -123.5l191 693q-23 3 -45 3z" />
<glyph unicode="&#xa3;" horiz-adv-x="829" vert-adv-y="2191" d="M816 9q-34 -14 -69.5 -21.5t-71.5 -7.5q-23 0 -68 10.5t-95 23.5t-95.5 23.5t-69.5 10.5q-113 0 -245 -56v103q74 44 115 116.5t41 185.5q0 23 -3.5 49t-11.5 56h-141v81h118q-20 73 -31 130t-11 92q0 69 24 124t66.5 94t101 59.5t128.5 20.5q64 0 117.5 -17t94 -49.5 t66 -80.5t32.5 -110l-89 1q-11 87 -71.5 131t-152.5 44q-47 0 -89 -17t-73.5 -45.5t-50 -65.5t-18.5 -78q0 -44 11 -104.5t34 -128.5h233v-81h-219q5 -12 9 -27t6.5 -30t4 -28t1.5 -20q0 -46 -5 -82t-17.5 -68.5t-33.5 -64.5t-52 -69q27 10 60.5 14t60.5 4q22 0 64 -10.5 t89 -22.5t91 -22.5t69 -10.5q38 0 74 8.5t72 24.5v-89z" />
<glyph unicode="&#xa4;" horiz-adv-x="813" vert-adv-y="2191" d="M758 252l-83 -84l-99 99q-77 -52 -170 -52q-94 0 -168 53l-100 -100l-84 84l99 99q-50 79 -50 166t50 166q2 0 -99 101l84 83q100 -97 100 -99q73 52 168 52q94 0 170 -52l99 99l83 -83l-98 -101q49 -77 49 -166q0 -90 -51 -166zM406 301q44 0 83.5 17t69 46.5t47 69 t17.5 83.5q0 45 -17.5 84.5t-47 69t-69 46.5t-83.5 17t-83.5 -17t-69 -46.5t-47 -69t-17.5 -84.5q0 -44 17.5 -83.5t47 -69t69 -46.5t83.5 -17z" />
<glyph unicode="&#xa5;" horiz-adv-x="1037" vert-adv-y="2191" d="M826 201h-266v-201h-80v201h-255v87h255v122h-255v87h236l-413 598h94l378 -541l375 541h93l-410 -598h248v-87h-266v-122h266v-87z" />
<glyph unicode="&#xa6;" horiz-adv-x="255" vert-adv-y="2191" d="M165 -307h-75v547h75v-547zM165 500h-75v546h75v-546z" />
<glyph unicode="&#xa7;" horiz-adv-x="813" vert-adv-y="2191" d="M579 884q-18 143 -175 143q-78 0 -119.5 -34.5t-41.5 -90.5q0 -26 10 -48t38.5 -47.5t80 -59.5t134.5 -84q55 -33 98 -61.5t73 -60t45.5 -69.5t15.5 -90q0 -129 -169 -209q119 -74 119 -202q0 -49 -20 -90.5t-55 -72t-84 -47.5t-106 -17q-120 0 -197 60t-95 180h96 q11 -72 59.5 -111.5t136.5 -39.5q42 0 74 11t54 29.5t33.5 43.5t11.5 53q0 26 -12.5 48.5t-44 49.5t-86.5 62.5t-140 86.5q-58 35 -101 65t-71.5 62.5t-42.5 72t-14 93.5q0 66 41.5 116t124.5 88q-98 87 -98 182q0 42 17 81.5t48.5 70t77 49t102.5 18.5q59 0 107 -16.5 t83 -47t57.5 -73t30.5 -94.5h-96zM535 223q56 29 86.5 59t30.5 74q0 26 -9.5 50t-32.5 49t-60.5 52.5t-92.5 60.5q-49 29 -86 52t-70 49q-62 -31 -96.5 -63.5t-34.5 -79.5q0 -28 7.5 -51t29 -47t59.5 -52t99 -65q56 -35 90.5 -53t55.5 -34z" />
<glyph unicode="&#xa8;" horiz-adv-x="489" vert-adv-y="2191" d="M179 850h-108v111h108v-111zM408 850h-106v111h106v-111z" />
<glyph unicode="&#xa9;" horiz-adv-x="995" vert-adv-y="2191" d="M499 985q101 0 191 -39.5t158 -107.5t107.5 -158.5t39.5 -192.5t-39 -192.5t-106.5 -159t-158 -108t-192.5 -39.5t-192.5 39t-159 107t-108 158.5t-39.5 194.5q0 103 39.5 193.5t108 158t159 107t192.5 39.5zM498 70q84 0 159.5 33t132.5 89.5t90 132.5t33 162 q0 84 -33 159.5t-89 132t-132 90t-161 33.5q-86 0 -161.5 -33t-132 -89.5t-89.5 -132t-33 -160.5q0 -86 33 -162t89.5 -132.5t132 -89.5t161.5 -33zM736 382q-45 -182 -236 -182q-59 0 -107.5 20.5t-83 57.5t-53 89.5t-18.5 117.5t18.5 117t53 88t84 55.5t110.5 19.5 q45 0 83 -11.5t68 -33t49.5 -52.5t26.5 -70h-93q-20 95 -136 95q-83 0 -128 -56.5t-45 -153.5q0 -45 12 -83t34.5 -65t53.5 -42t70 -15q121 0 145 104h92z" />
<glyph unicode="&#xaa;" horiz-adv-x="541" vert-adv-y="2191" d="M401 550v69q-89 -80 -194 -80q-36 0 -66 10t-52 28.5t-34.5 44.5t-12.5 58q0 172 299 172h60q0 48 -10 75t-27 41t-41.5 17.5t-52.5 3.5q-123 0 -130 -72h-79q20 144 213 144q100 0 153 -42t53 -144v-325h-79zM401 788h-77q-99 0 -151 -26t-52 -79q0 -37 29.5 -55 t83.5 -18q20 0 44.5 6.5t47.5 17.5t43 26t32 32v96zM472 374h-402v70h402v-70z" />
<glyph unicode="&#xab;" horiz-adv-x="813" vert-adv-y="2191" d="M711 51h-105l-226 326l226 326h105l-185 -326zM433 51h-105l-227 326l227 326h105l-186 -326z" />
<glyph unicode="&#xac;" horiz-adv-x="920" vert-adv-y="2191" d="M797 479v-293h-97v195h-560v98h657z" />
<glyph unicode="&#xae;" horiz-adv-x="995" vert-adv-y="2191" d="M499 985q101 0 191 -39.5t158 -107.5t107.5 -158.5t39.5 -192.5t-39 -192.5t-106.5 -159t-158 -108t-192.5 -39.5t-192.5 39t-159 107t-108 158.5t-39.5 194.5q0 103 39.5 193.5t108 158t159 107t192.5 39.5zM498 70q84 0 159.5 33t132.5 89.5t90 132.5t33 162 q0 84 -33 159.5t-89 132t-132 90t-161 33.5q-86 0 -161.5 -33t-132 -89.5t-89.5 -132t-33 -160.5q0 -86 33 -162t89.5 -132.5t132 -89.5t161.5 -33zM721 211h-98l-42 117q-19 53 -53.5 79t-88.5 26h-68v-222h-85v535h201q212 0 212 -148q0 -142 -139 -152q72 -21 106 -102z M371 507h108q128 0 128 84q0 82 -131 82h-105v-166z" />
<glyph unicode="&#xaf;" horiz-adv-x="731" vert-adv-y="2191" d="M739 1156h-747v72h747v-72z" />
<glyph unicode="&#xb0;" horiz-adv-x="585" vert-adv-y="2191" d="M292 1060q41 0 77 -16t62.5 -43.5t42 -63.5t15.5 -75q0 -41 -15.5 -77t-42.5 -63t-63 -43t-76 -16t-76 15.5t-63 42.5t-42.5 63.5t-15.5 77.5q0 40 15.5 76t42.5 63t63 43t76 16zM292 731q27 0 51 10.5t42 28.5t28 42t10 50q0 27 -10.5 50.5t-28.5 41t-41.5 28 t-50.5 10.5t-50.5 -10t-41 -27.5t-27.5 -41t-10 -51.5q0 -26 10 -50t27.5 -42t41 -28.5t50.5 -10.5z" />
<glyph unicode="&#xb1;" horiz-adv-x="854" vert-adv-y="2191" d="M721 499h-255v-259h-87v259h-259v87h259v257h87v-257h255v-87zM721 0h-601v87h601v-87z" />
<glyph unicode="&#xb2;" horiz-adv-x="487" vert-adv-y="2191" d="M458 530h-428q11 53 58 104t122 99q46 28 75 49.5t46 40.5t23.5 37t6.5 39q0 90 -109 90q-48 0 -77.5 -19t-40.5 -53h-88q33 138 207 138q47 0 84.5 -11t63.5 -31t40 -47.5t14 -60.5q0 -30 -7.5 -54t-24.5 -45.5t-45 -43.5t-70 -47q-82 -50 -146 -117h296v-68z" />
<glyph unicode="&#xb3;" horiz-adv-x="487" vert-adv-y="2191" d="M431 930q0 -45 -22.5 -76t-68.5 -44q68 -20 92 -53.5t24 -82.5q0 -33 -14.5 -61.5t-41.5 -50t-65.5 -33.5t-86.5 -12q-186 0 -213 135h93q8 -34 36.5 -52.5t78.5 -18.5q121 0 121 108q0 84 -123 84h-31v60q63 2 96.5 23t33.5 63q0 71 -98 71q-84 0 -102 -60h-91 q34 125 194 125q90 0 139 -36t49 -89z" />
<glyph unicode="&#xb4;" horiz-adv-x="495" vert-adv-y="2191" d="M360 1036l-146 -186h-89l89 186h146z" />
<glyph unicode="&#xb5;" horiz-adv-x="752" vert-adv-y="2191" d="M727 -7h-65q-57 0 -86 24t-40 72q-93 -106 -207 -106q-60 0 -113 32v-284h-104v1049h104v-566q0 -137 139 -137q27 0 48.5 6.5t42 21t42 37.5t48.5 57v581h104v-623q0 -44 21.5 -61t65.5 -17v-86z" />
<glyph unicode="&#xb6;" horiz-adv-x="726" vert-adv-y="2191" d="M688 871h-93v-1140h-91v1140h-148v-1140h-91v690q-65 3 -115 25t-83.5 58t-50.5 83.5t-17 101.5q0 67 22 119t62.5 87.5t98 54t129.5 18.5h377v-97z" />
<glyph unicode="&#xb7;" horiz-adv-x="585" vert-adv-y="2191" d="M489 572q0 -41 -16 -77t-43.5 -63t-63 -43t-74.5 -16q-41 0 -76.5 16t-62.5 43t-42.5 63t-15.5 77q0 40 15.5 76t42.5 63t62.5 43t76.5 16q40 0 76 -16t63 -43t42.5 -63t15.5 -76z" />
<glyph unicode="&#xb8;" horiz-adv-x="487" vert-adv-y="2191" d="M244 -49q61 -8 83.5 -35t22.5 -69q0 -29 -8 -53.5t-28.5 -43t-56 -29t-89.5 -10.5q-33 0 -73 3v74q20 -2 39.5 -3.5t38.5 -1.5q46 0 71.5 13.5t25.5 50.5q0 27 -28 41.5t-78 14.5v97h80v-49z" />
<glyph unicode="&#xb9;" horiz-adv-x="487" vert-adv-y="2191" d="M334 530h-86v364q-31 -21 -70 -32t-91 -12v70q90 2 138 35.5t51 99.5h58v-525z" />
<glyph unicode="&#xba;" horiz-adv-x="534" vert-adv-y="2191" d="M272 1060q50 0 92 -18.5t72 -52.5t47 -82.5t17 -108.5q0 -62 -17 -111t-47 -82.5t-72 -51.5t-92 -18q-52 0 -94 17.5t-72 51.5t-46.5 82.5t-16.5 111.5q0 61 17 109.5t47 82.5t72 52t93 18zM272 611q141 0 141 187q0 185 -141 185t-141 -185q0 -187 141 -187zM476 375 h-408v65h408v-65z" />
<glyph unicode="&#xbb;" horiz-adv-x="813" vert-adv-y="2191" d="M711 377l-225 -326h-106l186 326l-186 326h106zM433 377l-227 -326h-105l186 326l-186 326h105z" />
<glyph unicode="&#xbc;" horiz-adv-x="1128" vert-adv-y="2191" d="M1067 122h-89v-122h-75v122h-253v60l267 313h61v-308h89v-65zM926 968l-687 -968h-85l688 968h84zM308 484h-77v324q-45 -33 -148 -33v82q173 0 173 123h52v-496zM903 187v188l-159 -188h159z" />
<glyph unicode="&#xbd;" horiz-adv-x="1128" vert-adv-y="2191" d="M1067 0h-378q7 55 44 105.5t115 97.5q46 27 73 46t41 34t18.5 29t4.5 32q0 37 -24 59t-69 22q-43 0 -75 -20t-40 -53h-85q27 145 201 145q91 0 131.5 -41t40.5 -105q0 -29 -5 -51.5t-18.5 -43.5t-38.5 -42t-65 -46q-38 -23 -72 -50t-54 -48h255v-70zM926 968l-687 -968 h-85l688 968h84zM308 484h-77v324q-45 -33 -148 -33v82q173 0 173 123h52v-496z" />
<glyph unicode="&#xbe;" horiz-adv-x="1128" vert-adv-y="2191" d="M1067 122h-89v-122h-75v122h-253v60l267 313h61v-308h89v-65zM926 968l-687 -968h-85l688 968h84zM903 187v188l-159 -188h159zM326 744q57 -11 82.5 -41t25.5 -79q0 -32 -13 -59.5t-38 -48t-61 -32.5t-82 -12q-93 0 -137 35t-54 106h79q3 -32 32.5 -53t74.5 -21 q51 0 83.5 26.5t32.5 71.5q0 35 -28 51.5t-80 16.5h-37v73q60 0 91.5 17t31.5 52q0 28 -27.5 44.5t-67.5 16.5q-38 0 -64.5 -16.5t-31.5 -43.5h-78q14 66 53.5 99t121.5 33q86 0 130.5 -35t44.5 -88q0 -45 -19.5 -73.5t-64.5 -39.5z" />
<glyph unicode="&#xbf;" horiz-adv-x="1167" vert-adv-y="2191" d="M880 -27q-4 -67 -28 -124.5t-65 -99.5t-97.5 -66t-124.5 -24q-58 0 -108.5 20t-88 56t-59 85t-21.5 108q0 50 12 89t33.5 71t50.5 59t63 54q28 22 52.5 45t43.5 49.5t30 57.5t11 69v93h80v-82q0 -60 -13.5 -103t-37.5 -77.5t-57.5 -63.5t-73.5 -61q-24 -19 -44.5 -40 t-36 -45.5t-24.5 -53t-9 -61.5q0 -37 17.5 -71t45 -60.5t63 -42t71.5 -15.5q50 0 92 18t73 49.5t49.5 74t21.5 92.5h79zM697 774v-146h-146v146h146z" />
<glyph unicode="&#xc0;" horiz-adv-x="1037" vert-adv-y="2191" d="M1009 0h-96l-134 352h-539q-29 -83 -63 -175.5t-65 -176.5h-85q54 142 106.5 278t104.5 270.5t104.5 270.5t106.5 277h113zM756 415l-254 609l-241 -609h495zM636 1230h-89l-146 186h146z" />
<glyph unicode="&#xc1;" horiz-adv-x="1037" vert-adv-y="2191" d="M1009 0h-96l-134 352h-539q-29 -83 -63 -175.5t-65 -176.5h-85q54 142 106.5 278t104.5 270.5t104.5 270.5t106.5 277h113zM756 415l-254 609l-241 -609h495zM636 1416l-146 -186h-89l89 186h146z" />
<glyph unicode="&#xc2;" horiz-adv-x="1037" vert-adv-y="2191" d="M1009 0h-96l-134 352h-539q-29 -83 -63 -175.5t-65 -176.5h-85q54 142 106.5 278t104.5 270.5t104.5 270.5t106.5 277h113zM756 415l-254 609l-241 -609h495zM707 1230h-115l-75 111l-74 -111h-114l146 185h86z" />
<glyph unicode="&#xc3;" horiz-adv-x="1037" vert-adv-y="2191" d="M1009 0h-96l-134 352h-539q-29 -83 -63 -175.5t-65 -176.5h-85q54 142 106.5 278t104.5 270.5t104.5 270.5t106.5 277h113zM756 415l-254 609l-241 -609h495zM730 1383q0 -72 -33 -111.5t-91 -39.5q-15 0 -41.5 8.5t-54 19t-50 19t-29.5 8.5q-28 0 -39 -14t-14 -43h-71 q0 71 33.5 104t90.5 33q14 0 40 -9t53.5 -19.5t50.5 -19.5t31 -9q21 0 37 20.5t16 52.5h71z" />
<glyph unicode="&#xc4;" horiz-adv-x="1037" vert-adv-y="2191" d="M1009 0h-96l-134 352h-539q-29 -83 -63 -175.5t-65 -176.5h-85q54 142 106.5 278t104.5 270.5t104.5 270.5t106.5 277h113zM756 415l-254 609l-241 -609h495zM458 1230h-108v111h108v-111zM687 1230h-106v111h106v-111z" />
<glyph unicode="&#xc5;" horiz-adv-x="1037" vert-adv-y="2191" d="M634 1228q0 -27 -10 -50t-27 -40.5t-39.5 -27.5t-48.5 -10t-49.5 10t-41 27t-28 40.5t-10.5 50.5q0 26 10.5 49t28 40.5t41 27.5t49.5 10t48.5 -10.5t39.5 -28t27 -40.5t10 -48zM585 1228q0 32 -22 55t-54 23q-33 0 -56 -23t-23 -55t23 -55.5t56 -23.5q16 0 29.5 6.5 t24 17t16.5 25t6 30.5zM1009 0h-96l-134 352h-539q-29 -83 -63 -175.5t-65 -176.5h-85q54 142 106.5 278t104.5 270.5t104.5 270.5t106.5 277h113zM756 415l-254 609l-241 -609h495z" />
<glyph unicode="&#xc6;" horiz-adv-x="1554" vert-adv-y="2191" d="M1462 0h-684v335h-470q-45 -81 -93 -167.5t-93 -167.5h-96q83 144 161.5 279t156 268.5t156 269t161.5 278.5h774v-80h-577v-405h532v-80h-532v-450h604v-80zM778 413v602h-73l-355 -602h428z" />
<glyph unicode="&#xc7;" horiz-adv-x="1122" vert-adv-y="2191" d="M938 802q-11 49 -41 91.5t-75 74t-103.5 49.5t-125.5 18q-95 0 -172.5 -31t-132 -91.5t-84 -151t-29.5 -210.5t29.5 -211.5t84 -153.5t131 -94t170.5 -32q142 0 234 63.5t114 185.5h83q-12 -78 -49 -139.5t-93 -103.5t-129 -64t-158 -22q-116 0 -208.5 40.5t-157.5 114.5 t-100 179.5t-35 236.5q0 130 35 234t100.5 177.5t158 113t207.5 39.5q79 0 150.5 -23t128.5 -64.5t96 -99t54 -126.5h-83zM624 -70q61 -8 83.5 -35t22.5 -69q0 -29 -8 -53.5t-28.5 -43t-56 -29t-89.5 -10.5q-33 0 -73 3v74q20 -2 39.5 -3.5t38.5 -1.5q46 0 71.5 13.5 t25.5 50.5q0 27 -28 41.5t-78 14.5v97h80v-49z" />
<glyph unicode="&#xc8;" horiz-adv-x="1037" vert-adv-y="2191" d="M935 0h-791v1095h764v-80h-684v-405h641v-80h-641v-450h711v-80zM636 1230h-89l-146 186h146z" />
<glyph unicode="&#xc9;" horiz-adv-x="1037" vert-adv-y="2191" d="M935 0h-791v1095h764v-80h-684v-405h641v-80h-641v-450h711v-80zM636 1416l-146 -186h-89l89 186h146z" />
<glyph unicode="&#xca;" horiz-adv-x="1037" vert-adv-y="2191" d="M935 0h-791v1095h764v-80h-684v-405h641v-80h-641v-450h711v-80zM707 1230h-115l-75 111l-74 -111h-114l146 185h86z" />
<glyph unicode="&#xcb;" horiz-adv-x="1037" vert-adv-y="2191" d="M935 0h-791v1095h764v-80h-684v-405h641v-80h-641v-450h711v-80zM458 1230h-108v111h108v-111zM687 1230h-106v111h106v-111z" />
<glyph unicode="&#xcc;" horiz-adv-x="432" vert-adv-y="2191" d="M257 0h-80v1095h80v-1095zM335 1230h-89l-146 186h146z" />
<glyph unicode="&#xcd;" horiz-adv-x="432" vert-adv-y="2191" d="M257 0h-80v1095h80v-1095zM335 1416l-146 -186h-89l89 186h146z" />
<glyph unicode="&#xce;" horiz-adv-x="432" vert-adv-y="2191" d="M257 0h-80v1095h80v-1095zM406 1230h-115l-75 111l-74 -111h-114l146 185h86z" />
<glyph unicode="&#xcf;" horiz-adv-x="432" vert-adv-y="2191" d="M257 0h-80v1095h80v-1095zM157 1230h-108v111h108v-111zM386 1230h-106v111h106v-111z" />
<glyph unicode="&#xd0;" horiz-adv-x="1122" vert-adv-y="2191" d="M1026 556q0 -556 -553 -556h-331v529h-129v80h129v485h331q277 0 415 -133.5t138 -404.5zM941 556q0 108 -21.5 193t-75.5 144.5t-144.5 90.5t-228.5 31h-249v-406h358v-80h-358v-449h249q137 0 227.5 32t144.5 93.5t76 149.5t22 201z" />
<glyph unicode="&#xd1;" horiz-adv-x="1122" vert-adv-y="2191" d="M987 0h-105l-668 1000v-1000h-80v1095h110l663 -998v998h80v-1095zM772 1383q0 -72 -33 -111.5t-91 -39.5q-15 0 -41.5 8.5t-54 19t-50 19t-29.5 8.5q-28 0 -39 -14t-14 -43h-71q0 71 33.5 104t90.5 33q14 0 40 -9t53.5 -19.5t50.5 -19.5t31 -9q21 0 37 20.5t16 52.5h71z " />
<glyph unicode="&#xd2;" horiz-adv-x="1210" vert-adv-y="2191" d="M606 1115q112 0 207 -40t163.5 -114t107 -178t38.5 -232q0 -127 -38 -232t-106.5 -180.5t-163 -117t-208.5 -41.5t-209 41.5t-163.5 116.5t-106.5 180t-38 233q0 129 38.5 233t107.5 177.5t163.5 113.5t207.5 40zM605 60q94 0 173.5 32.5t137.5 95.5t90 154.5t32 208.5 q0 118 -32.5 208t-90 151.5t-136 93t-171.5 31.5q-95 0 -174.5 -32t-137.5 -93.5t-90.5 -151.5t-32.5 -207t32 -208.5t89.5 -154.5t137 -95.5t173.5 -32.5zM722 1230h-89l-146 186h146z" />
<glyph unicode="&#xd3;" horiz-adv-x="1210" vert-adv-y="2191" d="M606 1115q112 0 207 -40t163.5 -114t107 -178t38.5 -232q0 -127 -38 -232t-106.5 -180.5t-163 -117t-208.5 -41.5t-209 41.5t-163.5 116.5t-106.5 180t-38 233q0 129 38.5 233t107.5 177.5t163.5 113.5t207.5 40zM605 60q94 0 173.5 32.5t137.5 95.5t90 154.5t32 208.5 q0 118 -32.5 208t-90 151.5t-136 93t-171.5 31.5q-95 0 -174.5 -32t-137.5 -93.5t-90.5 -151.5t-32.5 -207t32 -208.5t89.5 -154.5t137 -95.5t173.5 -32.5zM722 1416l-146 -186h-89l89 186h146z" />
<glyph unicode="&#xd4;" horiz-adv-x="1210" vert-adv-y="2191" d="M606 1115q112 0 207 -40t163.5 -114t107 -178t38.5 -232q0 -127 -38 -232t-106.5 -180.5t-163 -117t-208.5 -41.5t-209 41.5t-163.5 116.5t-106.5 180t-38 233q0 129 38.5 233t107.5 177.5t163.5 113.5t207.5 40zM605 60q94 0 173.5 32.5t137.5 95.5t90 154.5t32 208.5 q0 118 -32.5 208t-90 151.5t-136 93t-171.5 31.5q-95 0 -174.5 -32t-137.5 -93.5t-90.5 -151.5t-32.5 -207t32 -208.5t89.5 -154.5t137 -95.5t173.5 -32.5zM794 1230h-115l-75 111l-74 -111h-114l146 185h86z" />
<glyph unicode="&#xd5;" horiz-adv-x="1210" vert-adv-y="2191" d="M606 1115q112 0 207 -40t163.5 -114t107 -178t38.5 -232q0 -127 -38 -232t-106.5 -180.5t-163 -117t-208.5 -41.5t-209 41.5t-163.5 116.5t-106.5 180t-38 233q0 129 38.5 233t107.5 177.5t163.5 113.5t207.5 40zM605 60q94 0 173.5 32.5t137.5 95.5t90 154.5t32 208.5 q0 118 -32.5 208t-90 151.5t-136 93t-171.5 31.5q-95 0 -174.5 -32t-137.5 -93.5t-90.5 -151.5t-32.5 -207t32 -208.5t89.5 -154.5t137 -95.5t173.5 -32.5zM816 1383q0 -72 -33 -111.5t-91 -39.5q-15 0 -41.5 8.5t-54 19t-50 19t-29.5 8.5q-28 0 -39 -14t-14 -43h-71 q0 71 33.5 104t90.5 33q14 0 40 -9t53.5 -19.5t50.5 -19.5t31 -9q21 0 37 20.5t16 52.5h71z" />
<glyph unicode="&#xd6;" horiz-adv-x="1210" vert-adv-y="2191" d="M606 1115q112 0 207 -40t163.5 -114t107 -178t38.5 -232q0 -127 -38 -232t-106.5 -180.5t-163 -117t-208.5 -41.5t-209 41.5t-163.5 116.5t-106.5 180t-38 233q0 129 38.5 233t107.5 177.5t163.5 113.5t207.5 40zM605 60q94 0 173.5 32.5t137.5 95.5t90 154.5t32 208.5 q0 118 -32.5 208t-90 151.5t-136 93t-171.5 31.5q-95 0 -174.5 -32t-137.5 -93.5t-90.5 -151.5t-32.5 -207t32 -208.5t89.5 -154.5t137 -95.5t173.5 -32.5zM544 1230h-108v111h108v-111zM773 1230h-106v111h106v-111z" />
<glyph unicode="&#xd7;" horiz-adv-x="790" vert-adv-y="2191" d="M567 212l-180 181l-183 -183l-62 61l183 183l-183 183l62 62l183 -183l182 182l61 -62l-182 -182l181 -180z" />
<glyph unicode="&#xd8;" horiz-adv-x="1210" vert-adv-y="2191" d="M606 1115q81 0 152.5 -21t131.5 -61l74 103l67 -42l-79 -110q80 -75 125 -184t45 -249q0 -127 -38 -232t-106.5 -180.5t-163 -117t-208.5 -41.5q-88 0 -163.5 24.5t-138.5 70.5l-87 -122l-67 43l94 131q-74 76 -114.5 183t-40.5 241q0 129 38.5 233t107.5 177.5 t163.5 113.5t207.5 40zM605 60q94 0 173.5 32.5t137.5 95.5t90 154.5t32 208.5q0 123 -35 215t-97 154l-557 -781q53 -39 117.5 -59t138.5 -20zM608 1035q-95 0 -174.5 -32t-137.5 -93.5t-90.5 -151.5t-32.5 -207q0 -116 30.5 -205.5t86.5 -152.5l555 776q-51 32 -110.5 49 t-126.5 17z" />
<glyph unicode="&#xd9;" horiz-adv-x="1122" vert-adv-y="2191" d="M561 -20q-98 0 -167.5 20.5t-115.5 55.5t-73 82t-41 100t-17.5 110t-3.5 111v636h80v-633q0 -125 22.5 -203.5t66 -122.5t106 -60t143.5 -16q82 0 145.5 16t106 60.5t64.5 122.5t22 203v633h80v-636q0 -113 -19 -202t-66 -150.5t-128 -94t-205 -32.5zM678 1230h-89 l-146 186h146z" />
<glyph unicode="&#xda;" horiz-adv-x="1122" vert-adv-y="2191" d="M561 -20q-98 0 -167.5 20.5t-115.5 55.5t-73 82t-41 100t-17.5 110t-3.5 111v636h80v-633q0 -125 22.5 -203.5t66 -122.5t106 -60t143.5 -16q82 0 145.5 16t106 60.5t64.5 122.5t22 203v633h80v-636q0 -113 -19 -202t-66 -150.5t-128 -94t-205 -32.5zM678 1416l-146 -186 h-89l89 186h146z" />
<glyph unicode="&#xdb;" horiz-adv-x="1122" vert-adv-y="2191" d="M561 -20q-98 0 -167.5 20.5t-115.5 55.5t-73 82t-41 100t-17.5 110t-3.5 111v636h80v-633q0 -125 22.5 -203.5t66 -122.5t106 -60t143.5 -16q82 0 145.5 16t106 60.5t64.5 122.5t22 203v633h80v-636q0 -113 -19 -202t-66 -150.5t-128 -94t-205 -32.5zM750 1230h-115 l-75 111l-74 -111h-114l146 185h86z" />
<glyph unicode="&#xdc;" horiz-adv-x="1122" vert-adv-y="2191" d="M561 -20q-98 0 -167.5 20.5t-115.5 55.5t-73 82t-41 100t-17.5 110t-3.5 111v636h80v-633q0 -125 22.5 -203.5t66 -122.5t106 -60t143.5 -16q82 0 145.5 16t106 60.5t64.5 122.5t22 203v633h80v-636q0 -113 -19 -202t-66 -150.5t-128 -94t-205 -32.5zM500 1230h-108v111 h108v-111zM729 1230h-106v111h106v-111z" />
<glyph unicode="&#xdd;" horiz-adv-x="1037" vert-adv-y="2191" d="M988 1095l-428 -625v-470h-80v470l-432 625h94l378 -541l375 541h93zM636 1416l-146 -186h-89l89 186h146z" />
<glyph unicode="&#xde;" horiz-adv-x="1037" vert-adv-y="2191" d="M143 1095h80v-259h318q80 0 154 -13t130.5 -47.5t90 -93.5t33.5 -150q0 -161 -101.5 -245t-296.5 -84h-328v-203h-80v1095zM223 283h331q84 0 143 16t96.5 47t54.5 76.5t17 105.5q0 73 -25.5 118t-69 69.5t-100.5 32.5t-120 8h-327v-473z" />
<glyph unicode="&#xdf;" horiz-adv-x="933" vert-adv-y="2191" d="M872 222q0 -49 -19 -93t-53.5 -77t-82.5 -52.5t-106 -19.5q-51 0 -95.5 12t-77.5 35t-53 56t-24 75h90q12 -45 54 -71.5t103 -26.5q35 0 66.5 11.5t55 31.5t37.5 47.5t14 59.5q0 30 -7 50t-23.5 38t-44.5 37t-71 46q-68 43 -110.5 89.5t-42.5 99.5q0 49 54 144 q36 63 52.5 106.5t17.5 67.5q0 29 -14.5 54.5t-39 45t-58 31t-70.5 11.5q-47 0 -88.5 -13.5t-73 -47t-49.5 -89t-18 -139.5v-741h-80v747q0 181 77 272t234 91q60 0 109 -17t83.5 -45.5t53.5 -66.5t19 -80q0 -36 -18 -88.5t-56 -117.5q-40 -68 -40 -104q0 -20 5 -34.5 t20.5 -31t45 -37.5t79.5 -54q43 -28 71 -53t44.5 -50t23 -51.5t6.5 -57.5z" />
<glyph unicode="&#xe0;" horiz-adv-x="850" vert-adv-y="2191" d="M636 100q-41 -36 -80 -59.5t-76.5 -37t-74.5 -18.5t-75 -5q-51 0 -95 15.5t-76 44t-50.5 69t-18.5 89.5q0 133 113.5 207t340.5 74h92q0 51 -6 94t-28 74.5t-65 49.5t-117 18q-109 0 -163.5 -34t-64.5 -103h-79q12 110 86 163.5t220 53.5q81 0 137.5 -20t92 -57.5 t51.5 -91t16 -120.5v-506h-80v100zM636 399h-121q-174 0 -259.5 -50t-85.5 -143q0 -69 54 -107.5t148 -38.5q41 0 79.5 12.5t72.5 32.5t62.5 44.5t49.5 47.5v202zM542 850h-89l-146 186h146z" />
<glyph unicode="&#xe1;" horiz-adv-x="850" vert-adv-y="2191" d="M636 100q-41 -36 -80 -59.5t-76.5 -37t-74.5 -18.5t-75 -5q-51 0 -95 15.5t-76 44t-50.5 69t-18.5 89.5q0 133 113.5 207t340.5 74h92q0 51 -6 94t-28 74.5t-65 49.5t-117 18q-109 0 -163.5 -34t-64.5 -103h-79q12 110 86 163.5t220 53.5q81 0 137.5 -20t92 -57.5 t51.5 -91t16 -120.5v-506h-80v100zM636 399h-121q-174 0 -259.5 -50t-85.5 -143q0 -69 54 -107.5t148 -38.5q41 0 79.5 12.5t72.5 32.5t62.5 44.5t49.5 47.5v202zM542 1036l-146 -186h-89l89 186h146z" />
<glyph unicode="&#xe2;" horiz-adv-x="850" vert-adv-y="2191" d="M636 100q-41 -36 -80 -59.5t-76.5 -37t-74.5 -18.5t-75 -5q-51 0 -95 15.5t-76 44t-50.5 69t-18.5 89.5q0 133 113.5 207t340.5 74h92q0 51 -6 94t-28 74.5t-65 49.5t-117 18q-109 0 -163.5 -34t-64.5 -103h-79q12 110 86 163.5t220 53.5q81 0 137.5 -20t92 -57.5 t51.5 -91t16 -120.5v-506h-80v100zM636 399h-121q-174 0 -259.5 -50t-85.5 -143q0 -69 54 -107.5t148 -38.5q41 0 79.5 12.5t72.5 32.5t62.5 44.5t49.5 47.5v202zM614 850h-115l-75 111l-74 -111h-114l146 185h86z" />
<glyph unicode="&#xe3;" horiz-adv-x="850" vert-adv-y="2191" d="M636 100q-41 -36 -80 -59.5t-76.5 -37t-74.5 -18.5t-75 -5q-51 0 -95 15.5t-76 44t-50.5 69t-18.5 89.5q0 133 113.5 207t340.5 74h92q0 51 -6 94t-28 74.5t-65 49.5t-117 18q-109 0 -163.5 -34t-64.5 -103h-79q12 110 86 163.5t220 53.5q81 0 137.5 -20t92 -57.5 t51.5 -91t16 -120.5v-506h-80v100zM636 399h-121q-174 0 -259.5 -50t-85.5 -143q0 -69 54 -107.5t148 -38.5q41 0 79.5 12.5t72.5 32.5t62.5 44.5t49.5 47.5v202zM636 1003q0 -72 -33 -111.5t-91 -39.5q-15 0 -41.5 8.5t-54 19t-50 19t-29.5 8.5q-28 0 -39 -14t-14 -43h-71 q0 71 33.5 104t90.5 33q14 0 40 -9t53.5 -19.5t50.5 -19.5t31 -9q21 0 37 20.5t16 52.5h71z" />
<glyph unicode="&#xe4;" horiz-adv-x="850" vert-adv-y="2191" d="M636 100q-41 -36 -80 -59.5t-76.5 -37t-74.5 -18.5t-75 -5q-51 0 -95 15.5t-76 44t-50.5 69t-18.5 89.5q0 133 113.5 207t340.5 74h92q0 51 -6 94t-28 74.5t-65 49.5t-117 18q-109 0 -163.5 -34t-64.5 -103h-79q12 110 86 163.5t220 53.5q81 0 137.5 -20t92 -57.5 t51.5 -91t16 -120.5v-506h-80v100zM636 399h-121q-174 0 -259.5 -50t-85.5 -143q0 -69 54 -107.5t148 -38.5q41 0 79.5 12.5t72.5 32.5t62.5 44.5t49.5 47.5v202zM364 850h-108v111h108v-111zM593 850h-106v111h106v-111z" />
<glyph unicode="&#xe5;" horiz-adv-x="850" vert-adv-y="2191" d="M554 928q0 -27 -10 -50t-27 -40.5t-39.5 -27.5t-48.5 -10t-49.5 10t-41 27t-28 40.5t-10.5 50.5q0 26 10.5 49t28 40.5t41 27.5t49.5 10t48.5 -10.5t39.5 -28t27 -40.5t10 -48zM505 928q0 32 -22 55t-54 23q-33 0 -56 -23t-23 -55t23 -55.5t56 -23.5q16 0 29.5 6.5t24 17 t16.5 25t6 30.5zM636 100q-41 -36 -80 -59.5t-76.5 -37t-74.5 -18.5t-75 -5q-51 0 -95 15.5t-76 44t-50.5 69t-18.5 89.5q0 133 113.5 207t340.5 74h92q0 51 -6 94t-28 74.5t-65 49.5t-117 18q-109 0 -163.5 -34t-64.5 -103h-79q12 110 86 163.5t220 53.5q81 0 137.5 -20 t92 -57.5t51.5 -91t16 -120.5v-506h-80v100zM636 399h-121q-174 0 -259.5 -50t-85.5 -143q0 -69 54 -107.5t148 -38.5q41 0 79.5 12.5t72.5 32.5t62.5 44.5t49.5 47.5v202z" />
<glyph unicode="&#xe6;" horiz-adv-x="1410" vert-adv-y="2191" d="M990 -20q-100 0 -177 41.5t-124 120.5q-43 -43 -81.5 -74t-79.5 -50.5t-89 -28.5t-109 -9q-51 0 -95 15.5t-76 44t-50.5 69t-18.5 89.5q0 133 113.5 207t340.5 74h92q0 51 -6 94t-28 74.5t-65 49.5t-117 18q-109 0 -163.5 -34t-64.5 -103h-79q12 110 86 163.5t220 53.5 q115 0 181 -40t94 -112q45 73 117 112.5t164 39.5q79 0 143 -28t109 -80.5t69 -128t24 -170.5v-18h-604v-11q0 -70 22 -125.5t59.5 -94t87 -59t105.5 -20.5q40 0 80 9.5t72.5 28.5t54.5 47t26 64h79q-11 -55 -39 -97.5t-69 -72t-93 -44.5t-111 -15zM170 206q0 -69 54 -107.5 t148 -38.5q38 0 77 12.5t76 33.5t71 49t61 58q-27 76 -27 176v10h-115q-174 0 -259.5 -50t-85.5 -143zM1239 450q-20 133 -90.5 199t-173.5 66q-50 0 -95.5 -17.5t-81 -51.5t-57.5 -83t-25 -113h523z" />
<glyph unicode="&#xe7;" horiz-adv-x="764" vert-adv-y="2191" d="M429 -20q-77 0 -140.5 27t-109 79t-70.5 128t-25 174q0 96 24.5 172t70 128t109 79.5t141.5 27.5q56 0 104.5 -15t86 -44t63 -72t35.5 -98h-78q-5 36 -22.5 64t-45.5 47t-64.5 28.5t-78.5 9.5q-59 0 -108 -20.5t-84 -61.5t-54 -102.5t-19 -142.5q0 -82 19 -143.5 t54 -102.5t84 -61.5t108 -20.5q39 0 75 9.5t64.5 28t47.5 46t24 64.5h78q-11 -56 -36.5 -98.5t-63 -71.5t-86 -43.5t-103.5 -14.5zM442 -70q61 -8 83.5 -35t22.5 -69q0 -29 -8 -53.5t-28.5 -43t-56 -29t-89.5 -10.5q-33 0 -73 3v74q20 -2 39.5 -3.5t38.5 -1.5 q46 0 71.5 13.5t25.5 50.5q0 27 -28 41.5t-78 14.5v97h80v-49z" />
<glyph unicode="&#xe8;" horiz-adv-x="850" vert-adv-y="2191" d="M440 -20q-81 0 -147 27.5t-113.5 80t-73.5 128.5t-26 173q0 94 25 169.5t71 128t109 80.5t140 28q79 0 143 -28t109 -80.5t69 -128t24 -170.5v-18h-610q6 -79 29 -137t60 -96.5t85.5 -57.5t105.5 -19q40 0 80 9.5t72.5 28.5t54.5 47t26 64h79q-11 -55 -39 -97.5t-69 -72 t-93 -44.5t-111 -15zM689 450q-20 133 -90.5 199t-173.5 66q-51 0 -95 -16t-78.5 -49t-58 -83t-33.5 -117h529zM542 850h-89l-146 186h146z" />
<glyph unicode="&#xe9;" horiz-adv-x="850" vert-adv-y="2191" d="M440 -20q-81 0 -147 27.5t-113.5 80t-73.5 128.5t-26 173q0 94 25 169.5t71 128t109 80.5t140 28q79 0 143 -28t109 -80.5t69 -128t24 -170.5v-18h-610q6 -79 29 -137t60 -96.5t85.5 -57.5t105.5 -19q40 0 80 9.5t72.5 28.5t54.5 47t26 64h79q-11 -55 -39 -97.5t-69 -72 t-93 -44.5t-111 -15zM689 450q-20 133 -90.5 199t-173.5 66q-51 0 -95 -16t-78.5 -49t-58 -83t-33.5 -117h529zM542 1036l-146 -186h-89l89 186h146z" />
<glyph unicode="&#xea;" horiz-adv-x="850" vert-adv-y="2191" d="M440 -20q-81 0 -147 27.5t-113.5 80t-73.5 128.5t-26 173q0 94 25 169.5t71 128t109 80.5t140 28q79 0 143 -28t109 -80.5t69 -128t24 -170.5v-18h-610q6 -79 29 -137t60 -96.5t85.5 -57.5t105.5 -19q40 0 80 9.5t72.5 28.5t54.5 47t26 64h79q-11 -55 -39 -97.5t-69 -72 t-93 -44.5t-111 -15zM689 450q-20 133 -90.5 199t-173.5 66q-51 0 -95 -16t-78.5 -49t-58 -83t-33.5 -117h529zM614 850h-115l-75 111l-74 -111h-114l146 185h86z" />
<glyph unicode="&#xeb;" horiz-adv-x="850" vert-adv-y="2191" d="M440 -20q-81 0 -147 27.5t-113.5 80t-73.5 128.5t-26 173q0 94 25 169.5t71 128t109 80.5t140 28q79 0 143 -28t109 -80.5t69 -128t24 -170.5v-18h-610q6 -79 29 -137t60 -96.5t85.5 -57.5t105.5 -19q40 0 80 9.5t72.5 28.5t54.5 47t26 64h79q-11 -55 -39 -97.5t-69 -72 t-93 -44.5t-111 -15zM689 450q-20 133 -90.5 199t-173.5 66q-51 0 -95 -16t-78.5 -49t-58 -83t-33.5 -117h529zM364 850h-108v111h108v-111zM593 850h-106v111h106v-111z" />
<glyph unicode="&#xec;" horiz-adv-x="348" vert-adv-y="2191" d="M217 0h-80v775h80v-775zM252 850h-89l-146 186h146z" />
<glyph unicode="&#xed;" horiz-adv-x="348" vert-adv-y="2191" d="M217 0h-80v775h80v-775zM325 1036l-146 -186h-89l89 186h146z" />
<glyph unicode="&#xee;" horiz-adv-x="348" vert-adv-y="2191" d="M217 0h-80v775h80v-775zM365 850h-115l-75 111l-74 -111h-114l146 185h86z" />
<glyph unicode="&#xef;" horiz-adv-x="348" vert-adv-y="2191" d="M217 0h-80v775h80v-775zM114 850h-108v111h108v-111zM343 850h-106v111h106v-111z" />
<glyph unicode="&#xf0;" horiz-adv-x="850" vert-adv-y="2191" d="M528 961q138 -156 195 -291q56 -133 56 -288q0 -94 -25 -168.5t-71.5 -126.5t-111.5 -79.5t-146 -27.5q-80 0 -145 27t-111.5 79t-72 126.5t-25.5 169.5t26.5 168t74 123t114 75.5t146.5 25.5q29 0 69.5 -8t91.5 -34q-26 55 -63 104.5t-77 94.5q-41 -20 -87.5 -42 t-90.5 -42q-8 14 -15 26.5t-13 24.5l162 75q-30 29 -63.5 57t-77.5 59h119q30 -23 52 -42t42 -40q35 17 77.5 36.5t80.5 37.5q8 -14 15 -28t13 -25zM425 60q55 0 104.5 21.5t86 62.5t58 101t21.5 137q0 76 -21.5 134t-58 96.5t-86 58t-104.5 19.5q-56 0 -105.5 -19.5 t-86.5 -58t-58 -96.5t-21 -134q0 -77 21 -137t58 -101t86.5 -62.5t105.5 -21.5z" />
<glyph unicode="&#xf1;" horiz-adv-x="850" vert-adv-y="2191" d="M205 660q39 46 76.5 73t73 41t67.5 17.5t60 3.5q239 0 239 -282v-513h-80v506q0 54 -9.5 93.5t-31 65t-56 38t-84.5 12.5q-66 0 -129.5 -39t-125.5 -110v-566h-80v775h80v-115zM636 1003q0 -72 -33 -111.5t-91 -39.5q-15 0 -41.5 8.5t-54 19t-50 19t-29.5 8.5 q-28 0 -39 -14t-14 -43h-71q0 71 33.5 104t90.5 33q14 0 40 -9t53.5 -19.5t50.5 -19.5t31 -9q21 0 37 20.5t16 52.5h71z" />
<glyph unicode="&#xf2;" horiz-adv-x="850" vert-adv-y="2191" d="M425 795q79 0 143 -27.5t109 -80t69 -128t24 -170.5q0 -97 -24.5 -173t-69.5 -128.5t-109 -80t-142 -27.5t-141.5 27t-108.5 79.5t-70 128.5t-25 174q0 96 24.5 171.5t69.5 127.5t109 79.5t142 27.5zM425 60q59 0 107.5 20.5t83.5 62t54.5 103t19.5 143.5 q0 81 -19.5 142.5t-54.5 102t-83.5 61t-107.5 20.5q-60 0 -108.5 -20.5t-83.5 -61t-54 -102t-19 -142.5q0 -82 19 -143.5t54 -103t83.5 -62t108.5 -20.5zM542 850h-89l-146 186h146z" />
<glyph unicode="&#xf3;" horiz-adv-x="850" vert-adv-y="2191" d="M425 795q79 0 143 -27.5t109 -80t69 -128t24 -170.5q0 -97 -24.5 -173t-69.5 -128.5t-109 -80t-142 -27.5t-141.5 27t-108.5 79.5t-70 128.5t-25 174q0 96 24.5 171.5t69.5 127.5t109 79.5t142 27.5zM425 60q59 0 107.5 20.5t83.5 62t54.5 103t19.5 143.5 q0 81 -19.5 142.5t-54.5 102t-83.5 61t-107.5 20.5q-60 0 -108.5 -20.5t-83.5 -61t-54 -102t-19 -142.5q0 -82 19 -143.5t54 -103t83.5 -62t108.5 -20.5zM542 1036l-146 -186h-89l89 186h146z" />
<glyph unicode="&#xf4;" horiz-adv-x="850" vert-adv-y="2191" d="M425 795q79 0 143 -27.5t109 -80t69 -128t24 -170.5q0 -97 -24.5 -173t-69.5 -128.5t-109 -80t-142 -27.5t-141.5 27t-108.5 79.5t-70 128.5t-25 174q0 96 24.5 171.5t69.5 127.5t109 79.5t142 27.5zM425 60q59 0 107.5 20.5t83.5 62t54.5 103t19.5 143.5 q0 81 -19.5 142.5t-54.5 102t-83.5 61t-107.5 20.5q-60 0 -108.5 -20.5t-83.5 -61t-54 -102t-19 -142.5q0 -82 19 -143.5t54 -103t83.5 -62t108.5 -20.5zM614 850h-115l-75 111l-74 -111h-114l146 185h86z" />
<glyph unicode="&#xf5;" horiz-adv-x="850" vert-adv-y="2191" d="M425 795q79 0 143 -27.5t109 -80t69 -128t24 -170.5q0 -97 -24.5 -173t-69.5 -128.5t-109 -80t-142 -27.5t-141.5 27t-108.5 79.5t-70 128.5t-25 174q0 96 24.5 171.5t69.5 127.5t109 79.5t142 27.5zM425 60q59 0 107.5 20.5t83.5 62t54.5 103t19.5 143.5 q0 81 -19.5 142.5t-54.5 102t-83.5 61t-107.5 20.5q-60 0 -108.5 -20.5t-83.5 -61t-54 -102t-19 -142.5q0 -82 19 -143.5t54 -103t83.5 -62t108.5 -20.5zM636 1003q0 -72 -33 -111.5t-91 -39.5q-15 0 -41.5 8.5t-54 19t-50 19t-29.5 8.5q-28 0 -39 -14t-14 -43h-71 q0 71 33.5 104t90.5 33q14 0 40 -9t53.5 -19.5t50.5 -19.5t31 -9q21 0 37 20.5t16 52.5h71z" />
<glyph unicode="&#xf6;" horiz-adv-x="850" vert-adv-y="2191" d="M425 795q79 0 143 -27.5t109 -80t69 -128t24 -170.5q0 -97 -24.5 -173t-69.5 -128.5t-109 -80t-142 -27.5t-141.5 27t-108.5 79.5t-70 128.5t-25 174q0 96 24.5 171.5t69.5 127.5t109 79.5t142 27.5zM425 60q59 0 107.5 20.5t83.5 62t54.5 103t19.5 143.5 q0 81 -19.5 142.5t-54.5 102t-83.5 61t-107.5 20.5q-60 0 -108.5 -20.5t-83.5 -61t-54 -102t-19 -142.5q0 -82 19 -143.5t54 -103t83.5 -62t108.5 -20.5zM364 850h-108v111h108v-111zM593 850h-106v111h106v-111z" />
<glyph unicode="&#xf7;" horiz-adv-x="915" vert-adv-y="2191" d="M758 413h-601v87h601v-87zM527 603h-134v135h134v-135zM527 177h-134v135h134v-135z" />
<glyph unicode="&#xf8;" horiz-adv-x="850" vert-adv-y="2191" d="M425 795q60 0 110.5 -16t91.5 -46l59 82l67 -42l-68 -95q42 -53 63.5 -125.5t21.5 -163.5q0 -97 -24.5 -173t-69.5 -128.5t-109 -80t-142 -27.5q-115 0 -197 58l-61 -85l-67 43l69 97q-43 52 -66 126t-23 170t24.5 171.5t69.5 127.5t109 79.5t142 27.5zM425 715 q-60 0 -108.5 -20.5t-83.5 -61t-54 -102t-19 -142.5q0 -73 15 -129.5t43 -98.5l362 506q-32 23 -71 35.5t-84 12.5zM425 60q59 0 107.5 20.5t83.5 62t54.5 103t19.5 143.5q0 70 -14.5 124.5t-40.5 94.5l-360 -504q31 -23 68.5 -33.5t81.5 -10.5z" />
<glyph unicode="&#xf9;" horiz-adv-x="850" vert-adv-y="2191" d="M645 104q-29 -35 -65.5 -58.5t-74 -38t-74 -21t-65.5 -6.5q-238 0 -238 283v512h80v-505q0 -109 40.5 -159.5t140.5 -50.5q72 0 135.5 40t120.5 114v561h80v-775h-80v104zM542 850h-89l-146 186h146z" />
<glyph unicode="&#xfa;" horiz-adv-x="850" vert-adv-y="2191" d="M645 104q-29 -35 -65.5 -58.5t-74 -38t-74 -21t-65.5 -6.5q-238 0 -238 283v512h80v-505q0 -109 40.5 -159.5t140.5 -50.5q72 0 135.5 40t120.5 114v561h80v-775h-80v104zM542 1036l-146 -186h-89l89 186h146z" />
<glyph unicode="&#xfb;" horiz-adv-x="850" vert-adv-y="2191" d="M645 104q-29 -35 -65.5 -58.5t-74 -38t-74 -21t-65.5 -6.5q-238 0 -238 283v512h80v-505q0 -109 40.5 -159.5t140.5 -50.5q72 0 135.5 40t120.5 114v561h80v-775h-80v104zM614 850h-115l-75 111l-74 -111h-114l146 185h86z" />
<glyph unicode="&#xfc;" horiz-adv-x="850" vert-adv-y="2191" d="M645 104q-29 -35 -65.5 -58.5t-74 -38t-74 -21t-65.5 -6.5q-238 0 -238 283v512h80v-505q0 -109 40.5 -159.5t140.5 -50.5q72 0 135.5 40t120.5 114v561h80v-775h-80v104zM364 850h-108v111h108v-111zM593 850h-106v111h106v-111z" />
<glyph unicode="&#xfd;" horiz-adv-x="764" vert-adv-y="2191" d="M712 775l-282 -789q-26 -70 -52.5 -123t-57.5 -89t-68.5 -54t-83.5 -18q-16 0 -31 1t-30 3v86q8 -1 17 -1h19q69 0 118 47.5t86 154.5l-295 782h88l253 -676l232 676h87zM499 1036l-146 -186h-89l89 186h146z" />
<glyph unicode="&#xfe;" horiz-adv-x="850" vert-adv-y="2191" d="M205 660q38 46 73.5 73t68.5 41t63.5 18t59.5 4q72 0 128 -29t94 -81.5t58 -126.5t20 -164q0 -95 -23.5 -171.5t-65 -130.5t-98 -83.5t-122.5 -29.5q-28 0 -58 2.5t-62 12.5t-66 29.5t-70 52.5v-362h-80v1380h80v-435zM205 174q108 -114 248 -114q54 0 97.5 21.5 t74.5 63.5t48 104.5t17 145.5q0 158 -60.5 239t-170.5 81q-144 0 -254 -155v-386z" />
<glyph unicode="&#xff;" horiz-adv-x="764" vert-adv-y="2191" d="M712 775l-282 -789q-26 -70 -52.5 -123t-57.5 -89t-68.5 -54t-83.5 -18q-16 0 -31 1t-30 3v86q8 -1 17 -1h19q69 0 118 47.5t86 154.5l-295 782h88l253 -676l232 676h87zM321 850h-108v111h108v-111zM550 850h-106v111h106v-111z" />
<glyph unicode="&#x152;" horiz-adv-x="1645" vert-adv-y="2191" d="M1583 1095v-80h-684v-405h641v-80h-641v-450h711v-80h-791v23q-98 -43 -213 -43q-114 0 -209 41.5t-163.5 116.5t-106.5 180t-38 233q0 129 38.5 233t107.5 177.5t163.5 113.5t207.5 40q115 0 213 -43v23h764zM819 985q-46 25 -99.5 37.5t-111.5 12.5q-95 0 -174.5 -32 t-137.5 -93.5t-90.5 -151.5t-32.5 -207t32 -208.5t89.5 -154.5t137 -95.5t173.5 -32.5q119 0 214 52v873z" />
<glyph unicode="&#x153;" horiz-adv-x="1462" vert-adv-y="2191" d="M1050 -20q-111 0 -193.5 50.5t-125.5 146.5q-42 -96 -120 -146.5t-186 -50.5q-78 0 -141.5 27t-108.5 79.5t-70 128.5t-25 174q0 96 24.5 171.5t69.5 127.5t109 79.5t142 27.5q109 0 187 -51t119 -145q42 94 120.5 145t183.5 51q79 0 143 -28t109 -80.5t69 -128 t24 -170.5v-18h-610q6 -79 29 -137t60 -96.5t85.5 -57.5t105.5 -19q40 0 80 9.5t72.5 28.5t54.5 47t26 64h79q-11 -55 -39 -97.5t-69 -72t-93 -44.5t-111 -15zM425 60q59 0 107.5 20.5t83.5 62t54.5 103t19.5 143.5q0 81 -19.5 142.5t-54.5 102t-83.5 61t-107.5 20.5 q-60 0 -108.5 -20.5t-83.5 -61t-54 -102t-19 -142.5q0 -82 19 -143.5t54 -103t83.5 -62t108.5 -20.5zM1299 450q-20 133 -90.5 199t-173.5 66q-51 0 -95 -16t-78.5 -49t-58 -83t-33.5 -117h529z" />
<glyph unicode="&#x160;" horiz-adv-x="1037" vert-adv-y="2191" d="M545 -20q-111 0 -194 23.5t-139.5 67t-86.5 105t-35 138.5h79q12 -74 45 -123t81.5 -78t110.5 -41t132 -12q73 0 131.5 15.5t100 45t63.5 71t22 93.5q0 55 -19 92.5t-64 65.5t-118.5 50t-182.5 45q-90 20 -154.5 46t-106.5 60.5t-62 79t-20 103.5q0 64 27 117t76.5 91 t119 59t153.5 21t154 -19.5t122.5 -56.5t85 -90t41.5 -120h-77q-11 44 -36 82t-64.5 65.5t-94 43t-124.5 15.5q-147 0 -222.5 -54t-75.5 -148q0 -43 14 -75t47.5 -57.5t88.5 -45t137 -36.5q48 -10 99 -21t99.5 -26t92.5 -37t76.5 -54t52 -76.5t19.5 -105.5 q0 -70 -29.5 -128.5t-82 -101t-125 -66t-157.5 -23.5zM696 1375l-146 -185h-86l-146 185h114l75 -112l74 112h115z" />
<glyph unicode="&#x161;" horiz-adv-x="764" vert-adv-y="2191" d="M386 -20q-285 0 -311 229h81q9 -70 64.5 -109.5t164.5 -39.5q53 0 93 11.5t66.5 31t39.5 46.5t13 58t-10.5 53t-38 40t-75 34.5t-121.5 35.5q-63 16 -112 33t-82.5 42t-50.5 60.5t-17 88.5q0 46 19.5 83.5t54.5 63.5t85 40t111 14q138 0 209.5 -46.5t79.5 -146.5h-81 q-8 58 -55.5 85.5t-141.5 27.5q-44 0 -81 -8t-63.5 -23.5t-41.5 -39t-15 -53.5q0 -17 6 -35t30.5 -37t73.5 -38.5t134 -40.5q67 -17 116.5 -35.5t82 -44t48.5 -59.5t16 -80q0 -51 -20.5 -95.5t-58 -76.5t-91.5 -50.5t-121 -18.5zM551 1030l-146 -185h-86l-146 185h114 l75 -112l74 112h115z" />
<glyph unicode="&#x178;" horiz-adv-x="1037" vert-adv-y="2191" d="M988 1095l-428 -625v-470h-80v470l-432 625h94l378 -541l375 541h93zM458 1230h-108v111h108v-111zM687 1230h-106v111h106v-111z" />
<glyph unicode="&#x17d;" horiz-adv-x="950" vert-adv-y="2191" d="M696 1375l-146 -185h-86l-146 185h114l75 -112l74 112h115zM890 0h-842v106l739 909h-674v80h756v-107l-740 -908h761v-80z" />
<glyph unicode="&#x17e;" horiz-adv-x="764" vert-adv-y="2191" d="M551 1030l-146 -185h-86l-146 185h114l75 -112l74 112h115zM679 680l-537 -600h562v-80h-646v95l528 600h-499v80h592v-95z" />
<glyph unicode="&#x192;" horiz-adv-x="589" vert-adv-y="2191" d="M543 1057q-41 18 -78 18q-11 0 -19 -3.5t-14 -16.5t-12 -39t-13 -71l-18 -107h106l-12 -111h-106l-99 -808q-13 -111 -46 -160t-94 -49q-26 0 -52.5 4t-53.5 12v117q29 -8 50 -12.5t37 -4.5q18 0 29 9t18 26t11 42.5t8 57.5l94 766h-105l12 111h105l11 110q7 74 21 121 t32.5 73.5t42.5 36.5t51 10q52 0 94 -14v-118z" />
<glyph unicode="&#x2c6;" horiz-adv-x="510" vert-adv-y="2191" d="M444 850h-115l-75 111l-74 -111h-114l146 185h86z" />
<glyph unicode="&#x2dc;" horiz-adv-x="535" vert-adv-y="2191" d="M479 1003q0 -72 -33 -111.5t-91 -39.5q-15 0 -41.5 8.5t-54 19t-50 19t-29.5 8.5q-28 0 -39 -14t-14 -43h-71q0 71 33.5 104t90.5 33q14 0 40 -9t53.5 -19.5t50.5 -19.5t31 -9q21 0 37 20.5t16 52.5h71z" />
<glyph unicode="&#x200c;" horiz-adv-x="80" vert-adv-y="2191" d="M80 -215h-80v1691h80v-1691z" />
<glyph unicode="&#x200d;" horiz-adv-x="80" vert-adv-y="2191" d="M80 -215h-80v1485h80v-1485zM370 1482l-274 -142l274 -144v-48l-330 168l-330 -170v48l274 142l-274 144v48l330 -168l330 170v-48z" />
<glyph unicode="&#x2013;" horiz-adv-x="793" vert-adv-y="2191" d="M797 548h-799v80h799v-80z" />
<glyph unicode="&#x2014;" horiz-adv-x="1296" vert-adv-y="2191" d="M1299 546h-1301v80h1301v-80z" />
<glyph unicode="&#x2018;" horiz-adv-x="457" vert-adv-y="2191" d="M317 909v-146h-146v146q0 94 37 150t109 56v-68q-71 0 -71 -138h71z" />
<glyph unicode="&#x2019;" horiz-adv-x="457" vert-adv-y="2191" d="M317 949q0 -94 -37 -150t-109 -56v68q71 0 71 138h-71v146h146v-146z" />
<glyph unicode="&#x201a;" horiz-adv-x="406" vert-adv-y="2191" d="M276 0q0 -94 -37 -150t-109 -56v68q71 0 71 138h-71v146h146v-146z" />
<glyph unicode="&#x201c;" horiz-adv-x="711" vert-adv-y="2191" d="M317 909v-146h-146v146q0 94 37 150t109 56v-68q-71 0 -71 -138h71zM573 909v-146h-146v146q0 94 37 150t109 56v-68q-71 0 -71 -138h71z" />
<glyph unicode="&#x201d;" horiz-adv-x="711" vert-adv-y="2191" d="M317 949q0 -94 -37 -150t-109 -56v68q71 0 71 138h-71v146h146v-146zM573 949q0 -94 -37 -150t-109 -56v68q71 0 71 138h-71v146h146v-146z" />
<glyph unicode="&#x201e;" horiz-adv-x="572" vert-adv-y="2191" d="M249 0q0 -94 -37 -150t-109 -56v68q71 0 71 138h-71v146h146v-146zM469 0q0 -94 -37 -150t-109 -56v68q72 0 72 138h-72v146h146v-146z" />
<glyph unicode="&#x2020;" horiz-adv-x="813" vert-adv-y="2191" d="M756 638h-302v-945h-95v945h-302v84h302v324h95v-324h302v-84z" />
<glyph unicode="&#x2021;" horiz-adv-x="813" vert-adv-y="2191" d="M756 27h-302v-334h-95v334h-302v85h302v526h-302v84h302v324h95v-324h301v-84h-301v-526h302v-85z" />
<glyph unicode="&#x2022;" horiz-adv-x="406" vert-adv-y="2191" d="M81 556q0 24 9.5 45.5t26 37.5t37.5 25.5t45 9.5t45.5 -9.5t37 -25.5t25 -37.5t9.5 -45.5t-9 -45.5t-25 -38t-37.5 -26t-45.5 -9.5t-45.5 9.5t-37.5 25.5t-25.5 38t-9.5 46z" />
<glyph unicode="&#x2025;" vert-adv-y="2191" d="M328 0v146h146v-146h-146zM926 0v146h146v-146h-146z" />
<glyph unicode="&#x2026;" horiz-adv-x="1293" vert-adv-y="2191" d="M287 77q0 -33 -23 -55t-55 -22t-54.5 22t-22.5 55q0 32 22.5 54.5t54.5 22.5t55 -22.5t23 -54.5zM724 77q0 -33 -22.5 -55t-54.5 -22q-33 0 -55 22t-22 55q0 32 22 54.5t55 22.5q32 0 54.5 -22.5t22.5 -54.5zM1161 77q0 -33 -22.5 -55t-53.5 -22q-33 0 -55.5 22t-22.5 55 q0 32 22.5 54.5t55.5 22.5q31 0 53.5 -22.5t22.5 -54.5z" />
<glyph unicode="&#x2030;" horiz-adv-x="1673" vert-adv-y="2191" d="M840 561q108 0 169.5 -75.5t61.5 -213.5q0 -139 -61.5 -215.5t-169.5 -76.5q-107 0 -168 76t-61 216q0 138 61 213.5t168 75.5zM290 1115q53 0 95.5 -20t72 -57.5t45.5 -91.5t16 -123q0 -139 -61.5 -214t-167.5 -75q-108 0 -169 75t-61 214t61 215.5t169 76.5zM290 594 q67 0 105.5 54.5t38.5 174.5q0 121 -38.5 176t-105.5 55q-68 0 -107 -55t-39 -176q0 -120 39 -174.5t107 -54.5zM840 40q68 0 106.5 55.5t38.5 176.5q0 120 -39 174.5t-106 54.5t-105.5 -54.5t-38.5 -174.5q0 -121 38.5 -176.5t105.5 -55.5zM899 1095l-582 -1095h-87 l582 1095h87zM1382 561q108 0 169.5 -75.5t61.5 -213.5q0 -139 -61.5 -215.5t-169.5 -76.5q-107 0 -168 76t-61 216q0 138 61 213.5t168 75.5zM1382 40q68 0 106.5 55.5t38.5 176.5q0 120 -39 174.5t-106 54.5t-105.5 -54.5t-38.5 -174.5q0 -121 38.5 -176.5t105.5 -55.5z " />
<glyph unicode="&#x2039;" horiz-adv-x="487" vert-adv-y="2191" d="M377 51h-86l-227 326l227 326h86l-186 -326z" />
<glyph unicode="&#x203a;" horiz-adv-x="487" vert-adv-y="2191" d="M422 377l-227 -326h-85l186 326l-186 326h85z" />
<glyph unicode="&#x20ac;" horiz-adv-x="919" vert-adv-y="2191" d="M757 319q-20 -170 -96.5 -254.5t-222.5 -84.5q-147 0 -227 103.5t-104 315.5h-86v80h83q-1 12 -1.5 29t-0.5 44q0 26 1 45.5t2 30.5h-84v79h86q11 108 39.5 184t71 124t98.5 70t122 22q138 0 217 -81.5t102 -236.5h-80q-7 57 -28 101.5t-52.5 74.5t-72 46t-86.5 16 q-48 0 -89.5 -16.5t-73 -54t-53 -98.5t-30.5 -151h234q-2 -8 -3.5 -19.5l-3 -23t-3 -22t-2.5 -14.5h-225q-1 -11 -1.5 -30.5t-0.5 -45.5q0 -27 0.5 -44t1.5 -29h208q-2 -7 -3.5 -18.5t-3 -23.5t-3 -22.5t-2.5 -15.5h-193q18 -175 83.5 -257t162.5 -82t160.5 63t78.5 196h80z " />
<glyph unicode="&#x2122;" horiz-adv-x="999" vert-adv-y="2191" d="M925 585h-88v416l-96 -416h-88l-96 416v-416h-89v510h140l88 -393l89 393h140v-510zM409 1010h-139v-425h-96v425h-139v85h374v-85z" />
<glyph unicode="&#x2460;" horiz-adv-x="1503" vert-adv-y="2191" d="M1423 648q0 -92 -24 -177.5t-67.5 -160t-105 -136.5t-135.5 -106t-159.5 -68.5t-177.5 -24.5t-177.5 24t-160.5 68t-137 105t-106 136t-68.5 161t-24.5 179q0 92 24.5 178t68.5 161t106 136.5t137 105.5t160.5 68t177.5 24q91 0 175.5 -24.5t159 -68.5t136 -106 t105.5 -137t68.5 -160.5t24.5 -176.5zM1343 648q0 79 -21.5 154t-60 141t-93 121t-120 94t-140.5 61t-156 22q-121 0 -228.5 -47.5t-188.5 -129t-128 -189t-47 -227.5q0 -122 47 -229.5t128 -188.5t188.5 -128t228.5 -47q120 0 227 47t188 128t128.5 188.5t47.5 229.5z M788 281h-82v640l-66 -79l-51 56l117 147h82v-764z" />
<glyph unicode="&#x2461;" horiz-adv-x="1503" vert-adv-y="2191" d="M1423 648q0 -92 -24 -177.5t-67.5 -160t-105 -136.5t-135.5 -106t-159.5 -68.5t-177.5 -24.5t-177.5 24t-160.5 68t-137 105t-106 136t-68.5 161t-24.5 179q0 92 24.5 178t68.5 161t106 136.5t137 105.5t160.5 68t177.5 24q91 0 175.5 -24.5t159 -68.5t136 -106 t105.5 -137t68.5 -160.5t24.5 -176.5zM1343 648q0 79 -21.5 154t-60 141t-93 121t-120 94t-140.5 61t-156 22q-121 0 -228.5 -47.5t-188.5 -129t-128 -189t-47 -227.5q0 -122 47 -229.5t128 -188.5t188.5 -128t228.5 -47q120 0 227 47t188 128t128.5 188.5t47.5 229.5z M971 844q0 -96 -90 -174q-41 -32 -82.5 -63t-83.5 -62q-89 -80 -89 -186h339v-78h-434q0 14 -0.5 26.5t-0.5 24.5q0 137 93 239q12 14 55 48t118 91q93 70 93 134q0 132 -138 132q-110 0 -168 -93l-64 45q37 58 100 91.5t132 33.5q48 0 88.5 -15.5t70 -43.5t45.5 -66.5 t16 -83.5z" />
<glyph unicode="&#x2462;" horiz-adv-x="1503" vert-adv-y="2191" d="M1423 648q0 -92 -24 -177.5t-67.5 -160t-105 -136.5t-135.5 -106t-159.5 -68.5t-177.5 -24.5t-177.5 24t-160.5 68t-137 105t-106 136t-68.5 161t-24.5 179q0 92 24.5 178t68.5 161t106 136.5t137 105.5t160.5 68t177.5 24q91 0 175.5 -24.5t159 -68.5t136 -106 t105.5 -137t68.5 -160.5t24.5 -176.5zM1343 648q0 79 -21.5 154t-60 141t-93 121t-120 94t-140.5 61t-156 22q-121 0 -228.5 -47.5t-188.5 -129t-128 -189t-47 -227.5q0 -122 47 -229.5t128 -188.5t188.5 -128t228.5 -47q120 0 227 47t188 128t128.5 188.5t47.5 229.5z M992 486q0 -47 -18.5 -87.5t-52.5 -70t-80.5 -46.5t-102.5 -17q-112 0 -200 61v82q100 -65 200 -65q37 0 68.5 10.5t54.5 29.5t36 46.5t13 61.5t-14 62t-38 48t-56 31.5t-69 11.5h-60v77h58q25 0 49 10.5t43 28t31 40.5t12 48q0 30 -10 54.5t-27.5 42.5t-41 27.5t-49.5 9.5 q-15 0 -38.5 -4t-47.5 -10t-44.5 -13t-29.5 -13v78q12 7 32.5 14t43.5 13t46 9.5t40 3.5q43 0 81 -16t66 -44t44.5 -66t16.5 -81q0 -98 -85 -165q60 -29 94.5 -82.5t34.5 -119.5z" />
<glyph unicode="&#x2463;" horiz-adv-x="1503" vert-adv-y="2191" d="M1423 648q0 -92 -24 -177.5t-67.5 -160t-105 -136.5t-135.5 -106t-159.5 -68.5t-177.5 -24.5t-177.5 24t-160.5 68t-137 105t-106 136t-68.5 161t-24.5 179q0 92 24.5 178t68.5 161t106 136.5t137 105.5t160.5 68t177.5 24q91 0 175.5 -24.5t159 -68.5t136 -106 t105.5 -137t68.5 -160.5t24.5 -176.5zM1343 648q0 79 -21.5 154t-60 141t-93 121t-120 94t-140.5 61t-156 22q-121 0 -228.5 -47.5t-188.5 -129t-128 -189t-47 -227.5q0 -122 47 -229.5t128 -188.5t188.5 -128t228.5 -47q120 0 227 47t188 128t128.5 188.5t47.5 229.5z M994 503h-134v-222h-83v222h-327v78l310 464h100v-464h134v-78zM777 581v351l-229 -351h229z" />
<glyph unicode="&#x2464;" horiz-adv-x="1503" vert-adv-y="2191" d="M1423 648q0 -92 -24 -177.5t-67.5 -160t-105 -136.5t-135.5 -106t-159.5 -68.5t-177.5 -24.5t-177.5 24t-160.5 68t-137 105t-106 136t-68.5 161t-24.5 179q0 92 24.5 178t68.5 161t106 136.5t137 105.5t160.5 68t177.5 24q91 0 175.5 -24.5t159 -68.5t136 -106 t105.5 -137t68.5 -160.5t24.5 -176.5zM1343 648q0 79 -21.5 154t-60 141t-93 121t-120 94t-140.5 61t-156 22q-121 0 -228.5 -47.5t-188.5 -129t-128 -189t-47 -227.5q0 -122 47 -229.5t128 -188.5t188.5 -128t228.5 -47q120 0 227 47t188 128t128.5 188.5t47.5 229.5z M1005 507q0 -50 -21.5 -94t-58 -77t-85 -52t-101.5 -19q-51 0 -95.5 8.5t-84.5 24.5v82q78 -37 166 -37q43 0 79.5 12t62.5 34t41 52t15 66q0 32 -16 62t-42.5 53t-61 37t-72.5 14h-153v380h389v-78h-307v-224h75q59 0 108.5 -18.5t85.5 -51.5t56 -77.5t20 -96.5z" />
<glyph unicode="&#x2465;" horiz-adv-x="1503" vert-adv-y="2191" d="M1423 648q0 -92 -24 -177.5t-67.5 -160t-105 -136.5t-135.5 -106t-159.5 -68.5t-177.5 -24.5t-177.5 24t-160.5 68t-137 105t-106 136t-68.5 161t-24.5 179q0 92 24.5 178t68.5 161t106 136.5t137 105.5t160.5 68t177.5 24q91 0 175.5 -24.5t159 -68.5t136 -106 t105.5 -137t68.5 -160.5t24.5 -176.5zM1343 648q0 79 -21.5 154t-60 141t-93 121t-120 94t-140.5 61t-156 22q-121 0 -228.5 -47.5t-188.5 -129t-128 -189t-47 -227.5q0 -122 47 -229.5t128 -188.5t188.5 -128t228.5 -47q120 0 227 47t188 128t128.5 188.5t47.5 229.5z M977 497q0 -49 -16.5 -91t-46 -73.5t-70.5 -49.5t-91 -18q-55 0 -102.5 30.5t-82.5 83t-55 123.5t-20 153q0 89 23 163.5t66 128t103.5 83.5t134.5 30q40 0 98 -22v-78q-50 22 -99 22q-51 0 -95 -23.5t-77 -63t-52 -91.5t-20 -109l-1 -27q81 86 187 86q48 0 87.5 -19t68 -53 t44.5 -81t16 -104zM895 498q0 82 -36.5 130t-99.5 48q-115 0 -174 -111q1 -39 16 -78.5t38.5 -71.5t53.5 -52t62 -20q66 0 103 40.5t37 114.5z" />
<glyph unicode="&#x2466;" horiz-adv-x="1503" vert-adv-y="2191" d="M1423 648q0 -92 -24 -177.5t-67.5 -160t-105 -136.5t-135.5 -106t-159.5 -68.5t-177.5 -24.5t-177.5 24t-160.5 68t-137 105t-106 136t-68.5 161t-24.5 179q0 92 24.5 178t68.5 161t106 136.5t137 105.5t160.5 68t177.5 24q91 0 175.5 -24.5t159 -68.5t136 -106 t105.5 -137t68.5 -160.5t24.5 -176.5zM1343 648q0 79 -21.5 154t-60 141t-93 121t-120 94t-140.5 61t-156 22q-121 0 -228.5 -47.5t-188.5 -129t-128 -189t-47 -227.5q0 -122 47 -229.5t128 -188.5t188.5 -128t228.5 -47q120 0 227 47t188 128t128.5 188.5t47.5 229.5z M1026 968q-107 -128 -177.5 -223t-107.5 -174q-61 -125 -61 -244q0 -14 1 -25t3 -21h-82q-4 23 -4 46q0 173 115 360q19 31 71 100.5t139 180.5h-362v77h465v-77z" />
<glyph unicode="&#x2467;" horiz-adv-x="1503" vert-adv-y="2191" d="M1423 648q0 -92 -24 -177.5t-67.5 -160t-105 -136.5t-135.5 -106t-159.5 -68.5t-177.5 -24.5t-177.5 24t-160.5 68t-137 105t-106 136t-68.5 161t-24.5 179q0 92 24.5 178t68.5 161t106 136.5t137 105.5t160.5 68t177.5 24q91 0 175.5 -24.5t159 -68.5t136 -106 t105.5 -137t68.5 -160.5t24.5 -176.5zM1343 648q0 79 -21.5 154t-60 141t-93 121t-120 94t-140.5 61t-156 22q-121 0 -228.5 -47.5t-188.5 -129t-128 -189t-47 -227.5q0 -122 47 -229.5t128 -188.5t188.5 -128t228.5 -47q120 0 227 47t188 128t128.5 188.5t47.5 229.5z M1000 479q0 -45 -18 -84t-50 -68t-76 -45.5t-96 -16.5q-53 0 -97.5 16t-76 44.5t-49 67.5t-17.5 86q0 33 5.5 59t22 50.5t45.5 49.5t76 56q-123 78 -123 178q0 91 57 139.5t157 48.5q98 0 155 -48.5t57 -139.5q0 -100 -122 -178q46 -32 75.5 -57t46 -49t22.5 -50t6 -59z M918 479q0 86 -158 173q-158 -86 -158 -173q0 -24 13 -48.5t35 -44t50.5 -31.5t59.5 -12t59.5 12t50.5 31t35 43.5t13 49.5zM890 872q0 22 -10.5 42t-28.5 35t-41.5 24t-49.5 9t-50 -9t-42 -24t-28.5 -35t-10.5 -42q0 -15 11.5 -34.5t30.5 -39.5t42 -38t47 -30q23 12 46 30 t42 38t30.5 39.5t11.5 34.5z" />
<glyph unicode="&#x2468;" horiz-adv-x="1503" vert-adv-y="2191" d="M1423 648q0 -92 -24 -177.5t-67.5 -160t-105 -136.5t-135.5 -106t-159.5 -68.5t-177.5 -24.5t-177.5 24t-160.5 68t-137 105t-106 136t-68.5 161t-24.5 179q0 92 24.5 178t68.5 161t106 136.5t137 105.5t160.5 68t177.5 24q91 0 175.5 -24.5t159 -68.5t136 -106 t105.5 -137t68.5 -160.5t24.5 -176.5zM1343 648q0 79 -21.5 154t-60 141t-93 121t-120 94t-140.5 61t-156 22q-121 0 -228.5 -47.5t-188.5 -129t-128 -189t-47 -227.5q0 -122 47 -229.5t128 -188.5t188.5 -128t228.5 -47q120 0 227 47t188 128t128.5 188.5t47.5 229.5z M999 669q0 -89 -22.5 -163t-64 -127.5t-101 -83.5t-133.5 -30q-48 0 -105 21v78q52 -21 106 -21q51 0 94 22.5t74.5 61.5t49.5 91t20 111l1 27q-81 -84 -187 -84q-46 0 -85.5 18.5t-68.5 51.5t-45.5 78t-16.5 98q0 50 16.5 94t46 77t70.5 52t91 19q55 0 103 -30.5t82.5 -84 t54.5 -124.5t20 -152zM902 776q0 36 -13.5 72.5t-36.5 66.5t-53 48.5t-62 18.5q-65 0 -103 -45.5t-38 -119.5q0 -78 36.5 -123t99.5 -45q31 0 61.5 11t54.5 28.5t39 40.5t15 47z" />
<glyph unicode="&#x2469;" horiz-adv-x="1503" vert-adv-y="2191" d="M1423 648q0 -92 -24 -177.5t-67.5 -160t-105 -136.5t-135.5 -106t-159.5 -68.5t-177.5 -24.5t-177.5 24t-160.5 68t-137 105t-106 136t-68.5 161t-24.5 179q0 92 24.5 178t68.5 161t106 136.5t137 105.5t160.5 68t177.5 24q91 0 175.5 -24.5t159 -68.5t136 -106 t105.5 -137t68.5 -160.5t24.5 -176.5zM1343 648q0 79 -21.5 154t-60 141t-93 121t-120 94t-140.5 61t-156 22q-121 0 -228.5 -47.5t-188.5 -129t-128 -189t-47 -227.5q0 -122 47 -229.5t128 -188.5t188.5 -128t228.5 -47q120 0 227 47t188 128t128.5 188.5t47.5 229.5z M1200 662q0 -82 -18.5 -154t-51.5 -126t-78.5 -85.5t-98.5 -31.5q-54 0 -100 31.5t-79.5 86t-52.5 126.5t-19 153t18.5 153.5t52 127t79.5 86t101 31.5q53 0 98.5 -31.5t78.5 -85.5t51.5 -126.5t18.5 -154.5zM1124 662q0 66 -12 123.5t-34.5 100t-54 67t-70.5 24.5t-71 -24 t-54 -66.5t-34 -100t-12 -124.5q0 -66 11.5 -123t33.5 -99.5t53.5 -67t72.5 -24.5q39 0 71 24.5t54 67t34 100t12 122.5zM564 281h-82v640l-66 -79l-51 56l117 147h82v-764z" />
<glyph unicode="&#x246a;" horiz-adv-x="1503" vert-adv-y="2191" d="M1423 648q0 -92 -24 -177.5t-67.5 -160t-105 -136.5t-135.5 -106t-159.5 -68.5t-177.5 -24.5t-177.5 24t-160.5 68t-137 105t-106 136t-68.5 161t-24.5 179q0 92 24.5 178t68.5 161t106 136.5t137 105.5t160.5 68t177.5 24q91 0 175.5 -24.5t159 -68.5t136 -106 t105.5 -137t68.5 -160.5t24.5 -176.5zM1343 648q0 79 -21.5 154t-60 141t-93 121t-120 94t-140.5 61t-156 22q-121 0 -228.5 -47.5t-188.5 -129t-128 -189t-47 -227.5q0 -122 47 -229.5t128 -188.5t188.5 -128t228.5 -47q120 0 227 47t188 128t128.5 188.5t47.5 229.5z M1011 281h-82v640l-66 -79l-51 56l117 147h82v-764zM624 281h-82v640l-66 -79l-51 56l117 147h82v-764z" />
<glyph unicode="&#x246b;" horiz-adv-x="1503" vert-adv-y="2191" d="M1423 648q0 -92 -24 -177.5t-67.5 -160t-105 -136.5t-135.5 -106t-159.5 -68.5t-177.5 -24.5t-177.5 24t-160.5 68t-137 105t-106 136t-68.5 161t-24.5 179q0 92 24.5 178t68.5 161t106 136.5t137 105.5t160.5 68t177.5 24q91 0 175.5 -24.5t159 -68.5t136 -106 t105.5 -137t68.5 -160.5t24.5 -176.5zM1343 648q0 79 -21.5 154t-60 141t-93 121t-120 94t-140.5 61t-156 22q-121 0 -228.5 -47.5t-188.5 -129t-128 -189t-47 -227.5q0 -122 47 -229.5t128 -188.5t188.5 -128t228.5 -47q120 0 227 47t188 128t128.5 188.5t47.5 229.5z M1143 844q0 -96 -90 -174q-41 -32 -82.5 -63t-83.5 -62q-89 -80 -89 -186h339v-78h-434q0 14 -0.5 26.5t-0.5 24.5q0 137 93 239q12 14 55 48t118 91q93 70 93 134q0 132 -138 132q-110 0 -168 -93l-64 45q37 58 100 91.5t132 33.5q48 0 88.5 -15.5t70 -43.5t45.5 -66.5 t16 -83.5zM564 281h-82v640l-66 -79l-51 56l117 147h82v-764z" />
<glyph unicode="&#x246c;" horiz-adv-x="1503" vert-adv-y="2191" d="M1423 648q0 -92 -24 -177.5t-67.5 -160t-105 -136.5t-135.5 -106t-159.5 -68.5t-177.5 -24.5t-177.5 24t-160.5 68t-137 105t-106 136t-68.5 161t-24.5 179q0 92 24.5 178t68.5 161t106 136.5t137 105.5t160.5 68t177.5 24q91 0 175.5 -24.5t159 -68.5t136 -106 t105.5 -137t68.5 -160.5t24.5 -176.5zM1343 648q0 79 -21.5 154t-60 141t-93 121t-120 94t-140.5 61t-156 22q-121 0 -228.5 -47.5t-188.5 -129t-128 -189t-47 -227.5q0 -122 47 -229.5t128 -188.5t188.5 -128t228.5 -47q120 0 227 47t188 128t128.5 188.5t47.5 229.5z M1168 486q0 -47 -18.5 -87.5t-52.5 -70t-80.5 -46.5t-102.5 -17q-112 0 -200 61v82q100 -65 200 -65q37 0 68.5 10.5t54.5 29.5t36 46.5t13 61.5t-14 62t-38 48t-56 31.5t-69 11.5h-60v77h58q25 0 49 10.5t43 28t31 40.5t12 48q0 30 -10 54.5t-27.5 42.5t-41 27.5t-49.5 9.5 q-15 0 -38.5 -4t-47.5 -10t-44.5 -13t-29.5 -13v78q12 7 32.5 14t43.5 13t46 9.5t40 3.5q43 0 81 -16t66 -44t44.5 -66t16.5 -81q0 -98 -85 -165q60 -29 94.5 -82.5t34.5 -119.5zM564 281h-82v640l-66 -79l-51 56l117 147h82v-764z" />
<glyph unicode="&#x246d;" horiz-adv-x="1503" vert-adv-y="2191" d="M1423 648q0 -92 -24 -177.5t-67.5 -160t-105 -136.5t-135.5 -106t-159.5 -68.5t-177.5 -24.5t-177.5 24t-160.5 68t-137 105t-106 136t-68.5 161t-24.5 179q0 92 24.5 178t68.5 161t106 136.5t137 105.5t160.5 68t177.5 24q91 0 175.5 -24.5t159 -68.5t136 -106 t105.5 -137t68.5 -160.5t24.5 -176.5zM1343 648q0 79 -21.5 154t-60 141t-93 121t-120 94t-140.5 61t-156 22q-121 0 -228.5 -47.5t-188.5 -129t-128 -189t-47 -227.5q0 -122 47 -229.5t128 -188.5t188.5 -128t228.5 -47q120 0 227 47t188 128t128.5 188.5t47.5 229.5z M1184 503h-134v-222h-83v222h-327v78l310 464h100v-464h134v-78zM564 281h-82v640l-66 -79l-51 56l117 147h82v-764zM967 581v351l-229 -351h229z" />
<glyph unicode="&#x246e;" horiz-adv-x="1503" vert-adv-y="2191" d="M1423 648q0 -92 -24 -177.5t-67.5 -160t-105 -136.5t-135.5 -106t-159.5 -68.5t-177.5 -24.5t-177.5 24t-160.5 68t-137 105t-106 136t-68.5 161t-24.5 179q0 92 24.5 178t68.5 161t106 136.5t137 105.5t160.5 68t177.5 24q91 0 175.5 -24.5t159 -68.5t136 -106 t105.5 -137t68.5 -160.5t24.5 -176.5zM1343 648q0 79 -21.5 154t-60 141t-93 121t-120 94t-140.5 61t-156 22q-121 0 -228.5 -47.5t-188.5 -129t-128 -189t-47 -227.5q0 -122 47 -229.5t128 -188.5t188.5 -128t228.5 -47q120 0 227 47t188 128t128.5 188.5t47.5 229.5z M1142 507q0 -50 -21.5 -94t-58 -77t-85 -52t-101.5 -19q-51 0 -95.5 8.5t-84.5 24.5v82q78 -37 166 -37q43 0 79.5 12t62.5 34t41 52t15 66q0 32 -16 62t-42.5 53t-61 37t-72.5 14h-153v380h389v-78h-307v-224h75q59 0 108.5 -18.5t85.5 -51.5t56 -77.5t20 -96.5zM564 281 h-82v640l-66 -79l-51 56l117 147h82v-764z" />
<glyph unicode="&#x246f;" horiz-adv-x="1503" vert-adv-y="2191" d="M1423 648q0 -92 -24 -177.5t-67.5 -160t-105 -136.5t-135.5 -106t-159.5 -68.5t-177.5 -24.5t-177.5 24t-160.5 68t-137 105t-106 136t-68.5 161t-24.5 179q0 92 24.5 178t68.5 161t106 136.5t137 105.5t160.5 68t177.5 24q91 0 175.5 -24.5t159 -68.5t136 -106 t105.5 -137t68.5 -160.5t24.5 -176.5zM1343 648q0 79 -21.5 154t-60 141t-93 121t-120 94t-140.5 61t-156 22q-121 0 -228.5 -47.5t-188.5 -129t-128 -189t-47 -227.5q0 -122 47 -229.5t128 -188.5t188.5 -128t228.5 -47q120 0 227 47t188 128t128.5 188.5t47.5 229.5z M1143 497q0 -49 -16.5 -91t-46 -73.5t-70.5 -49.5t-91 -18q-55 0 -102.5 30.5t-82.5 83t-55 123.5t-20 153q0 89 23 163.5t66 128t103.5 83.5t134.5 30q40 0 98 -22v-78q-50 22 -99 22q-51 0 -95 -23.5t-77 -63t-52 -91.5t-20 -109l-1 -27q81 86 187 86q48 0 87.5 -19 t68 -53t44.5 -81t16 -104zM1061 498q0 82 -36.5 130t-99.5 48q-115 0 -174 -111q1 -39 16 -78.5t38.5 -71.5t53.5 -52t62 -20q66 0 103 40.5t37 114.5zM564 281h-82v640l-66 -79l-51 56l117 147h82v-764z" />
<glyph unicode="&#x2470;" horiz-adv-x="1503" vert-adv-y="2191" d="M1423 648q0 -92 -24 -177.5t-67.5 -160t-105 -136.5t-135.5 -106t-159.5 -68.5t-177.5 -24.5t-177.5 24t-160.5 68t-137 105t-106 136t-68.5 161t-24.5 179q0 92 24.5 178t68.5 161t106 136.5t137 105.5t160.5 68t177.5 24q91 0 175.5 -24.5t159 -68.5t136 -106 t105.5 -137t68.5 -160.5t24.5 -176.5zM1343 648q0 79 -21.5 154t-60 141t-93 121t-120 94t-140.5 61t-156 22q-121 0 -228.5 -47.5t-188.5 -129t-128 -189t-47 -227.5q0 -122 47 -229.5t128 -188.5t188.5 -128t228.5 -47q120 0 227 47t188 128t128.5 188.5t47.5 229.5z M1142 968q-107 -128 -177.5 -223t-107.5 -174q-61 -125 -61 -244q0 -14 1 -25t3 -21h-82q-4 23 -4 46q0 173 115 360q19 31 71 100.5t139 180.5h-362v77h465v-77zM564 281h-82v640l-66 -79l-51 56l117 147h82v-764z" />
<glyph unicode="&#x2471;" horiz-adv-x="1503" vert-adv-y="2191" d="M1423 648q0 -92 -24 -177.5t-67.5 -160t-105 -136.5t-135.5 -106t-159.5 -68.5t-177.5 -24.5t-177.5 24t-160.5 68t-137 105t-106 136t-68.5 161t-24.5 179q0 92 24.5 178t68.5 161t106 136.5t137 105.5t160.5 68t177.5 24q91 0 175.5 -24.5t159 -68.5t136 -106 t105.5 -137t68.5 -160.5t24.5 -176.5zM1343 648q0 79 -21.5 154t-60 141t-93 121t-120 94t-140.5 61t-156 22q-121 0 -228.5 -47.5t-188.5 -129t-128 -189t-47 -227.5q0 -122 47 -229.5t128 -188.5t188.5 -128t228.5 -47q120 0 227 47t188 128t128.5 188.5t47.5 229.5z M1148 479q0 -45 -18 -84t-50 -68t-76 -45.5t-96 -16.5q-53 0 -97.5 16t-76 44.5t-49 67.5t-17.5 86q0 33 5.5 59t22 50.5t45.5 49.5t76 56q-123 78 -123 178q0 91 57 139.5t157 48.5q98 0 155 -48.5t57 -139.5q0 -100 -122 -178q46 -32 75.5 -57t46 -49t22.5 -50t6 -59z M564 281h-82v640l-66 -79l-51 56l117 147h82v-764zM1066 479q0 86 -158 173q-158 -86 -158 -173q0 -24 13 -48.5t35 -44t50.5 -31.5t59.5 -12t59.5 12t50.5 31t35 43.5t13 49.5zM1038 872q0 22 -10.5 42t-28.5 35t-41.5 24t-49.5 9t-50 -9t-42 -24t-28.5 -35t-10.5 -42 q0 -15 11.5 -34.5t30.5 -39.5t42 -38t47 -30q23 12 46 30t42 38t30.5 39.5t11.5 34.5z" />
<glyph unicode="&#x2472;" horiz-adv-x="1503" vert-adv-y="2191" d="M1423 648q0 -92 -24 -177.5t-67.5 -160t-105 -136.5t-135.5 -106t-159.5 -68.5t-177.5 -24.5t-177.5 24t-160.5 68t-137 105t-106 136t-68.5 161t-24.5 179q0 92 24.5 178t68.5 161t106 136.5t137 105.5t160.5 68t177.5 24q91 0 175.5 -24.5t159 -68.5t136 -106 t105.5 -137t68.5 -160.5t24.5 -176.5zM1343 648q0 79 -21.5 154t-60 141t-93 121t-120 94t-140.5 61t-156 22q-121 0 -228.5 -47.5t-188.5 -129t-128 -189t-47 -227.5q0 -122 47 -229.5t128 -188.5t188.5 -128t228.5 -47q120 0 227 47t188 128t128.5 188.5t47.5 229.5z M1172 669q0 -89 -22.5 -163t-64 -127.5t-101 -83.5t-133.5 -30q-48 0 -105 21v78q52 -21 106 -21q51 0 94 22.5t74.5 61.5t49.5 91t20 111l1 27q-81 -84 -187 -84q-46 0 -85.5 18.5t-68.5 51.5t-45.5 78t-16.5 98q0 50 16.5 94t46 77t70.5 52t91 19q55 0 103 -30.5t82.5 -84 t54.5 -124.5t20 -152zM1075 776q0 36 -13.5 72.5t-36.5 66.5t-53 48.5t-62 18.5q-65 0 -103 -45.5t-38 -119.5q0 -78 36.5 -123t99.5 -45q31 0 61.5 11t54.5 28.5t39 40.5t15 47zM564 281h-82v640l-66 -79l-51 56l117 147h82v-764z" />
<glyph unicode="&#x2473;" horiz-adv-x="1503" vert-adv-y="2191" d="M1423 648q0 -92 -24 -177.5t-67.5 -160t-105 -136.5t-135.5 -106t-159.5 -68.5t-177.5 -24.5t-177.5 24t-160.5 68t-137 105t-106 136t-68.5 161t-24.5 179q0 92 24.5 178t68.5 161t106 136.5t137 105.5t160.5 68t177.5 24q91 0 175.5 -24.5t159 -68.5t136 -106 t105.5 -137t68.5 -160.5t24.5 -176.5zM1343 648q0 79 -21.5 154t-60 141t-93 121t-120 94t-140.5 61t-156 22q-121 0 -228.5 -47.5t-188.5 -129t-128 -189t-47 -227.5q0 -122 47 -229.5t128 -188.5t188.5 -128t228.5 -47q120 0 227 47t188 128t128.5 188.5t47.5 229.5z M1240 662q0 -82 -18.5 -154t-51.5 -126t-78.5 -85.5t-98.5 -31.5q-54 0 -100 31.5t-79.5 86t-52.5 126.5t-19 153t18.5 153.5t52 127t79.5 86t101 31.5q53 0 98.5 -31.5t78.5 -85.5t51.5 -126.5t18.5 -154.5zM1164 662q0 66 -12 123.5t-34.5 100t-54 67t-70.5 24.5t-71 -24 t-54 -66.5t-34 -100t-12 -124.5q0 -66 11.5 -123t33.5 -99.5t53.5 -67t72.5 -24.5q39 0 71 24.5t54 67t34 100t12 122.5zM716 844q0 -48 -18 -91.5t-58 -82.5q-35 -32 -69 -63t-71 -62q-40 -41 -59 -84.5t-19 -96.5h288v-83h-375q0 14 -0.5 26.5t-0.5 24.5q0 137 81 239 q22 28 149 139q40 35 59 68.5t19 65.5q0 66 -30.5 96.5t-91.5 30.5q-47 0 -80.5 -23t-59.5 -70l-56 50q16 29 38.5 52.5t48.5 39.5t55 24.5t59 8.5q43 0 78 -15.5t60 -43.5t39 -66.5t14 -83.5z" />
<glyph unicode="&#x25cc;" horiz-adv-x="1764" vert-adv-y="2191" d="M644 1128q-47 -26 -83 -61.5t-65 -82.5l-112 84q71 103 180 176zM1376 1068l-112 -84q-57 93 -144 144l76 116q112 -73 180 -176zM456 668l-140 -24q-12 57 -12 120q0 67 12 124l140 -16q-12 -51 -12 -108q0 -51 12 -96zM1456 764q0 -63 -12 -120l-140 24q12 45 12 96 q0 57 -12 108l140 16q12 -60 12 -124zM1008 204q-69 -12 -128 -12t-128 12l28 136q48 -12 100 -12q53 0 104 12zM644 404l-80 -112q-109 70 -180 176l112 80q29 -47 65 -82.5t83 -61.5zM1008 1324l-24 -132q-51 12 -104 12q-52 0 -100 -12l-28 132q35 8 66.5 12t61.5 4 t61.5 -4t66.5 -12zM1376 468q-68 -106 -180 -176l-76 112q87 51 144 144z" />
<glyph unicode="&#x2776;" horiz-adv-x="1503" vert-adv-y="2191" d="M1423 648q0 -92 -24 -177.5t-67.5 -160t-105 -136.5t-135.5 -106t-159.5 -68.5t-177.5 -24.5t-177.5 24t-160.5 68t-137 105t-106 136t-68.5 161t-24.5 179q0 92 24.5 178t68.5 161t106 136.5t137 105.5t160.5 68t177.5 24q91 0 175.5 -24.5t159 -68.5t136 -106 t105.5 -137t68.5 -160.5t24.5 -176.5zM788 1045h-82l-117 -147l51 -56l66 79v-640h82v764z" />
<glyph unicode="&#x2777;" horiz-adv-x="1503" vert-adv-y="2191" d="M1423 648q0 -92 -24 -177.5t-67.5 -160t-105 -136.5t-135.5 -106t-159.5 -68.5t-177.5 -24.5t-177.5 24t-160.5 68t-137 105t-106 136t-68.5 161t-24.5 179q0 92 24.5 178t68.5 161t106 136.5t137 105.5t160.5 68t177.5 24q91 0 175.5 -24.5t159 -68.5t136 -106 t105.5 -137t68.5 -160.5t24.5 -176.5zM971 844q0 45 -16 83.5t-45.5 66.5t-70 43.5t-88.5 15.5q-69 0 -132 -33.5t-100 -91.5l64 -45q58 93 168 93q138 0 138 -132q0 -64 -93 -134q-75 -57 -118 -91t-55 -48q-93 -102 -93 -239q0 -12 0.5 -24.5t0.5 -26.5h434v78h-339 q0 106 89 186q42 31 83.5 62t82.5 63q90 78 90 174z" />
<glyph unicode="&#x2778;" horiz-adv-x="1503" vert-adv-y="2191" d="M1423 648q0 -92 -24 -177.5t-67.5 -160t-105 -136.5t-135.5 -106t-159.5 -68.5t-177.5 -24.5t-177.5 24t-160.5 68t-137 105t-106 136t-68.5 161t-24.5 179q0 92 24.5 178t68.5 161t106 136.5t137 105.5t160.5 68t177.5 24q91 0 175.5 -24.5t159 -68.5t136 -106 t105.5 -137t68.5 -160.5t24.5 -176.5zM992 486q0 66 -34.5 119.5t-94.5 82.5q85 67 85 165q0 43 -16.5 81t-44.5 66t-66 44t-81 16q-17 0 -40 -3.5t-46 -9.5t-43.5 -13t-32.5 -14v-78q9 6 29.5 13t44.5 13t47.5 10t38.5 4q26 0 49.5 -9.5t41 -27.5t27.5 -42.5t10 -54.5 q0 -25 -12 -48t-31 -40.5t-43 -28t-49 -10.5h-58v-77h60q37 0 69 -11.5t56 -31.5t38 -48t14 -62t-13 -61.5t-36 -46.5t-54.5 -29.5t-68.5 -10.5q-100 0 -200 65v-82q88 -61 200 -61q56 0 102.5 17t80.5 46.5t52.5 70t18.5 87.5z" />
<glyph unicode="&#x2779;" horiz-adv-x="1503" vert-adv-y="2191" d="M1423 648q0 -92 -24 -177.5t-67.5 -160t-105 -136.5t-135.5 -106t-159.5 -68.5t-177.5 -24.5t-177.5 24t-160.5 68t-137 105t-106 136t-68.5 161t-24.5 179q0 92 24.5 178t68.5 161t106 136.5t137 105.5t160.5 68t177.5 24q91 0 175.5 -24.5t159 -68.5t136 -106 t105.5 -137t68.5 -160.5t24.5 -176.5zM994 581h-134v464h-100l-310 -464v-78h327v-222h83v222h134v78zM548 581l229 351v-351h-229z" />
<glyph unicode="&#x277a;" horiz-adv-x="1503" vert-adv-y="2191" d="M1423 648q0 -92 -24 -177.5t-67.5 -160t-105 -136.5t-135.5 -106t-159.5 -68.5t-177.5 -24.5t-177.5 24t-160.5 68t-137 105t-106 136t-68.5 161t-24.5 179q0 92 24.5 178t68.5 161t106 136.5t137 105.5t160.5 68t177.5 24q91 0 175.5 -24.5t159 -68.5t136 -106 t105.5 -137t68.5 -160.5t24.5 -176.5zM1005 507q0 52 -20 96.5t-56 77.5t-85.5 51.5t-108.5 18.5h-75v224h307v78h-389v-380h153q38 0 72.5 -14t61 -37t42.5 -53t16 -62q0 -36 -15 -66t-41 -52t-62.5 -34t-79.5 -12q-88 0 -166 37v-82q40 -16 84.5 -24.5t95.5 -8.5 q53 0 101.5 19t85 52t58 77t21.5 94z" />
<glyph unicode="&#x277b;" horiz-adv-x="1503" vert-adv-y="2191" d="M1423 648q0 -92 -24 -177.5t-67.5 -160t-105 -136.5t-135.5 -106t-159.5 -68.5t-177.5 -24.5t-177.5 24t-160.5 68t-137 105t-106 136t-68.5 161t-24.5 179q0 92 24.5 178t68.5 161t106 136.5t137 105.5t160.5 68t177.5 24q91 0 175.5 -24.5t159 -68.5t136 -106 t105.5 -137t68.5 -160.5t24.5 -176.5zM977 497q0 57 -16 104t-44.5 81t-68 53t-87.5 19q-106 0 -187 -86l1 27q1 57 20 109t52 91.5t77 63t95 23.5q49 0 99 -22v78q-58 22 -98 22q-74 0 -134.5 -30t-103.5 -83.5t-66 -128t-23 -163.5q0 -82 20 -153t55 -123.5t82.5 -83 t102.5 -30.5q50 0 91 18t70.5 49.5t46 73.5t16.5 91zM895 498q0 -74 -37 -114.5t-103 -40.5q-32 0 -62 20t-53.5 52t-38.5 71.5t-16 78.5q59 111 174 111q63 0 99.5 -48t36.5 -130z" />
<glyph unicode="&#x277c;" horiz-adv-x="1503" vert-adv-y="2191" d="M1423 648q0 -92 -24 -177.5t-67.5 -160t-105 -136.5t-135.5 -106t-159.5 -68.5t-177.5 -24.5t-177.5 24t-160.5 68t-137 105t-106 136t-68.5 161t-24.5 179q0 92 24.5 178t68.5 161t106 136.5t137 105.5t160.5 68t177.5 24q91 0 175.5 -24.5t159 -68.5t136 -106 t105.5 -137t68.5 -160.5t24.5 -176.5zM1026 1045h-465v-77h362q-87 -111 -139 -180.5t-71 -100.5q-115 -187 -115 -360q0 -23 4 -46h82q-2 10 -3 21t-1 25q0 119 61 244q37 79 107.5 174t177.5 223v77z" />
<glyph unicode="&#x277d;" horiz-adv-x="1503" vert-adv-y="2191" d="M1423 648q0 -92 -24 -177.5t-67.5 -160t-105 -136.5t-135.5 -106t-159.5 -68.5t-177.5 -24.5t-177.5 24t-160.5 68t-137 105t-106 136t-68.5 161t-24.5 179q0 92 24.5 178t68.5 161t106 136.5t137 105.5t160.5 68t177.5 24q91 0 175.5 -24.5t159 -68.5t136 -106 t105.5 -137t68.5 -160.5t24.5 -176.5zM1000 479q0 33 -6 59t-22.5 50t-46 49t-75.5 57q122 78 122 178q0 91 -57 139.5t-155 48.5q-100 0 -157 -48.5t-57 -139.5q0 -100 123 -178q-47 -31 -76 -56t-45.5 -49.5t-22 -50.5t-5.5 -59q0 -47 17.5 -86t49 -67.5t76 -44.5 t97.5 -16q52 0 96 16.5t76 45.5t50 68t18 84zM918 479q0 -25 -13 -49.5t-35 -43.5t-50.5 -31t-59.5 -12t-59.5 12t-50.5 31.5t-35 44t-13 48.5q0 87 158 173q158 -87 158 -173zM890 872q0 -15 -11.5 -34.5t-30.5 -39.5t-42 -38t-46 -30q-24 12 -47 30t-42 38t-30.5 39.5 t-11.5 34.5q0 22 10.5 42t28.5 35t42 24t50 9t49.5 -9t41.5 -24t28.5 -35t10.5 -42z" />
<glyph unicode="&#x277e;" horiz-adv-x="1503" vert-adv-y="2191" d="M1423 648q0 -92 -24 -177.5t-67.5 -160t-105 -136.5t-135.5 -106t-159.5 -68.5t-177.5 -24.5t-177.5 24t-160.5 68t-137 105t-106 136t-68.5 161t-24.5 179q0 92 24.5 178t68.5 161t106 136.5t137 105.5t160.5 68t177.5 24q91 0 175.5 -24.5t159 -68.5t136 -106 t105.5 -137t68.5 -160.5t24.5 -176.5zM999 669q0 81 -20 152t-54.5 124.5t-82.5 84t-103 30.5q-50 0 -91 -19t-70.5 -52t-46 -77t-16.5 -94q0 -53 16.5 -98t45.5 -78t68.5 -51.5t85.5 -18.5q106 0 187 84l-1 -27q-2 -59 -20 -111t-49.5 -91t-74.5 -61.5t-94 -22.5 q-54 0 -106 21v-78q57 -21 105 -21q74 0 133.5 30t101 83.5t64 127.5t22.5 163zM902 776q0 -24 -15 -47t-39 -40.5t-54.5 -28.5t-61.5 -11q-63 0 -99.5 45t-36.5 123q0 74 38 119.5t103 45.5q32 0 62 -18.5t53 -48.5t36.5 -66.5t13.5 -72.5z" />
<glyph unicode="&#x277f;" horiz-adv-x="1503" vert-adv-y="2191" d="M1423 648q0 -92 -24 -177.5t-67.5 -160t-105 -136.5t-135.5 -106t-159.5 -68.5t-177.5 -24.5t-177.5 24t-160.5 68t-137 105t-106 136t-68.5 161t-24.5 179q0 92 24.5 178t68.5 161t106 136.5t137 105.5t160.5 68t177.5 24q91 0 175.5 -24.5t159 -68.5t136 -106 t105.5 -137t68.5 -160.5t24.5 -176.5zM1200 662q0 82 -18.5 154.5t-51.5 126.5t-78.5 85.5t-98.5 31.5q-55 0 -101 -31.5t-79.5 -86t-52 -127t-18.5 -153.5t19 -153t52.5 -126.5t79.5 -86t100 -31.5q53 0 98.5 31.5t78.5 85.5t51.5 126t18.5 154zM1124 662q0 -65 -12 -122.5 t-34 -100t-54 -67t-71 -24.5q-41 0 -72.5 24.5t-53.5 67t-33.5 99.5t-11.5 123q0 67 12 124.5t34 100t54 66.5t71 24t70.5 -24.5t54 -67t34.5 -100t12 -123.5zM564 1045h-82l-117 -147l51 -56l66 79v-640h82v764z" />
<glyph unicode="&#x3000;" horiz-adv-x="1024" vert-adv-y="2191" />
<glyph unicode="&#x3001;" vert-adv-y="2191" d="M455 -18q0 -78 -45 -138t-118 -89l-24 54q129 55 129 170q0 29 -13 65q-20 -44 -81 -44q-21 0 -40 8t-33 22t-22 33t-8 40t8 39.5t22 33t33 22.5t40 8q30 0 57.5 -20t48.5 -52.5t33.5 -72.5t12.5 -79z" />
<glyph unicode="&#x3002;" vert-adv-y="2191" d="M626 190q0 -44 -17 -82.5t-46 -67.5t-67.5 -46t-82.5 -17t-83 16.5t-68 45.5t-45.5 68t-16.5 83t17 82.5t46 67.5t67.5 46t82.5 17q43 0 82 -17t68 -46t46 -68t17 -82zM567 190q0 32 -12 60t-33 49t-49 33t-60 12t-60 -12t-49 -33t-33 -49t-12 -60q0 -33 12 -61 t32.5 -48.5t48.5 -32.5t61 -12q32 0 60 12t49 33t33 49t12 60z" />
<glyph unicode="&#x3008;" horiz-adv-x="575" vert-adv-y="2191" d="M126 749l377 -798l-72 -41l-391 839l424 842l72 -41z" />
<glyph unicode="&#x3009;" horiz-adv-x="575" vert-adv-y="2191" d="M114 -73l-74 33l377 798l-377 793l74 41l391 -826z" />
<glyph unicode="&#x300a;" horiz-adv-x="855" vert-adv-y="2191" d="M126 748l377 -798l-72 -41l-391 839l424 842l72 -41zM402 748l377 -798l-72 -41l-391 839l424 842l72 -41z" />
<glyph unicode="&#x300b;" horiz-adv-x="855" vert-adv-y="2191" d="M114 -74l-74 33l377 798l-377 793l74 41l391 -826zM392 -74l-74 33l377 798l-377 793l74 41l391 -826z" />
<glyph unicode="&#x300c;" horiz-adv-x="560" vert-adv-y="2191" d="M527 1395h-408v-1595h-79v1675h487v-80z" />
<glyph unicode="&#x300d;" horiz-adv-x="590" vert-adv-y="2191" d="M527 -200h-487v80h407v1595h80v-1675z" />
<glyph unicode="&#x300e;" horiz-adv-x="590" vert-adv-y="2191" d="M552 1127h-270v-1428h-242v1676h512v-248zM122 1295v-1516h80v1428h270v88h-350z" />
<glyph unicode="&#x300f;" horiz-adv-x="590" vert-adv-y="2191" d="M544 -200h-504v247h264v1428h240v-1675zM384 1395v-1427h-264v-88h344v1515h-80z" />
<glyph unicode="&#x3010;" horiz-adv-x="840" vert-adv-y="2191" d="M777 -204h-737v1734h743q-212 -228 -318 -447t-106 -433q0 -398 418 -854z" />
<glyph unicode="&#x3011;" horiz-adv-x="840" vert-adv-y="2191" d="M759 1530v-1734h-727q390 453 407 858q0 8 0.5 15.5t0.5 15.5q0 391 -400 845h719z" />
<glyph unicode="&#x3014;" horiz-adv-x="440" vert-adv-y="2191" d="M120 1246v-1010l281 -286l-64 -41l-297 313v1038l314 330l55 -49z" />
<glyph unicode="&#x3015;" horiz-adv-x="440" vert-adv-y="2191" d="M392 244l-305 -327l-55 49l280 303v991l-272 281l55 49l297 -305v-1041z" />
<glyph unicode="&#x3016;" horiz-adv-x="925" vert-adv-y="2191" d="M888 1531q-114 -102 -205.5 -215.5t-155 -226.5t-98 -221.5t-34.5 -201.5q0 -92 27.5 -197t88 -216.5t155.5 -227.5t230 -228h-856v1734h848zM120 1452v-1575h567q-44 43 -88.5 98.5t-85.5 120t-76.5 135t-62 143t-42 145t-15.5 139.5q0 178 95.5 378.5t282.5 415.5h-575 z" />
<glyph unicode="&#x3017;" horiz-adv-x="925" vert-adv-y="2191" d="M882 -189h-834q111 102 199 215.5t149.5 227.5t94.5 222t33 198q0 84 -25 185.5t-82 212.5t-149.5 228t-227.5 231h842v-1720zM241 1452q47 -43 92 -100t85.5 -122.5t74.5 -137.5t58.5 -144.5t38.5 -144t14 -135.5q0 -171 -89.5 -367.5t-273.5 -409.5h559v1561h-559z" />
<glyph unicode="&#x3018;" horiz-adv-x="440" vert-adv-y="2191" d="M272 1331v-1179l129 -201l-64 -41l-297 463v738l314 480l55 -49zM120 1097v-710l72 -111v932z" />
<glyph unicode="&#x3019;" horiz-adv-x="440" vert-adv-y="2191" d="M408 1110v-738l-297 -463l-64 41l129 200v1180l-137 211l55 49zM328 1096l-72 111v-933l72 112v710z" />
<glyph unicode="&#x301a;" horiz-adv-x="580" vert-adv-y="2191" d="M527 1510h-229v-1583h229v-80h-487v1743h487v-80zM119 1510v-1583h100v1583h-100z" />
<glyph unicode="&#x301b;" horiz-adv-x="580" vert-adv-y="2191" d="M526 1590v-1743h-487v80h229v1583h-229v80h487zM447 1510h-100v-1583h100v1583z" />
<glyph unicode="&#x301c;" horiz-adv-x="1154" vert-adv-y="2191" d="M1049 1037q-14 -37 -37.5 -82.5t-61.5 -87.5q-49 -47 -101 -74t-115 -27q-69 0 -127 20.5t-107 44.5q-51 25 -98 46t-96 21q-32 0 -61 -13.5t-55 -38.5t-49 -59t-43 -76l-58 25q14 40 43.5 89.5t72.5 93t97 73t118 29.5q73 0 130 -20.5t106 -44.5q27 -13 50 -25t46 -21 t46 -14.5t50 -5.5q34 0 61 12t50 34.5t42 54t36 70.5z" />
<glyph unicode="&#x301d;" horiz-adv-x="740" vert-adv-y="2191" d="M260 1479q16 -47 129 -497l-31 -14q-57 100 -98.5 173.5t-71 125.5t-48 86t-29 55.5t-14 33.5t-3.5 20q0 18 9 31t23.5 21.5t31.5 12.5t33 4q26 0 43.5 -14t25.5 -38zM591 1479q16 -47 129 -497l-31 -14q-57 100 -98.5 173.5t-71 125.5t-48 86t-29 55.5t-14 33.5t-3.5 20 q0 18 9 31t23.5 21.5t31.5 12.5t33 4q26 0 43.5 -14t25.5 -38z" />
<glyph unicode="&#x301e;" horiz-adv-x="740" vert-adv-y="2191" d="M123 1000l-31 6q72 202 110.5 315t44.5 139q8 31 31 50.5t55 19.5q15 0 29 -5.5t25 -15t17.5 -23.5t6.5 -31q0 -10 -4 -21.5t-14.5 -31t-30.5 -49.5t-52 -77t-78 -114.5t-109 -161.5zM420 1000l-31 6q72 202 110.5 315t44.5 139q8 31 31 50.5t55 19.5q15 0 29 -5.5 t25 -15t17.5 -23.5t6.5 -31q0 -10 -4 -21.5t-14.5 -31t-30.5 -49.5t-52 -77t-78 -114.5t-109 -161.5z" />
<glyph unicode="&#x301f;" horiz-adv-x="740" vert-adv-y="2191" d="M88 -36l-31 6q72 202 110.5 315t44.5 139q8 31 31 50.5t55 19.5q15 0 29 -5.5t25 -15t17.5 -23.5t6.5 -31q0 -10 -4 -21.5t-14.5 -31t-30.5 -49.5t-52 -77t-78 -114.5t-109 -161.5zM385 -36l-31 6q72 202 110.5 315t44.5 139q8 31 31 50.5t55 19.5q15 0 29 -5.5t25 -15 t17.5 -23.5t6.5 -31q0 -10 -4 -21.5t-14.5 -31t-30.5 -49.5t-52 -77t-78 -114.5t-109 -161.5z" />
<glyph unicode="&#x30fb;" vert-adv-y="2191" d="M880 715q0 -38 -14 -71t-39 -57t-58 -38t-71 -14q-37 0 -69.5 14t-57 38.5t-38.5 57t-14 70.5q0 37 14 70t38.5 57.5t57 38.5t69.5 14t70.5 -14.5t58 -39t39 -57t14.5 -69.5z" />
<glyph unicode="&#xa000;" vert-adv-y="2191" d="M1205 1475v-932q0 -126 -26.5 -235t-77.5 -189.5t-125.5 -127t-170.5 -46.5q-90 0 -161 41t-122 113.5t-80.5 171.5t-35.5 214h-211v80h210v910h80v-300h640v300h80zM705 485h-218q6 -95 29.5 -179t63.5 -146.5t96.5 -98.5t128.5 -36q76 0 136 41.5t100.5 112.5t62 165 t21.5 199v552h-640v-530h220v-80z" />
<glyph unicode="&#xa001;" vert-adv-y="2191" d="M1199 1475v-932q0 -126 -26.5 -235t-77.5 -189.5t-125.5 -127t-170.5 -46.5q-111 0 -192.5 61t-132.5 166q-61 -11 -129.5 -16.5t-144.5 -5.5v80q133 0 243 18q-44 132 -44 295v215q-47 5 -96.5 8t-102.5 3v80q54 0 103.5 -3t95.5 -8v637h80v-300h640v300h80zM835 498 q0 -118 -73 -193.5t-207 -113.5q41 -77 102 -121.5t142 -44.5q76 0 136 41.5t100.5 112.5t62 165t21.5 199v552h-640v-270q84 -16 150 -44t111.5 -68.5t70 -94t24.5 -120.5zM755 502q0 50 -20 89.5t-56 69t-87 50t-113 33.5v-201q0 -153 43 -277q53 15 96 36.5t73.5 50.5 t47 66t16.5 83zM947 1658l-30 -68q-54 42 -116.5 60t-116.5 18q-55 0 -109 -18t-108 -60l-30 68q128 90 247 90q132 0 263 -90z" />
<glyph unicode="&#xa002;" vert-adv-y="2191" d="M1199 1475v-932q0 -126 -26.5 -235t-77.5 -189.5t-125.5 -127t-170.5 -46.5q-111 0 -192.5 61t-132.5 166q-61 -11 -129.5 -16.5t-144.5 -5.5v80q133 0 243 18q-44 132 -44 295v215q-47 5 -96.5 8t-102.5 3v80q54 0 103.5 -3t95.5 -8v637h80v-300h640v300h80zM835 498 q0 -118 -73 -193.5t-207 -113.5q41 -77 102 -121.5t142 -44.5q76 0 136 41.5t100.5 112.5t62 165t21.5 199v552h-640v-270q84 -16 150 -44t111.5 -68.5t70 -94t24.5 -120.5zM755 502q0 50 -20 89.5t-56 69t-87 50t-113 33.5v-201q0 -153 43 -277q53 15 96 36.5t73.5 50.5 t47 66t16.5 83z" />
<glyph unicode="&#xa003;" vert-adv-y="2191" d="M1322 1257l-33 -80l-319 207v-1384q-165 0 -291 25.5t-217 76.5q-67 -48 -149 -78t-177 -39l-10 80q84 8 151 28t120 51q-81 63 -121.5 148.5t-40.5 194.5q0 212 137 340q-53 30 -114.5 50t-131.5 28l10 80q88 -8 164.5 -35t141.5 -69q161 104 448 122v527h20zM890 913 q-235 -12 -376 -86q79 -69 123 -157.5t44 -184.5q0 -89 -38.5 -172t-107.5 -151q138 -65 355 -74v825zM601 485q0 83 -41.5 159t-116.5 136q-65 -52 -96.5 -122t-31.5 -158q0 -198 158 -303q66 59 97 133.5t31 154.5z" />
<glyph unicode="&#xa004;" vert-adv-y="2191" d="M1220 1475q-11 -124 -43.5 -223.5t-84.5 -175.5q16 -75 23.5 -159.5t8.5 -180.5q0 -188 -30 -335t-85.5 -248t-134 -154.5t-174.5 -53.5q-134 0 -231.5 100.5t-147.5 290.5h-140v80h122q-27 141 -27 320q0 92 7.5 174.5t21.5 154.5q-46 73 -77.5 174t-47.5 236h80 q10 -96 28 -170t44 -131q52 173 146.5 264.5t221.5 91.5q125 0 217.5 -88.5t145.5 -255.5q29 58 48.5 129.5t28.5 159.5h80zM1044 736q0 69 -5 134t-14 125q-66 -64 -147.5 -97t-177.5 -33q-101 0 -183 27.5t-145 89.5q-8 -58 -12 -119t-4 -127q0 -175 29 -320h146v-80h-126 q21 -71 49.5 -128.5t65.5 -98t82 -62.5t98 -22q85 0 149 55t107.5 150.5t65.5 225.5t22 280zM700 1450q-59 0 -107.5 -27t-87.5 -75.5t-67.5 -117.5t-47.5 -153q58 -74 136.5 -103t173.5 -29q88 0 166.5 36t139.5 113q-20 80 -49 146t-67 112.5t-85.5 72t-104.5 25.5z" />
<glyph unicode="&#xa005;" vert-adv-y="2191" d="M1172 1298l-30 -79l-402 195v-320q209 -8 317 -97.5t108 -247.5q0 -159 -107 -247t-318 -96v-461h-20l-492 232l30 79l402 -195v345q-211 8 -318 96.5t-107 247.5t107 247.5t318 96.5v436h20zM1085 749q0 62 -23.5 111.5t-71.5 84t-120.5 52.5t-169.5 18 q-195 0 -290 -70.5t-95 -194.5q0 -125 95 -195t290 -70t290 70.5t95 193.5zM955 1658l-30 -68q-54 42 -116.5 60t-116.5 18q-55 0 -109 -18t-108 -60l-30 68q128 90 247 90q132 0 263 -90z" />
<glyph unicode="&#xa006;" vert-adv-y="2191" d="M1172 1298l-30 -79l-402 195v-320q209 -8 317 -97.5t108 -247.5q0 -159 -107 -247t-318 -96v-461h-20l-492 232l30 79l402 -195v345q-211 8 -318 96.5t-107 247.5t107 247.5t318 96.5v436h20zM1085 749q0 62 -23.5 111.5t-71.5 84t-120.5 52.5t-169.5 18 q-195 0 -290 -70.5t-95 -194.5q0 -125 95 -195t290 -70t290 70.5t95 193.5z" />
<glyph unicode="&#xa007;" vert-adv-y="2191" d="M881 771q0 -251 -33 -425q41 -27 83.5 -48t83 -35.5t77 -23t66.5 -11.5v169h80v-399h-80v143q-85 8 -169.5 37.5t-160.5 78.5q-43 -158 -119.5 -235t-186.5 -77q-177 0 -268 203t-91 623q0 210 23 355t68 234.5t112 129.5t156 40q58 0 107.5 -17t89 -54.5t70 -96.5 t50.5 -142q74 46 156 74t163 36v143h80v-399h-80v169q-29 -3 -64.5 -11.5t-75 -22.5t-80.5 -34.5t-81 -46.5q11 -74 17.5 -162.5t6.5 -194.5zM539 734q0 66 16.5 127.5t46.5 116t71.5 102.5t91.5 88q-15 66 -37 118t-52 88.5t-68 56t-86 19.5q-77 0 -130.5 -50t-86.5 -139.5 t-47.5 -214.5t-14.5 -275q0 -173 14.5 -311t47.5 -234.5t86.5 -148.5t130.5 -52q92 0 150 72.5t89 207.5q-49 39 -89.5 86.5t-70 101.5t-46 114.5t-16.5 126.5zM801 771q0 167 -18 301q-35 -31 -65 -67.5t-52 -79t-34.5 -90t-12.5 -101.5q0 -53 12 -100.5t33.5 -89.5 t50.5 -78t63 -66q12 79 17.5 172t5.5 199z" />
<glyph unicode="&#xa008;" vert-adv-y="2191" d="M1164 1530v-596h-20l-365 229v-1163h-80v518l-463 496l47 63l416 -448v667h20l365 -235v469h80z" />
<glyph unicode="&#xa009;" vert-adv-y="2191" d="M1148 1475v-1475h-80v1067l-322 298v-1420h-20l-530 385l41 68l429 -310v588l-424 301l41 68l383 -272v757h20l382 -353v298h80zM956 1658l-30 -68q-54 42 -116.5 60t-116.5 18q-55 0 -109 -18t-108 -60l-30 68q128 90 247 90q132 0 263 -90z" />
<glyph unicode="&#xa00a;" vert-adv-y="2191" d="M1148 1475v-1475h-80v1067l-322 298v-1420h-20l-530 385l41 68l429 -310v588l-424 301l41 68l383 -272v757h20l382 -353v298h80z" />
<glyph unicode="&#xa00b;" vert-adv-y="2191" d="M1212 1523q-123 -119 -181 -222.5t-58 -188.5q0 -100 59 -213.5t180 -237.5l-47 -66q-70 68 -121 130t-84.5 124.5t-50 129t-16.5 143.5q0 10 0.5 19.5t1.5 20.5l-219 203v-1420h-20l-530 385l41 68l429 -310v588l-424 301l41 68l383 -272v757h20l300 -278q31 88 96 172 t153 165z" />
<glyph unicode="&#xa00c;" vert-adv-y="2191" d="M1124 1475v-1475h-80v742h-688v-742h-80v1475h80v-654h688v654h80zM955 1658l-30 -68q-54 42 -116.5 60t-116.5 18q-55 0 -109 -18t-108 -60l-30 68q128 90 247 90q132 0 263 -90zM740 500v-300h-80v300h80zM740 1330v-300h-80v300h80z" />
<glyph unicode="&#xa00d;" vert-adv-y="2191" d="M1124 1475v-1475h-80v742h-688v-742h-80v1475h80v-654h688v654h80zM740 500v-300h-80v300h80zM740 1330v-300h-80v300h80z" />
<glyph unicode="&#xa00e;" vert-adv-y="2191" d="M1180 1210q0 -74 -11.5 -126.5t-31.5 -91t-46.5 -65.5t-56.5 -50q0 -245 -20 -421.5t-61.5 -290t-104.5 -167t-149 -53.5t-149 54t-104 167.5t-61 289.5t-20 421q-30 23 -56.5 50t-46.5 65.5t-31.5 91t-11.5 126.5q0 70 15.5 129t43 101.5t66.5 66t87 23.5q49 0 89 -20 t68.5 -60t44 -100t15.5 -140q0 -153 -51.5 -238.5t-151.5 -94.5q0 -184 12.5 -340t42 -270t78.5 -178t121 -64q73 0 122 64t78.5 177.5t42 269.5t12.5 341q-100 9 -151.5 94.5t-51.5 238.5q0 80 15.5 140t44 100t68.5 60t89 20q48 0 87 -23.5t66.5 -66t43 -101.5t15.5 -129z M1100 1210q-1 112 -38.5 173t-99.5 67q-62 -8 -96.5 -67t-34.5 -173q0 -122 34 -186t103 -69q61 5 96.5 67.5t35.5 187.5zM568 1210q0 114 -34.5 173t-96.5 67q-64 -6 -101 -69t-37 -180q0 -121 36 -181t96 -65q69 5 103 69t34 186z" />
<glyph unicode="&#xa00f;" vert-adv-y="2191" d="M1165 1184q0 -159 -107 -247t-318 -96v-128h-44q-67 0 -124 -10t-98 -28t-64.5 -42.5t-23.5 -52.5q0 -65 101 -104t284 -50v-63q-204 -16 -299.5 -63t-95.5 -125q0 -75 66.5 -112.5t197.5 -37.5q51 2 112 11t132 22l16 -76q-63 -14 -132.5 -24.5t-129.5 -12.5 q-165 0 -253.5 52.5t-88.5 175.5q0 151 219 221q-102 24 -155.5 66t-53.5 120q0 94 91.5 147.5t262.5 67.5v46q-211 8 -318 96.5t-107 247.5q0 167 117.5 256t347.5 89t347.5 -89.5t117.5 -256.5zM315 1185q0 -118 84.5 -187.5t260.5 -77.5v529q-176 -8 -260.5 -77 t-84.5 -187zM1085 1184q0 118 -84.5 187.5t-260.5 77.5v-529q175 7 260 77t85 187z" />
<glyph unicode="&#xa010;" vert-adv-y="2191" d="M1273 771q0 -420 -91 -623t-268 -203t-268 203t-91 623q0 80 3 149.5t10 131.5l-139 122v-1059h-20l-283 272l47 64l176 -177v1061h20l212 -194q18 105 47.5 179t71.5 120.5t95.5 68t118.5 21.5q88 0 155.5 -40t112.5 -129.5t68 -234.5t23 -355zM1193 771 q0 150 -14.5 275t-47.5 214.5t-86.5 139.5t-130.5 50t-130.5 -50t-86.5 -139.5t-47.5 -214.5t-14.5 -275q0 -173 14.5 -311t47.5 -234.5t86.5 -148.5t130.5 -52t130.5 52t86.5 148.5t47.5 234.5t14.5 311zM962 888v-300h-80v300h80zM960 1658l-30 -68q-54 42 -116.5 60 t-116.5 18q-55 0 -109 -18t-108 -60l-30 68q128 90 247 90q132 0 263 -90z" />
<glyph unicode="&#xa011;" vert-adv-y="2191" d="M1273 771q0 -420 -91 -623t-268 -203t-268 203t-91 623q0 80 3 149.5t10 131.5l-139 122v-1059h-20l-283 272l47 64l176 -177v1061h20l212 -194q18 105 47.5 179t71.5 120.5t95.5 68t118.5 21.5q88 0 155.5 -40t112.5 -129.5t68 -234.5t23 -355zM1193 771 q0 150 -14.5 275t-47.5 214.5t-86.5 139.5t-130.5 50t-130.5 -50t-86.5 -139.5t-47.5 -214.5t-14.5 -275q0 -173 14.5 -311t47.5 -234.5t86.5 -148.5t130.5 -52t130.5 52t86.5 148.5t47.5 234.5t14.5 311zM962 888v-300h-80v300h80z" />
<glyph unicode="&#xa012;" vert-adv-y="2191" d="M1273 771q0 -420 -91 -623t-268 -203t-268 203t-91 623q0 80 3 149.5t10 131.5l-139 122v-1059h-20l-283 272l47 64l176 -177v1061h20l212 -194q18 105 47.5 179t71.5 120.5t95.5 68t118.5 21.5q88 0 155.5 -40t112.5 -129.5t68 -234.5t23 -355zM1193 771 q0 150 -14.5 275t-47.5 214.5t-86.5 139.5t-130.5 50t-130.5 -50t-86.5 -139.5t-47.5 -214.5t-14.5 -275q0 -173 14.5 -311t47.5 -234.5t86.5 -148.5t130.5 -52t130.5 52t86.5 148.5t47.5 234.5t14.5 311z" />
<glyph unicode="&#xa013;" vert-adv-y="2191" d="M1297 1293l-39 -69l-303 177v-1456h-20l-425 256l40 65l325 -195v741h-357q129 -105 129 -232q0 -123 -98 -193t-303 -87v80q63 8 121 22t102.5 37.5t71 59t26.5 85.5q0 33 -14.5 69.5t-41.5 69.5t-66 59.5t-87 39.5v60q88 34 140.5 85t52.5 127q0 48 -17 86t-53.5 66 t-94.5 47t-140 31l16 80q187 -23 278 -100.5t91 -211.5q0 -38 -9.5 -68.5t-25 -55t-36 -43.5t-42.5 -33h357v638h20zM973 1658l-30 -68q-54 42 -116.5 60t-116.5 18q-55 0 -109 -18t-108 -60l-30 68q128 90 247 90q132 0 263 -90z" />
<glyph unicode="&#xa014;" vert-adv-y="2191" d="M1247 1293l-39 -69l-303 177v-1456h-20l-425 256l40 65l325 -195v741h-357q129 -105 129 -232q0 -123 -98 -193t-303 -87v80q63 8 121 22t102.5 37.5t71 59t26.5 85.5q0 33 -14.5 69.5t-41.5 69.5t-66 59.5t-87 39.5v60q88 34 140.5 85t52.5 127q0 48 -17 86t-53.5 66 t-94.5 47t-140 31l16 80q187 -23 278 -100.5t91 -211.5q0 -38 -9.5 -68.5t-25 -55t-36 -43.5t-42.5 -33h357v638h20z" />
<glyph unicode="&#xa015;" vert-adv-y="2191" d="M455 650v-538h-80v538h80zM1025 650v-538h-80v538h80zM1188 1475q0 -141 -7.5 -256t-34.5 -197t-79.5 -127t-142.5 -45q-47 0 -83 15.5t-63 44t-46.5 68.5t-32.5 90q-13 -50 -32 -90t-46 -68.5t-63 -44t-82 -15.5q-90 0 -142.5 45t-79.5 127t-34.5 197t-7.5 256h80 q0 -144 7.5 -247.5t28 -169.5t56.5 -97t92 -31q55 0 90 29.5t56 94.5t29 168.5t9 252.5h80q0 -144 7.5 -247.5t28 -169.5t56.5 -97t92 -31t92 31t56.5 97t28 169.5t7.5 247.5h80z" />
<glyph unicode="&#xa016;" vert-adv-y="2191" d="M1296 360l-49 -49l-295 350q-6 -170 -38.5 -303.5t-87.5 -225t-130.5 -139.5t-166.5 -48q-96 0 -174.5 53.5t-134 154.5t-85.5 248t-30 335q0 187 30.5 334.5t86 249.5t133.5 156t174 54q87 0 160 -44.5t127 -130t88 -209t44 -280.5l262 316l56 -54l-306 -363zM529 360 l335 405l-305 363l56 54l253 -305q-9 124 -35.5 229t-69 181.5t-101.5 119.5t-133 43q-85 0 -149 -55.5t-107.5 -151.5t-65.5 -226.5t-22 -280.5t22 -280t65.5 -225.5t107.5 -150.5t149 -55q79 0 140.5 48t104.5 133t67.5 201t29.5 252l-293 -348z" />
<glyph unicode="&#xa017;" vert-adv-y="2191" d="M1116 1405q-464 -210 -528 -610h512v-80h-512q17 -249 156 -410.5t403 -243.5l-31 -76q-559 190 -608 730h-176v-715h-80v1475h80v-680h176q76 459 575 690zM957 1658l-30 -68q-54 42 -116.5 60t-116.5 18q-55 0 -109 -18t-108 -60l-30 68q128 90 247 90q132 0 263 -90z " />
<glyph unicode="&#xa018;" vert-adv-y="2191" d="M1116 1405q-464 -210 -528 -610h512v-80h-512q17 -249 156 -410.5t403 -243.5l-31 -76q-559 190 -608 730h-176v-715h-80v1475h80v-680h176q76 459 575 690z" />
<glyph unicode="&#xa019;" vert-adv-y="2191" d="M1012 1530v-482l-703 277v-737h174q92 331 608 368v-80q-424 -39 -526 -288h606v-80h-606q52 -285 526 -320v-80q-547 38 -608 400h-174v-508h-80v1435h16l687 -270v365h80z" />
<glyph unicode="&#xa01a;" vert-adv-y="2191" d="M773 789q39 193 122.5 360.5t213.5 310.5l66 -47q-131 -150 -211 -304t-111 -320h256v-80h-256q10 -365 322 -656l-49 -59q-170 151 -257.5 329t-95.5 386h-110q-1 -174 -13 -305.5t-38.5 -220t-67.5 -133t-100 -44.5q-119 0 -169 182t-50 538q0 178 12 313t38 226 t67.5 137t101.5 46q57 0 97.5 -42t66.5 -125t39 -206.5t15 -285.5h111zM583 726q0 127 -8 243.5t-24.5 205t-43 141t-63.5 52.5t-63.5 -52.5t-43 -141t-24.5 -205t-8 -243.5q0 -146 8 -264t24.5 -201.5t43 -129t63.5 -45.5t63.5 45.5t43 129t24.5 201.5t8 264z" />
<glyph unicode="&#xa01b;" vert-adv-y="2191" d="M1176 736q0 -188 -32.5 -335t-94.5 -248t-152 -154.5t-205 -53.5t-205 53.5t-152 154.5t-94.5 248t-32.5 335q0 187 32.5 334.5t95 249.5t152.5 156t204 54q128 0 224 -66.5t159 -192.5l152 207l66 -47l-183 -245q32 -91 48.5 -203.5t17.5 -246.5zM692 1450 q-104 0 -180 -55.5t-125.5 -151.5t-74 -226.5t-24.5 -280.5q0 -127 17 -238t52 -202l662 900q-49 117 -130.5 185.5t-196.5 68.5zM1096 736q0 103 -11.5 196t-34.5 174l-660 -884q51 -93 125.5 -145t176.5 -52q103 0 179.5 55t126 150.5t74 225.5t24.5 280zM996 1658 l-30 -68q-54 42 -116.5 60t-116.5 18q-55 0 -109 -18t-108 -60l-30 68q128 90 247 90q132 0 263 -90z" />
<glyph unicode="&#xa01c;" vert-adv-y="2191" d="M1126 736q0 -188 -32.5 -335t-94.5 -248t-152 -154.5t-205 -53.5t-205 53.5t-152 154.5t-94.5 248t-32.5 335q0 187 32.5 334.5t95 249.5t152.5 156t204 54q128 0 224 -66.5t159 -192.5l152 207l66 -47l-183 -245q32 -91 48.5 -203.5t17.5 -246.5zM642 1450 q-104 0 -180 -55.5t-125.5 -151.5t-74 -226.5t-24.5 -280.5q0 -127 17 -238t52 -202l662 900q-49 117 -130.5 185.5t-196.5 68.5zM1046 736q0 103 -11.5 196t-34.5 174l-660 -884q51 -93 125.5 -145t176.5 -52q103 0 179.5 55t126 150.5t74 225.5t24.5 280z" />
<glyph unicode="&#xa01d;" vert-adv-y="2191" d="M1212 1081q0 -106 -58.5 -187t-166.5 -138q113 -46 171.5 -136t58.5 -211q0 -109 -61 -213t-183 -192l-49 64q110 84 161.5 165.5t51.5 175.5q0 61 -22 112t-62.5 89.5t-96.5 62.5t-124 33q-1 -202 -19 -346t-57 -236.5t-100 -135.5t-148 -43q-89 0 -150.5 45t-100 140.5 t-56 245.5t-17.5 360t17.5 360.5t56.5 246.5t100.5 141.5t149.5 45.5q85 0 145.5 -42.5t99.5 -133t58 -231t21 -336.5q68 15 123.5 41t94.5 63t60.5 85t21.5 105q0 73 -51 153.5t-157 155.5l47 68q112 -82 176.5 -176t64.5 -201zM752 736q0 150 -9 280.5t-35.5 226.5 t-74.5 151.5t-125 55.5t-125 -55.5t-74.5 -151.5t-35.5 -226.5t-9 -280.5q0 -173 9 -305.5t35.5 -222.5t74.5 -136.5t125 -46.5t125 46.5t74.5 136.5t35.5 222.5t9 305.5z" />
<glyph unicode="&#xa01e;" vert-adv-y="2191" d="M1012 295q0 -83 -21 -148t-61 -110t-98 -68.5t-132 -23.5t-131.5 23.5t-96.5 68.5t-59.5 110t-20.5 148q0 165 80 257.5t230 92.5q73 0 131 -24t97.5 -69t60.5 -110t21 -147zM932 295q0 59 -15.5 108.5t-45.5 85.5t-72.5 56t-96.5 20q-62 0 -106 -20t-71.5 -56t-40 -85.5 t-12.5 -108.5q0 -58 12 -107.5t39 -85.5t71 -56.5t108 -20.5q54 0 96.5 20t72 55.5t45.5 85t16 109.5zM1091 1475v-875h-80v417h-622v-417h-80v874h80v-377h622v378h80z" />
<glyph unicode="&#xa01f;" vert-adv-y="2191" d="M1097 1475v-875h-80v417h-622v-417h-80v874h80v-377h622v378h80zM1219 460q-12 -112 -31 -206.5t-49.5 -163t-77 -107t-114.5 -38.5q-91 0 -152 64t-98 207q-15 -72 -39.5 -123t-56 -84t-68 -48.5t-75.5 -15.5q-60 0 -103.5 26t-75.5 86t-55 158.5t-43 244.5h80 q15 -114 32 -196.5t39.5 -135.5t53.5 -78t75 -25q39 0 71 24t57.5 76.5t44 135t30.5 199.5h76q12 -109 28 -190.5t40.5 -136t60.5 -81.5t88 -27q40 0 70.5 36t52.5 96.5t36.5 139t22.5 163.5h80zM954 1658l-30 -68q-54 42 -116.5 60t-116.5 18q-55 0 -109 -18t-108 -60 l-30 68q128 90 247 90q132 0 263 -90z" />
<glyph unicode="&#xa020;" vert-adv-y="2191" d="M1097 1475v-875h-80v417h-622v-417h-80v874h80v-377h622v378h80zM1219 460q-12 -112 -31 -206.5t-49.5 -163t-77 -107t-114.5 -38.5q-91 0 -152 64t-98 207q-15 -72 -39.5 -123t-56 -84t-68 -48.5t-75.5 -15.5q-60 0 -103.5 26t-75.5 86t-55 158.5t-43 244.5h80 q15 -114 32 -196.5t39.5 -135.5t53.5 -78t75 -25q39 0 71 24t57.5 76.5t44 135t30.5 199.5h76q12 -109 28 -190.5t40.5 -136t60.5 -81.5t88 -27q40 0 70.5 36t52.5 96.5t36.5 139t22.5 163.5h80z" />
<glyph unicode="&#xa021;" vert-adv-y="2191" d="M1091 1475v-875h-80v417h-622v-417h-80v874h80v-377h622v378h80zM582 451l-305 -492l-63 45l305 496zM881 500l305 -496l-63 -45l-305 492z" />
<glyph unicode="&#xa022;" vert-adv-y="2191" d="M1124 1110v-780q0 -79 -33.5 -116.5t-95.5 -37.5q-15 0 -26 1t-23 4.5t-28.5 10.5t-41.5 18l-407 181v-391h-80v508h20l492 -223q19 -9 41.5 -17t36.5 -8q34 0 48.5 19.5t16.5 67.5v763q0 73 -16 135.5t-50.5 108t-88 71t-129.5 25.5q-65 0 -122 -17t-109 -52.5t-100 -90 t-95 -129.5l-58 47q42 75 93.5 134.5t112.5 101t130.5 64t147.5 22.5q83 0 150 -24.5t114.5 -75.5t73.5 -130.5t26 -189.5zM866 1139v-80h-150v-400h150v-80h-380v80h150v400h-150v80h380zM953 1658l-30 -68q-54 42 -116.5 60t-116.5 18q-55 0 -109 -18t-108 -60l-30 68 q128 90 247 90q132 0 263 -90z" />
<glyph unicode="&#xa023;" vert-adv-y="2191" d="M1124 1110v-780q0 -79 -33.5 -116.5t-95.5 -37.5q-15 0 -26 1t-23 4.5t-28.5 10.5t-41.5 18l-407 181v-391h-80v508h20l492 -223q19 -9 41.5 -17t36.5 -8q34 0 48.5 19.5t16.5 67.5v763q0 73 -16 135.5t-50.5 108t-88 71t-129.5 25.5q-65 0 -122 -17t-109 -52.5t-100 -90 t-95 -129.5l-58 47q42 75 93.5 134.5t112.5 101t130.5 64t147.5 22.5q83 0 150 -24.5t114.5 -75.5t73.5 -130.5t26 -189.5zM866 1139v-80h-150v-400h150v-80h-380v80h150v400h-150v80h380z" />
<glyph unicode="&#xa024;" vert-adv-y="2191" d="M1100 1475v-80h-360v-1315h360v-80h-800v80h360v1315h-360v80h800z" />
<glyph unicode="&#xa025;" vert-adv-y="2191" d="M1156 1400q-103 -20 -175.5 -49t-119 -68t-68 -88.5t-21.5 -109.5q0 -200 367 -291v-63q-366 -40 -366 -358q0 -97 95 -172.5t288 -129.5l-17 -76q-152 36 -260.5 103.5t-171.5 167.5q-121 59 -239 159l-177 -208l-47 65l177 207q-77 124 -80 260q3 132 80 268l-177 193 l47 63l177 -192q89 95 260 178q140 171 411 221zM963 778q-51 15 -100 44t-86.5 69t-60.5 87.5t-23 98.5q0 23 3 43t11 41q-46 -19 -93.5 -54.5t-96.5 -89.5l110 -112l-47 -64l-112 113q-23 -52 -35 -97.5t-12 -87.5q0 -137 63 -217l113 146l47 -49l-127 -160 q101 -96 176 -127q0 6 -0.5 12t-0.5 12q0 282 271 392z" />
<glyph unicode="&#xa026;" vert-adv-y="2191" d="M1184 736q0 -188 -32.5 -335t-94.5 -248t-152 -154.5t-205 -53.5t-205 53.5t-152 154.5t-94.5 248t-32.5 335q0 187 32.5 334.5t95 249.5t152.5 156t204 54q115 0 204.5 -54t151.5 -156t95 -249.5t33 -334.5zM1104 736q0 150 -24.5 280.5t-74 226.5t-126 151.5 t-179.5 55.5q-104 0 -180 -55.5t-125.5 -151.5t-74 -226.5t-24.5 -280.5t24.5 -280t74 -225.5t125.5 -150.5t180 -55q103 0 179.5 55t126 150.5t74 225.5t24.5 280zM930 1155v-80h-180v-675h180v-80h-440v80h180v675h-180v80h440zM953 1658l-30 -68q-54 42 -116.5 60 t-116.5 18q-55 0 -109 -18t-108 -60l-30 68q128 90 247 90q132 0 263 -90z" />
<glyph unicode="&#xa027;" vert-adv-y="2191" d="M1184 736q0 -188 -32.5 -335t-94.5 -248t-152 -154.5t-205 -53.5t-205 53.5t-152 154.5t-94.5 248t-32.5 335q0 187 32.5 334.5t95 249.5t152.5 156t204 54q115 0 204.5 -54t151.5 -156t95 -249.5t33 -334.5zM1104 736q0 150 -24.5 280.5t-74 226.5t-126 151.5 t-179.5 55.5q-104 0 -180 -55.5t-125.5 -151.5t-74 -226.5t-24.5 -280.5t24.5 -280t74 -225.5t125.5 -150.5t180 -55q103 0 179.5 55t126 150.5t74 225.5t24.5 280zM930 1155v-80h-180v-675h180v-80h-440v80h180v675h-180v80h440z" />
<glyph unicode="&#xa028;" vert-adv-y="2191" d="M1140 1475v-80h-400v-452h400v-80h-880v80h400v452h-400v80h880zM1140 612v-80h-400v-452h400v-80h-880v80h400v452h-400v80h880z" />
<glyph unicode="&#xa029;" vert-adv-y="2191" d="M1186 1083h-80q-11 187 -59.5 277t-122.5 90q-37 0 -64 -28.5t-47.5 -77t-33.5 -111t-21.5 -130t-12.5 -136t-5 -127.5v-98h-80v98q-1 59 -5 127.5t-12.5 136t-21.5 130t-33.5 111t-47.5 77t-64 28.5q-74 0 -122.5 -90t-59.5 -277h-80q16 224 78.5 335.5t183.5 111.5 q46 0 82 -21.5t63 -59.5t46.5 -89t32.5 -109q13 58 32.5 109t46.5 89t62.5 59.5t82.5 21.5q121 0 183.5 -111.5t78.5 -335.5zM1119 420q-53 -229 -155 -352t-254 -123q-150 0 -248 123t-144 352h82q38 -193 113 -294t197 -101q117 0 201.5 101t127.5 294h80zM740 582v-300 h-80v300h80zM955 1658l-30 -68q-54 42 -116.5 60t-116.5 18q-55 0 -109 -18t-108 -60l-30 68q128 90 247 90q132 0 263 -90z" />
<glyph unicode="&#xa02a;" vert-adv-y="2191" d="M1186 1083h-80q-11 187 -59.5 277t-122.5 90q-37 0 -64 -28.5t-47.5 -77t-33.5 -111t-21.5 -130t-12.5 -136t-5 -127.5v-98h-80v98q-1 59 -5 127.5t-12.5 136t-21.5 130t-33.5 111t-47.5 77t-64 28.5q-74 0 -122.5 -90t-59.5 -277h-80q16 224 78.5 335.5t183.5 111.5 q46 0 82 -21.5t63 -59.5t46.5 -89t32.5 -109q13 58 32.5 109t46.5 89t62.5 59.5t82.5 21.5q121 0 183.5 -111.5t78.5 -335.5zM1119 420q-53 -229 -155 -352t-254 -123q-150 0 -248 123t-144 352h82q38 -193 113 -294t197 -101q117 0 201.5 101t127.5 294h80zM740 582v-300 h-80v300h80z" />
<glyph unicode="&#xa02b;" vert-adv-y="2191" d="M1144 430l-39 -57l-361 301v-594h360v-80h-800v80h360v601l-370 -308l-39 57l387 329l-357 299l45 63l334 -284v558h-360v80h800v-80h-360v-550l324 276l46 -63l-358 -299z" />
<glyph unicode="&#xa02c;" vert-adv-y="2191" d="M1175 1114q0 -79 -28.5 -151t-83.5 -128t-135.5 -91.5t-184.5 -42.5v-701h-80v701q-106 6 -187.5 41.5t-137 91.5t-84.5 128.5t-29 152.5q0 83 31.5 158t92 132t149 91t202.5 34t202.5 -34t149 -91t92 -132.5t31.5 -158.5zM1095 1114q0 62 -25 122.5t-75 108t-124 76.5 t-171 29q-98 0 -171.5 -29t-123.5 -76.5t-75 -107.5t-25 -122t25 -122.5t75 -107.5t123.5 -76t171.5 -29q97 0 171 29t124 76.5t75 107t25 121.5zM1077 537v-300h-80v300h80z" />
<glyph unicode="&#xa02d;" vert-adv-y="2191" d="M757 1530v-1585h-20l-509 348l47 64l402 -279v1452h80zM1172 0h-80v803h80v-803zM955 1658l-30 -68q-54 42 -116.5 60t-116.5 18q-55 0 -109 -18t-108 -60l-30 68q128 90 247 90q132 0 263 -90z" />
<glyph unicode="&#xa02e;" vert-adv-y="2191" d="M757 1530v-1585h-20l-509 348l47 64l402 -279v1452h80zM1172 0h-80v803h80v-803z" />
<glyph unicode="&#xa02f;" vert-adv-y="2191" d="M1075 1444q-150 -48 -273 -122t-211.5 -165.5t-137 -198t-48.5 -220.5t48.5 -221t137 -198.5t211.5 -165.5t273 -122l-31 -86q-161 55 -293 136t-227 182.5t-147 221t-52 252.5t52 252.5t147 221t227 182.5t293 137zM1044 1070q-150 -63 -228 -146t-78 -186t78 -185.5 t228 -145.5l-33 -80q-171 79 -262 179.5t-91 231.5t91 232t262 180z" />
<glyph unicode="&#xa030;" vert-adv-y="2191" d="M1130 868h-236l-11 -275h247v-80h-250v-13q-8 -162 -29.5 -269t-60 -170.5t-93.5 -89.5t-128 -26q-77 0 -134 26t-95.5 89.5t-60.5 170.5t-29 269l-30 975h80l30 -975q7 -145 25.5 -237.5t48 -145t70 -72.5t91.5 -20q54 0 95 20t69.5 72.5t45.5 145t25 237.5v13h-250v80 h253l11 275h-264v80h267l13 329q0 128 46.5 190.5t148.5 62.5q42 0 93.5 -12.5t111.5 -34.5l-17 -80q-115 47 -186 47q-32 0 -54 -13t-36 -36t-20.5 -55t-6.5 -69l-13 -329h233v-80zM955 1658l-30 -68q-54 42 -116.5 60t-116.5 18q-55 0 -109 -18t-108 -60l-30 68 q128 90 247 90q132 0 263 -90z" />
<glyph unicode="&#xa031;" vert-adv-y="2191" d="M1130 868h-236l-11 -275h247v-80h-250v-13q-8 -162 -29.5 -269t-60 -170.5t-93.5 -89.5t-128 -26q-77 0 -134 26t-95.5 89.5t-60.5 170.5t-29 269l-30 975h80l30 -975q7 -145 25.5 -237.5t48 -145t70 -72.5t91.5 -20q54 0 95 20t69.5 72.5t45.5 145t25 237.5v13h-250v80 h253l11 275h-264v80h267l13 329q0 128 46.5 190.5t148.5 62.5q42 0 93.5 -12.5t111.5 -34.5l-17 -80q-115 47 -186 47q-32 0 -54 -13t-36 -36t-20.5 -55t-6.5 -69l-13 -329h233v-80z" />
<glyph unicode="&#xa032;" vert-adv-y="2191" d="M1188 1213l-41 -73l-441 254v-342q67 -23 129 -58t114.5 -76t94 -84t69.5 -83q23 66 38.5 141.5t24.5 161.5h80q-8 -97 -32 -192.5t-64 -192.5q29 -85 53.5 -184.5t42.5 -214.5h-80q-17 102 -35 179.5t-36 131.5q-39 -42 -79.5 -80t-88 -69.5t-104.5 -56.5t-128 -41v-389 h-20l-542 322l44 74l438 -260v1449h21zM1066 669q-51 91 -143 162t-217 125l-1 -542q112 42 205 104.5t156 150.5z" />
<glyph unicode="&#xa033;" vert-adv-y="2191" d="M1198 1213l-41 -73l-441 254v-562l482 239l17 -79l-382 -187l402 -193v-51l-398 -193l408 -230l-47 -63l-483 267v-397h-20l-542 322l44 74l438 -260v1449h21zM1104 584l-389 190v-376zM1006 1658l-30 -68q-54 42 -116.5 60t-116.5 18q-55 0 -109 -18t-108 -60l-30 68 q128 90 247 90q132 0 263 -90z" />
<glyph unicode="&#xa034;" vert-adv-y="2191" d="M1198 1213l-41 -73l-441 254v-562l482 239l17 -79l-382 -187l402 -193v-51l-398 -193l408 -230l-47 -63l-483 267v-397h-20l-542 322l44 74l438 -260v1449h21zM1104 584l-389 190v-376z" />
<glyph unicode="&#xa035;" vert-adv-y="2191" d="M1235 1241l-47 -63l-256 197v-1375h-80v1098l-369 207v-499h207v-80h-207v-463h-80v463h-225v80h225v627h20l429 -241v338h20zM739 279q-43 -171 -119.5 -252.5t-179.5 -81.5q-118 0 -184.5 83t-91.5 251h80q15 -124 65 -189t131 -65q82 0 136.5 60t83.5 194h79z" />
<glyph unicode="&#xa036;" vert-adv-y="2191" d="M1278 1257l-33 -80l-319 207v-1384q-185 0 -333.5 35t-253.5 99.5t-161.5 156.5t-56.5 206q0 116 52 212t147 167t228.5 114t297.5 53v487h20zM846 953q-134 -6 -247 -38v-793q57 -14 118.5 -22.5t128.5 -11.5v865zM201 510q0 -64 22 -119t63.5 -101t100 -82.5 t132.5 -61.5v743q-75 -29 -134 -68t-100 -87.5t-62.5 -104.5t-21.5 -119zM769 738v-170h-80v170h80zM429 738v-170h-80v170h80zM769 451v-170h-80v170h80zM429 451v-170h-80v170h80zM954 1658l-30 -68q-54 42 -116.5 60t-116.5 18q-55 0 -109 -18t-108 -60l-30 68 q128 90 247 90q132 0 263 -90z" />
<glyph unicode="&#xa037;" vert-adv-y="2191" d="M1278 1257l-33 -80l-319 207v-1384q-185 0 -333.5 35t-253.5 99.5t-161.5 156.5t-56.5 206q0 116 52 212t147 167t228.5 114t297.5 53v487h20zM846 953q-134 -6 -247 -38v-793q57 -14 118.5 -22.5t128.5 -11.5v865zM201 510q0 -64 22 -119t63.5 -101t100 -82.5 t132.5 -61.5v743q-75 -29 -134 -68t-100 -87.5t-62.5 -104.5t-21.5 -119zM769 738v-170h-80v170h80zM429 738v-170h-80v170h80zM769 451v-170h-80v170h80zM429 451v-170h-80v170h80z" />
<glyph unicode="&#xa038;" vert-adv-y="2191" d="M1278 1257l-33 -80l-319 207v-1384q-185 0 -333.5 35t-253.5 99.5t-161.5 156.5t-56.5 206q0 116 52 212t147 167t228.5 114t297.5 53v487h20zM201 510q0 -54 17 -105h628v225h-623q-11 -29 -16.5 -58.5t-5.5 -61.5zM846 88v237h-588q37 -53 95 -95.5t133 -72.5 t166 -47.5t194 -21.5zM846 953q-102 -5 -191.5 -24t-163 -50.5t-131 -74t-94.5 -94.5h580v243z" />
<glyph unicode="&#xa039;" vert-adv-y="2191" d="M1228 736q0 -188 -30 -335t-85.5 -248t-134 -154.5t-174.5 -53.5q-85 0 -156 41.5t-125 121.5t-89 196t-48 265l-215 -39v705h80v-608l130 23q-1 21 -1 42v44q0 187 30.5 334.5t86 249.5t133.5 156t174 54t174 -54t133.5 -156t86 -249.5t30.5 -334.5zM804 1450 q-85 0 -149 -55.5t-107.5 -151.5t-65.5 -226.5t-22 -280.5v-37t1 -35l686 121q-3 141 -27 262.5t-67 211t-105.5 140.5t-143.5 51zM804 25q82 0 145.5 52t107 143.5t66.5 216t25 269.5l-682 -123q10 -122 36.5 -224t69 -176.5t100.5 -116t132 -41.5zM951 1658l-30 -68 q-54 42 -116.5 60t-116.5 18q-55 0 -109 -18t-108 -60l-30 68q128 90 247 90q132 0 263 -90z" />
<glyph unicode="&#xa03a;" vert-adv-y="2191" d="M1228 736q0 -188 -30 -335t-85.5 -248t-134 -154.5t-174.5 -53.5q-85 0 -156 41.5t-125 121.5t-89 196t-48 265l-215 -39v705h80v-608l130 23q-1 21 -1 42v44q0 187 30.5 334.5t86 249.5t133.5 156t174 54t174 -54t133.5 -156t86 -249.5t30.5 -334.5zM804 1450 q-85 0 -149 -55.5t-107.5 -151.5t-65.5 -226.5t-22 -280.5v-37t1 -35l686 121q-3 141 -27 262.5t-67 211t-105.5 140.5t-143.5 51zM804 25q82 0 145.5 52t107 143.5t66.5 216t25 269.5l-682 -123q10 -122 36.5 -224t69 -176.5t100.5 -116t132 -41.5z" />
<glyph unicode="&#xa03b;" vert-adv-y="2191" d="M889 0h-90l-232 621l-229 -621h-90l274 742l-273 733h90l228 -612l226 612h90l-271 -733zM1152 1050v-625h-80v625h80zM926 1050v-625h-80v625h80z" />
<glyph unicode="&#xa03c;" vert-adv-y="2191" d="M868 771q0 -420 -91 -623t-268 -203t-268 203t-91 623q0 210 23 355t68 234.5t112 129.5t156 40q88 0 155.5 -40t112.5 -129.5t68 -234.5t23 -355zM509 1450q-77 0 -130 -49.5t-86 -138.5t-48 -213t-15 -273h558q0 149 -15 273t-48 213t-86 138.5t-130 49.5zM509 25 q73 0 124.5 46.5t84.5 133t49.5 211t19.5 280.5h-557q3 -156 19.5 -280.5t50 -211t85 -133t124.5 -46.5zM1250 1130v-785h-80v785h80zM1024 1130v-785h-80v785h80zM953 1658l-30 -68q-54 42 -116.5 60t-116.5 18q-55 0 -109 -18t-108 -60l-30 68q128 90 247 90 q132 0 263 -90z" />
<glyph unicode="&#xa03d;" vert-adv-y="2191" d="M868 771q0 -420 -91 -623t-268 -203t-268 203t-91 623q0 210 23 355t68 234.5t112 129.5t156 40q88 0 155.5 -40t112.5 -129.5t68 -234.5t23 -355zM509 1450q-77 0 -130 -49.5t-86 -138.5t-48 -213t-15 -273h558q0 149 -15 273t-48 213t-86 138.5t-130 49.5zM509 25 q73 0 124.5 46.5t84.5 133t49.5 211t19.5 280.5h-557q3 -156 19.5 -280.5t50 -211t85 -133t124.5 -46.5zM1250 1130v-785h-80v785h80zM1024 1130v-785h-80v785h80z" />
<glyph unicode="&#xa03e;" vert-adv-y="2191" d="M1219 460q-12 -112 -31 -206.5t-49.5 -163t-77 -107t-114.5 -38.5q-91 0 -152 64t-98 207q-15 -72 -39.5 -123t-56 -84t-68 -48.5t-75.5 -15.5q-60 0 -103.5 26t-75.5 86t-55 158.5t-43 244.5h80q15 -114 32 -196.5t39.5 -135.5t53.5 -78t75 -25q39 0 71 24t57.5 76.5 t44 135t30.5 199.5v241q-105 6 -186 42t-136.5 92t-84 128.5t-28.5 151.5q0 83 31.5 158t92 132t149 91t202.5 34t202.5 -34t149 -91t92 -132.5t31.5 -158.5q0 -79 -28.5 -151t-84 -128.5t-136.5 -92t-186 -41.5v-275q12 -101 28 -176t40.5 -125t59.5 -75t85 -25 q40 0 70.5 36t52.5 96.5t36.5 139t22.5 163.5h80zM1099 1114q0 62 -25 122.5t-75 108t-124 76.5t-171 29q-98 0 -171.5 -29t-123.5 -76.5t-75 -107.5t-25 -122t25 -122.5t75 -107.5t123.5 -76t171.5 -29q97 0 171 29t124 76.5t75 107t25 121.5zM744 1265v-300h-80v300h80z " />
<glyph unicode="&#xa03f;" vert-adv-y="2191" d="M1124 1475v-1475h-80v742h-688v-742h-80v1475h80v-654h688v654h80z" />
<glyph unicode="&#xa040;" vert-adv-y="2191" d="M1147 1475v-834q0 -180 -27.5 -311.5t-83.5 -217t-140 -126.5t-196 -41q-113 0 -197 41t-139.5 126.5t-83.5 217t-28 311.5v834h80v-543h328v543h80v-543h327v543h80zM660 27v825h-328v-211q0 -153 21 -265.5t62.5 -187.5t103 -114.5t141.5 -46.5zM1067 641v211h-327 v-825q80 7 141 46.5t102.5 114.5t62.5 187.5t21 265.5zM954 1658l-30 -68q-54 42 -116.5 60t-116.5 18q-55 0 -109 -18t-108 -60l-30 68q128 90 247 90q132 0 263 -90z" />
<glyph unicode="&#xa041;" vert-adv-y="2191" d="M1147 1475v-834q0 -180 -27.5 -311.5t-83.5 -217t-140 -126.5t-196 -41q-113 0 -197 41t-139.5 126.5t-83.5 217t-28 311.5v834h80v-543h328v543h80v-543h327v543h80zM660 27v825h-328v-211q0 -153 21 -265.5t62.5 -187.5t103 -114.5t141.5 -46.5zM1067 641v211h-327 v-825q80 7 141 46.5t102.5 114.5t62.5 187.5t21 265.5z" />
<glyph unicode="&#xa042;" vert-adv-y="2191" d="M1143 150h-80v662h-206v-299q0 -126 -11 -230.5t-43.5 -179.5t-91 -116.5t-154.5 -41.5q-95 0 -154 41.5t-91.5 116.5t-43.5 179.5t-11 230.5v962h80v-962q0 -105 5.5 -194.5t27.5 -154.5t66 -102t121 -37q76 0 120 37t66.5 102t28 154.5t5.5 194.5v962h80v-583h206v433 h80v-1175z" />
<glyph unicode="&#xa043;" vert-adv-y="2191" d="M1115 1115h-802q12 -63 57.5 -102t116.5 -61t162.5 -29.5t194.5 -7.5h310v-80h-315v-835h-80v836q-140 4 -240 22.5t-164.5 56t-94.5 96.5t-30 144q0 91 35 152t109.5 98.5t190.5 53.5t279 16h310v-80h-310q-103 0 -195 -7t-163 -28t-116.5 -60.5t-56.5 -104.5h802v-80z M1112 583v-380h-80v380h80zM599 583v-380h-80v380h80zM359 583v-380h-80v380h80zM954 1658l-30 -68q-54 42 -116.5 60t-116.5 18q-55 0 -109 -18t-108 -60l-30 68q128 90 247 90q132 0 263 -90z" />
<glyph unicode="&#xa044;" vert-adv-y="2191" d="M1115 1115h-802q12 -63 57.5 -102t116.5 -61t162.5 -29.5t194.5 -7.5h310v-80h-315v-835h-80v836q-140 4 -240 22.5t-164.5 56t-94.5 96.5t-30 144q0 91 35 152t109.5 98.5t190.5 53.5t279 16h310v-80h-310q-103 0 -195 -7t-163 -28t-116.5 -60.5t-56.5 -104.5h802v-80z M1112 583v-380h-80v380h80zM599 583v-380h-80v380h80zM359 583v-380h-80v380h80z" />
<glyph unicode="&#xa045;" vert-adv-y="2191" d="M1099 1475v-1133q-5 -93 -32 -166.5t-76 -125t-121 -78.5t-166 -27q-97 0 -193.5 46.5t-195.5 143.5l49 63q47 -44 89 -76.5t83 -54t82 -32t86 -10.5q155 0 235.5 85.5t80.5 247.5v127q-13 0 -25 -0.5t-24 -0.5q-161 0 -286 26.5t-210.5 85t-129.5 153t-44 231.5 q0 113 41 202t125.5 152t214 98.5t307.5 42.5h110zM1020 565v375h-252v-360q47 -8 100 -12t112 -4q10 0 19.5 0.5t20.5 0.5zM1020 1395h-31q-63 -3 -117.5 -9.5t-103.5 -16.5v-349h252v375zM688 596v344h-306q10 -142 86.5 -225t219.5 -119zM382 1020h306v330 q-147 -43 -221 -124.5t-85 -205.5z" />
<glyph unicode="&#xa046;" vert-adv-y="2191" d="M1231 1081q0 -106 -58.5 -187t-166.5 -138q113 -46 171.5 -136t58.5 -211q0 -109 -61 -213t-183 -192l-49 64q110 84 161.5 165.5t51.5 175.5q0 59 -20.5 108.5t-58 87t-90 62.5t-116.5 36q-1 -201 -15 -344.5t-44.5 -235.5t-78.5 -135t-116 -43q-59 0 -102.5 31.5 t-74 98.5t-48 171.5t-24.5 249.5h-204v80h201q-2 38 -2 77v83q0 42 0.5 82t1.5 78h-201v80h204q7 145 25 250t48 172.5t73.5 99.5t102.5 32q67 0 114.5 -42.5t77.5 -132t45 -229t17 -334.5q64 15 115.5 41.5t88 63t56.5 83t20 101.5q0 73 -51 153.5t-157 155.5l47 68 q112 -82 176.5 -176t64.5 -201zM791 736q0 150 -9.5 280.5t-30.5 226.5t-54 151.5t-80 55.5q-38 0 -66.5 -35t-49 -97.5t-33.5 -149.5t-19 -192h153v-80h-156q-3 -78 -3 -160q0 -43 0.5 -82.5t1.5 -77.5h157v-80h-154q12 -232 52 -351.5t117 -119.5q47 0 80 46.5t54 136.5 t30.5 222.5t9.5 305.5z" />
<glyph unicode="&#xa047;" vert-adv-y="2191" d="M1213 1475q-13 -144 -55 -270t-108 -219.5t-155 -147t-195 -53.5q-110 0 -197 46t-152 134.5t-107.5 216.5t-62.5 293h79q16 -147 51 -257.5t86 -186t117.5 -116t145.5 -48.5v608h80v-607q75 10 141.5 58t119.5 126.5t89 186t50 236.5h73zM1115 0h-830v80h830v-80z M1115 431h-830v80h830v-80zM955 1658l-30 -68q-54 42 -116.5 60t-116.5 18q-55 0 -109 -18t-108 -60l-30 68q128 90 247 90q132 0 263 -90z" />
<glyph unicode="&#xa048;" vert-adv-y="2191" d="M1213 1475q-13 -144 -55 -270t-108 -219.5t-155 -147t-195 -53.5q-110 0 -197 46t-152 134.5t-107.5 216.5t-62.5 293h79q16 -147 51 -257.5t86 -186t117.5 -116t145.5 -48.5v608h80v-607q75 10 141.5 58t119.5 126.5t89 186t50 236.5h73zM1115 0h-830v80h830v-80z M1115 431h-830v80h830v-80z" />
<glyph unicode="&#xa049;" vert-adv-y="2191" d="M1115 1115h-802q12 -63 57.5 -102t116.5 -61t162.5 -29.5t194.5 -7.5h310v-80h-309q-28 0 -54 0.5t-51 1.5v-200h394v-80h-394v-205h394v-80h-394v-272h-80v272h-394v80h394v205h-394v80h394v204q-113 8 -194.5 29.5t-134 59t-77 93t-24.5 132.5q0 91 35 152t109.5 98.5 t190.5 53.5t279 16h310v-80h-310q-103 0 -195 -7t-163 -28t-116.5 -60.5t-56.5 -104.5h802v-80z" />
<glyph unicode="&#xa04a;" vert-adv-y="2191" d="M1125 1475v-445h-20l-651 185v-934l651 185h20v-466h-80v361l-651 -192h-20v1158h20l651 -192v340h80z" />
<glyph unicode="&#xa04b;" vert-adv-y="2191" d="M1124 1475v-1475h-443q-110 0 -187 21.5t-125.5 58.5t-70.5 87t-22 106q0 73 38.5 135t124.5 98q-86 35 -124.5 95.5t-38.5 134.5q0 73 38.5 135t124.5 98q-86 36 -124.5 97.5t-38.5 135.5q0 56 22 106t70.5 87t125.5 58.5t187 21.5h443zM1044 466h-363 q-155 0 -240 -51.5t-85 -149.5q0 -49 22 -84t63.5 -57.5t102 -33t137.5 -10.5h363v386zM1044 1395h-363q-155 0 -240 -51.5t-85 -149.5q0 -96 83 -139.5t242 -45.5h363v386zM1044 929h-363q-155 0 -240 -51.5t-85 -149.5q0 -54 26 -89t70 -55.5t103.5 -29t125.5 -8.5h363 v383zM955 1658l-30 -68q-54 42 -116.5 60t-116.5 18q-55 0 -109 -18t-108 -60l-30 68q128 90 247 90q132 0 263 -90z" />
<glyph unicode="&#xa04c;" vert-adv-y="2191" d="M1124 1475v-1475h-443q-110 0 -187 21.5t-125.5 58.5t-70.5 87t-22 106q0 73 38.5 135t124.5 98q-86 35 -124.5 95.5t-38.5 134.5q0 73 38.5 135t124.5 98q-86 36 -124.5 97.5t-38.5 135.5q0 56 22 106t70.5 87t125.5 58.5t187 21.5h443zM1044 466h-363 q-155 0 -240 -51.5t-85 -149.5q0 -49 22 -84t63.5 -57.5t102 -33t137.5 -10.5h363v386zM1044 1395h-363q-155 0 -240 -51.5t-85 -149.5q0 -96 83 -139.5t242 -45.5h363v386zM1044 929h-363q-155 0 -240 -51.5t-85 -149.5q0 -54 26 -89t70 -55.5t103.5 -29t125.5 -8.5h363 v383z" />
<glyph unicode="&#xa04d;" vert-adv-y="2191" d="M1208 1293l-39 -69l-303 177v-1456h-20l-425 256l40 65l325 -195v284q-134 23 -237.5 63t-174 97t-107.5 130t-37 162q0 356 556 443v280h20zM310 807q0 -148 120.5 -241t355.5 -131v735q-241 -36 -358.5 -125.5t-117.5 -237.5zM619 946v-300h-80v300h80z" />
<glyph unicode="&#xa04e;" vert-adv-y="2191" d="M1268 1130v-785h-80v351h-146v-351h-80v351h-113q-8 -382 -98.5 -566.5t-259.5 -184.5q-177 0 -268 203t-91 623q0 210 23 355t68 234.5t112 129.5t156 40q88 0 155 -39.5t112 -129t68 -233.5t24 -352h112v354h80v-354h146v354h80zM770 771q0 150 -14.5 275t-47.5 214.5 t-86.5 139.5t-130.5 50t-130.5 -50t-86.5 -139.5t-47.5 -214.5t-14.5 -275q0 -173 14.5 -311t47.5 -234.5t86.5 -148.5t130.5 -52t130.5 52t86.5 148.5t47.5 234.5t14.5 311zM539 926v-380h-80v380h80zM954 1658l-30 -68q-54 42 -116.5 60t-116.5 18q-55 0 -109 -18 t-108 -60l-30 68q128 90 247 90q132 0 263 -90z" />
<glyph unicode="&#xa04f;" vert-adv-y="2191" d="M1268 1130v-785h-80v351h-146v-351h-80v351h-113q-8 -382 -98.5 -566.5t-259.5 -184.5q-177 0 -268 203t-91 623q0 210 23 355t68 234.5t112 129.5t156 40q88 0 155 -39.5t112 -129t68 -233.5t24 -352h112v354h80v-354h146v354h80zM770 771q0 150 -14.5 275t-47.5 214.5 t-86.5 139.5t-130.5 50t-130.5 -50t-86.5 -139.5t-47.5 -214.5t-14.5 -275q0 -173 14.5 -311t47.5 -234.5t86.5 -148.5t130.5 -52t130.5 52t86.5 148.5t47.5 234.5t14.5 311zM539 926v-380h-80v380h80z" />
<glyph unicode="&#xa050;" vert-adv-y="2191" d="M1293 1257l-33 -80l-319 207v-1384q-185 0 -322.5 33t-229.5 96t-137.5 153.5t-45.5 204.5q0 232 164 364t491 152v527h20zM861 913q-290 -14 -432.5 -121.5t-142.5 -291.5q0 -190 145.5 -295t429.5 -117v825z" />
<glyph unicode="&#xa051;" vert-adv-y="2191" d="M1099 1475v-1475h-60l-339 631l-339 -631h-60v1475h56l342 -648l344 648h56zM665 724l-284 544v-1062zM1020 1266l-273 -542l273 -504v1046zM955 873v-300h-80v300h80zM955 1658l-30 -68q-54 42 -116.5 60t-116.5 18q-55 0 -109 -18t-108 -60l-30 68q128 90 247 90 q132 0 263 -90z" />
<glyph unicode="&#xa052;" vert-adv-y="2191" d="M1099 1475v-1475h-60l-339 631l-339 -631h-60v1475h56l342 -648l344 648h56zM665 724l-284 544v-1062zM1020 1266l-273 -542l273 -504v1046zM955 873v-300h-80v300h80z" />
<glyph unicode="&#xa053;" vert-adv-y="2191" d="M1275 1217l-35 -79l-432 256v-1394h-80v1097l-316 237v-529h193v-80h-193v-495h-80v495h-176v80h176v670h17l379 -283v338h20zM189 279q30 -254 194 -254q136 0 189 254h80q-32 -161 -100 -247.5t-173 -86.5t-174.5 82.5t-95.5 251.5h80zM1073 926v-625h-80v625h80z" />
<glyph unicode="&#xa054;" vert-adv-y="2191" d="M1287 1257l-33 -80l-319 207v-1384q-185 0 -322.5 33t-229.5 96t-137.5 153.5t-45.5 204.5q0 232 164 364t491 152v527h20zM855 913q-290 -14 -432.5 -121.5t-142.5 -291.5q0 -190 145.5 -295t429.5 -117v825zM504 1446v-400h-80v400h80zM1240 800v-400h-80v400h80z M955 1658l-30 -68q-54 42 -116.5 60t-116.5 18q-55 0 -109 -18t-108 -60l-30 68q128 90 247 90q132 0 263 -90z" />
<glyph unicode="&#xa055;" vert-adv-y="2191" d="M1287 1257l-33 -80l-319 207v-1384q-185 0 -322.5 33t-229.5 96t-137.5 153.5t-45.5 204.5q0 232 164 364t491 152v527h20zM855 913q-290 -14 -432.5 -121.5t-142.5 -291.5q0 -190 145.5 -295t429.5 -117v825zM504 1446v-400h-80v400h80zM1240 800v-400h-80v400h80z" />
<glyph unicode="&#xa056;" vert-adv-y="2191" d="M1219 454q-12 -112 -31 -206.5t-49.5 -163t-77 -107t-114.5 -38.5q-91 0 -152 64t-98 207q-15 -72 -39.5 -123t-56 -84t-68 -48.5t-75.5 -15.5q-60 0 -103.5 26t-75.5 86t-55 158.5t-43 244.5h80q15 -114 32 -196.5t39.5 -135.5t53.5 -78t75 -25q36 0 66.5 21.5 t55.5 67.5t43.5 118.5t31.5 174.5q-104 9 -177 60t-119.5 129.5t-68 176t-21.5 198.5q0 70 10.5 139.5t32 132t55.5 116.5t81 93t108.5 61.5t137.5 22.5q114 0 195 -49t132 -128.5t74.5 -181.5t23.5 -207q0 -100 -21 -196t-66 -174t-116.5 -129.5t-172.5 -62.5 q12 -96 28 -167.5t40.5 -119.5t59 -72t83.5 -24q40 0 70.5 36t52.5 96.5t36.5 139t22.5 163.5h80zM1042 964q0 70 -12 141h-667q-6 -35 -8.5 -70t-2.5 -70t2.5 -70t8.5 -70h667q12 69 12 139zM697 480q66 0 117 21t89.5 57t65 84t43.5 103h-631q16 -55 43 -103.5t65.5 -84.5 t90 -56.5t117.5 -20.5zM697 1450q-66 0 -117.5 -21t-90 -57t-65.5 -84t-43 -103h631q-17 55 -43.5 103t-65 84t-89.5 57t-117 21z" />
<glyph unicode="&#xa057;" vert-adv-y="2191" d="M1194 283l-55 -58l-399 405v-630h-80v630l-399 -405l-55 58l438 444l-437 444l55 58l398 -404v650h80v-650l398 404l55 -58l-437 -444zM955 1658l-30 -68q-54 42 -116.5 60t-116.5 18q-55 0 -109 -18t-108 -60l-30 68q128 90 247 90q132 0 263 -90z" />
<glyph unicode="&#xa058;" vert-adv-y="2191" d="M1194 283l-55 -58l-399 405v-630h-80v630l-399 -405l-55 58l438 444l-437 444l55 58l398 -404v650h80v-650l398 404l55 -58l-437 -444z" />
<glyph unicode="&#xa059;" vert-adv-y="2191" d="M1211 1467q-36 -32 -73 -73.5t-71 -92.5q57 -102 86.5 -243.5t30.5 -321.5q0 -180 -29.5 -321.5t-86.5 -242.5q69 -101 143 -164l-49 -63q-38 31 -74 69t-70 83q-60 -75 -140 -113.5t-178 -38.5q-99 0 -179 38.5t-140 113.5q-68 -90 -143 -152l-49 63q35 31 71.5 72 t70.5 92q-115 203 -115 564q0 180 30 321.5t87 243.5q-35 51 -71.5 92.5t-72.5 73.5l49 63q38 -32 74 -70.5t70 -84.5q60 76 139.5 115.5t178.5 39.5t178.5 -39.5t139.5 -115.5q34 46 70 84.5t74 70.5zM586 735q0 -170 -43.5 -312t-111.5 -253q49 -69 115.5 -107t153.5 -38 q86 0 152.5 38t115.5 107q-68 111 -111 253t-43 312q0 169 43.5 312t111.5 256q-49 69 -115.5 108t-153.5 39t-154 -39t-116 -108q68 -113 112 -256t44 -312zM506 738q0 139 -35 259.5t-89 220.5q-44 -95 -65 -218t-21 -264t21 -263.5t65 -216.5q54 100 89 221t35 261z M1104 736q0 141 -21 264t-66 218q-54 -100 -88.5 -220.5t-34.5 -259.5q0 -140 34.5 -261t88.5 -221q44 94 65.5 216.5t21.5 263.5z" />
<glyph unicode="&#xa05a;" vert-adv-y="2191" d="M1219 736q-12 -112 -31 -206.5t-49.5 -163t-77 -107t-114.5 -38.5q-91 0 -152 64t-98 207q-15 -72 -39.5 -123t-56 -84t-68 -48.5t-75.5 -15.5q-60 0 -103.5 26t-75.5 86t-55 158.5t-43 244.5h80q15 -114 32 -196.5t39.5 -135.5t53.5 -78t75 -25q37 0 68 22.5t56 70.5 t44 124t31 183q-104 7 -184.5 43t-135 92t-83 128t-28.5 151q0 83 31.5 158t92 132t149 91t202.5 34t202.5 -34t149 -91t92 -132.5t31.5 -158.5q0 -79 -28.5 -151t-84 -128.5t-136.5 -92t-186 -41.5q12 -100 28 -175t40.5 -125t59.5 -75t85 -25q40 0 70.5 36t52.5 96.5 t36.5 139t22.5 163.5h80zM1099 1114q0 62 -25 122.5t-75 108t-124 76.5t-171 29q-98 0 -171.5 -29t-123.5 -76.5t-75 -107.5t-25 -122t25 -122.5t75 -107.5t123.5 -76t171.5 -29q97 0 171 29t124 76.5t75 107t25 121.5zM739 245v-300h-80v300h80z" />
<glyph unicode="&#xa05b;" vert-adv-y="2191" d="M1195 1450q-98 -62 -180.5 -141.5t-142 -171t-93 -192.5t-33.5 -206t33.5 -206.5t93 -194t142 -172.5t180.5 -141l-33 -80q-111 70 -202 161t-156.5 194t-101.5 214t-36 222q0 29 2.5 59t7.5 60l-169 149v-1059h-20l-283 272l47 64l176 -177v1061h20l248 -227 q25 85 68.5 168t103.5 159t134.5 143t160.5 122zM1195 789v-80h-207q15 -197 204 -352l-47 -64q-218 185 -239 416h-97v80h97q59 253 239 366l47 -63q-159 -105 -204 -303h207zM954 1658l-30 -68q-54 42 -116.5 60t-116.5 18q-55 0 -109 -18t-108 -60l-30 68q128 90 247 90 q132 0 263 -90z" />
<glyph unicode="&#xa05c;" vert-adv-y="2191" d="M1195 1450q-98 -62 -180.5 -141.5t-142 -171t-93 -192.5t-33.5 -206t33.5 -206.5t93 -194t142 -172.5t180.5 -141l-33 -80q-111 70 -202 161t-156.5 194t-101.5 214t-36 222q0 29 2.5 59t7.5 60l-169 149v-1059h-20l-283 272l47 64l176 -177v1061h20l248 -227 q25 85 68.5 168t103.5 159t134.5 143t160.5 122zM1195 789v-80h-207q15 -197 204 -352l-47 -64q-218 185 -239 416h-97v80h97q59 253 239 366l47 -63q-159 -105 -204 -303h207z" />
<glyph unicode="&#xa05d;" vert-adv-y="2191" d="M1137 715h-225q3 -98 25.5 -196.5t57 -187t79.5 -161.5t93 -119l-49 -66q-61 60 -112.5 142t-89 177t-59.5 199.5t-25 211.5h-265q-3 -107 -25 -211.5t-59.5 -199.5t-88.5 -177t-112 -142l-49 66q48 46 93 119t79.5 161.5t56.5 187t25 196.5h-224v80h223 q-5 96 -27.5 191.5t-57 181t-78 156t-90.5 115.5l49 66q60 -59 110 -138.5t87 -172t59.5 -194.5t27.5 -205h267q5 103 27.5 205t60 194.5t87.5 172t110 138.5l49 -66q-47 -45 -91 -115.5t-78.5 -156t-57 -181t-27.5 -191.5h224v-80z" />
<glyph unicode="&#xa05e;" vert-adv-y="2191" d="M1217 1439q-50 -48 -96.5 -125t-81.5 -169.5t-56 -195.5t-21 -204t21 -204t56 -195.5t81.5 -169.5t96.5 -125l-49 -66q-69 67 -124 159t-93 201h-503q-38 -109 -93 -201t-123 -159l-49 66q50 48 96 125t81.5 169.5t56.5 195.5t21 204t-21 204t-56.5 195.5t-81.5 169.5 t-96 125l49 66q65 -64 118 -151t91 -189h517q38 102 91.5 189t118.5 151zM516 795h367q4 74 16.5 147t32.5 143h-465q21 -70 33.5 -143t15.5 -147zM473 425h453q-39 141 -44 290h-365q-2 -74 -13 -147t-31 -143z" />
<glyph unicode="&#xa05f;" vert-adv-y="2191" d="M1247 1475v-1475h-44l-349 656l-368 -689l-63 45l166 314h-4l-176 336l-209 -448l-47 49l223 479l-206 465l63 31l176 -416l143 319h43l-158 294l74 31l343 -643l349 652h44zM1167 1247l-267 -505l267 -507v1012zM810 742l-161 299v-603zM569 1014l-113 -272l113 -240 v512zM957 1658l-30 -68q-54 42 -116.5 60t-116.5 18q-55 0 -109 -18t-108 -60l-30 68q128 90 247 90q132 0 263 -90z" />
<glyph unicode="&#xa060;" vert-adv-y="2191" d="M1247 1475v-1475h-44l-349 656l-368 -689l-63 45l166 314h-4l-176 336l-209 -448l-47 49l223 479l-206 465l63 31l176 -416l143 319h43l-158 294l74 31l343 -643l349 652h44zM1167 1247l-267 -505l267 -507v1012zM810 742l-161 299v-603zM569 1014l-113 -272l113 -240 v512z" />
<glyph unicode="&#xa061;" vert-adv-y="2191" d="M1188 1475q0 -141 -7.5 -256t-34.5 -197t-79.5 -127t-142.5 -45q-47 0 -83 15.5t-63 44t-46.5 68.5t-32.5 90q-13 -50 -32 -90t-46 -68.5t-63 -44t-82 -15.5q-90 0 -142.5 45t-79.5 127t-34.5 197t-7.5 256h80q0 -144 7.5 -247.5t28 -169.5t56.5 -97t92 -31q55 0 90 29.5 t56 94.5t29 168.5t9 252.5h80q0 -144 7.5 -247.5t28 -169.5t56.5 -97t92 -31t92 31t56.5 97t28 169.5t7.5 247.5h80zM1115 0h-830v80h830v-80zM1115 328h-830v80h830v-80z" />
<glyph unicode="&#xa062;" vert-adv-y="2191" d="M1109 1530v-1585h-20l-608 351l40 72l508 -300v1462h80zM291 1475h44l452 -353v353h80v-480h-31l-465 353v-353h-80v480zM836 732h-490v80h490v-80zM836 519h-490v80h490v-80zM952 1658l-30 -68q-54 42 -116.5 60t-116.5 18q-55 0 -109 -18t-108 -60l-30 68 q128 90 247 90q132 0 263 -90z" />
<glyph unicode="&#xa063;" vert-adv-y="2191" d="M1109 1530v-1585h-20l-608 351l40 72l508 -300v1462h80zM291 1475h44l452 -353v353h80v-480h-31l-465 353v-353h-80v480zM836 732h-490v80h490v-80zM836 519h-490v80h490v-80z" />
<glyph unicode="&#xa064;" vert-adv-y="2191" d="M954 736q0 -210 -13.5 -360t-43.5 -245.5t-78.5 -140.5t-118.5 -45t-118.5 45t-78.5 140.5t-43.5 245.5t-13.5 360t13.5 360.5t44 246.5t79 141.5t117.5 45.5q70 0 118 -45.5t78 -141.5t44 -246.5t14 -360.5zM874 736q0 150 -9.5 280.5t-30.5 226.5t-54 151.5t-80 55.5 t-80 -55.5t-54 -151.5t-30.5 -226.5t-9.5 -280.5q0 -173 9.5 -305.5t30.5 -222.5t54 -136.5t80 -46.5t80 46.5t54 136.5t30.5 222.5t9.5 305.5zM280 350v-300h-80v300h80zM280 1425v-300h-80v300h80zM1200 350v-300h-80v300h80zM1200 1425v-300h-80v300h80z" />
<glyph unicode="&#xa065;" vert-adv-y="2191" d="M803 0v297q-560 90 -575 502q6 388 575 490v241h80v-1530h-80zM803 1209q-252 -50 -374 -153t-122 -261q8 -174 130.5 -274.5t365.5 -126.5v815zM1172 1305v-1024h-80v1024h80z" />
<glyph unicode="&#xa066;" vert-adv-y="2191" d="M1157 469v-80h-417v-309h417v-80h-874v80h377v309h-378v80h378v459l-398 -300l-55 58l426 322l-410 310l55 58l382 -289v388h80v-387l382 289l55 -58l-412 -311l428 -323l-55 -58l-398 301v-459h417zM955 1658l-30 -68q-54 42 -116.5 60t-116.5 18q-55 0 -109 -18 t-108 -60l-30 68q128 90 247 90q132 0 263 -90z" />
<glyph unicode="&#xa067;" vert-adv-y="2191" d="M1157 469v-80h-417v-309h417v-80h-874v80h377v309h-378v80h378v459l-398 -300l-55 58l426 322l-410 310l55 58l382 -289v388h80v-387l382 289l55 -58l-412 -311l428 -323l-55 -58l-398 301v-459h417z" />
<glyph unicode="&#xa068;" vert-adv-y="2191" d="M1185 1083h-80q-11 187 -59.5 277t-122.5 90q-34 0 -60 -24.5t-45.5 -66.5t-33 -97t-23 -116.5t-14.5 -125t-7 -122.5q93 -7 169.5 -43t136.5 -91.5t103.5 -126t70.5 -146.5h-96q-26 87 -74.5 149.5t-108 102t-123.5 58.5t-119 19q-56 0 -119.5 -19t-122.5 -59 t-108 -102.5t-74 -148.5h-96q27 76 70 146.5t103 126t136.5 91.5t168.5 43q-2 59 -7 122.5t-14 125t-23 116.5t-33.5 97t-45.5 66.5t-59 24.5q-74 0 -122.5 -90t-59.5 -277h-80q16 224 78.5 335.5t183.5 111.5q46 0 82 -21.5t63 -59.5t46.5 -89t32.5 -109q13 58 32.5 109 t46.5 89t62.5 59.5t82.5 21.5q121 0 183.5 -111.5t78.5 -335.5zM1108 420q-53 -229 -155 -352t-254 -123q-150 0 -248 123t-144 352h82q38 -193 113 -294t197 -101q117 0 201.5 101t127.5 294h80zM739 582v-300h-80v300h80z" />
<glyph unicode="&#xa069;" vert-adv-y="2191" d="M1182 1055v-580h-20l-865 466v-446h-80v580h20l865 -477v457h80zM998 1475v-410h-21l-475 283v-283h-80v410h20l476 -283v283h80zM1014 340h-635v80h635v-80zM1014 0h-635v80h635v-80zM953 1658l-30 -68q-54 42 -116.5 60t-116.5 18q-55 0 -109 -18t-108 -60l-30 68 q128 90 247 90q132 0 263 -90z" />
<glyph unicode="&#xa06a;" vert-adv-y="2191" d="M1182 1055v-580h-20l-865 466v-446h-80v580h20l865 -477v457h80zM998 1475v-410h-21l-475 283v-283h-80v410h20l476 -283v283h80zM1014 340h-635v80h635v-80zM1014 0h-635v80h635v-80z" />
<glyph unicode="&#xa06b;" vert-adv-y="2191" d="M875 1475v-680l274 442l63 -49l-337 -536v-707h-20l-608 351l40 72l508 -300v1407h80zM667 1357v-460h-20l-379 313v-313h-80v460h20l379 -313v313h80zM667 645h-479v80h479v-80z" />
<glyph unicode="&#xa06c;" vert-adv-y="2191" d="M876 1475v-915h-20l-253 226v-786h-80v934h20l253 -223v764h80zM473 312q0 -55 -21 -102t-60 -84.5t-94.5 -64t-125.5 -41.5v86q103 31 162 83t59 124q0 71 -59 123t-162 83v86q70 -15 125.5 -42t94.5 -64.5t60 -84.5t21 -102zM473 1164q0 -55 -21 -102t-60 -84.5 t-94.5 -64t-125.5 -41.5v86q103 31 162 83t59 124q0 71 -59 123t-162 83v86q70 -15 125.5 -42t94.5 -64.5t60 -84.5t21 -102zM1227 605v-86q-103 -31 -162 -83t-59 -123q0 -72 59 -124t162 -83v-86q-70 15 -125.5 41.5t-94.5 64t-60 84.5t-21 102t21 102t60 84.5t94.5 64.5 t125.5 42zM1227 1457v-86q-103 -31 -162 -83t-59 -123q0 -72 59 -124t162 -83v-86q-70 15 -125.5 41.5t-94.5 64t-60 84.5t-21 102t21 102t60 84.5t94.5 64.5t125.5 42z" />
<glyph unicode="&#xa06d;" vert-adv-y="2191" d="M1198 1530v-435h-20l-332 172v-1267h-80v843l-272 197v-798h-20l-272 227l47 63l165 -135v781h20l332 -240v452h20l332 -174v314h80zM1198 870v-607h-80v607h80zM954 1658l-30 -68q-54 42 -116.5 60t-116.5 18q-55 0 -109 -18t-108 -60l-30 68q128 90 247 90 q132 0 263 -90z" />
<glyph unicode="&#xa06e;" vert-adv-y="2191" d="M1198 1530v-435h-20l-332 172v-1267h-80v843l-272 197v-798h-20l-272 227l47 63l165 -135v781h20l332 -240v452h20l332 -174v314h80zM1198 870v-607h-80v607h80z" />
<glyph unicode="&#xa06f;" vert-adv-y="2191" d="M1162 1304l-47 -63l-242 160v-1155h-20l-535 205v-451h-80v557h20l535 -202v699l-475 148v-383h-80v489h20l535 -174v396h20zM1121 1003v-450h-80v450h80z" />
<glyph unicode="&#xa070;" vert-adv-y="2191" d="M903 1475v-867q57 -22 106 -71t87 -124.5t64 -179t38 -233.5h-80q-18 146 -48.5 250t-71 170t-90.5 96.5t-109 30.5q-64 0 -119 -25.5t-100 -87.5t-79.5 -168t-55.5 -266h-80q18 164 52.5 279t84 189.5t113.5 111.5t142 45l-477 476v-650h-80v817h44l579 -591v798h80z M839 301v-300h-80v300h80zM954 1658l-30 -68q-54 42 -116.5 60t-116.5 18q-55 0 -109 -18t-108 -60l-30 68q128 90 247 90q132 0 263 -90z" />
<glyph unicode="&#xa071;" vert-adv-y="2191" d="M903 1475v-867q57 -22 106 -71t87 -124.5t64 -179t38 -233.5h-80q-18 146 -48.5 250t-71 170t-90.5 96.5t-109 30.5q-64 0 -119 -25.5t-100 -87.5t-79.5 -168t-55.5 -266h-80q18 164 52.5 279t84 189.5t113.5 111.5t142 45l-477 476v-650h-80v817h44l579 -591v798h80z M839 301v-300h-80v300h80z" />
<glyph unicode="&#xa072;" vert-adv-y="2191" d="M1272 1298l-47 -66l-207 153v-1440h-20l-290 236l47 63l183 -154v406h-500v-551h-20l-290 236l47 63l183 -154v1440h20l560 -269v269h20zM438 576h520v597l-520 242v-839zM728 1063v-300h-80v300h80z" />
<glyph unicode="&#xa073;" vert-adv-y="2191" d="M1153 1476v-625h-80v275l-333 258v-1439h-21l-392 305v-251h-80v625h80v-275l333 -258v1439h21l392 -295v241h80zM955 1658l-30 -68q-54 42 -116.5 60t-116.5 18q-55 0 -109 -18t-108 -60l-30 68q128 90 247 90q132 0 263 -90z" />
<glyph unicode="&#xa074;" vert-adv-y="2191" d="M1153 1476v-625h-80v275l-333 258v-1439h-21l-392 305v-251h-80v625h80v-275l333 -258v1439h21l392 -295v241h80z" />
<glyph unicode="&#xa075;" vert-adv-y="2191" d="M1177 1159l-42 -63l-388 285v-720l430 -325l-42 -63l-388 284v-612h-20l-529 383l44 69l425 -311v791l-469 333l46 71l423 -303v552h20z" />
<glyph unicode="&#xa076;" vert-adv-y="2191" d="M1132 1157l-542 250v-669h174v347h80v-347h192v348h80v-845h-80v417h-192v-417h-80v417h-174v-658h-80v1530h20l634 -293zM315 567v-380h-80v380h80zM315 1326v-380h-80v380h80z" />
<glyph unicode="&#xa077;" vert-adv-y="2191" d="M1159 1044q0 -101 -30 -186.5t-87.5 -149.5t-140 -102.5t-187.5 -44.5v-276q0 -134 46.5 -197t140.5 -63q42 0 77.5 16.5t65.5 47.5t55 75t47 98l64 -49q-60 -130 -135 -199t-174 -69q-74 0 -124.5 21t-82.5 63t-46 106t-14 150v276q-105 6 -188 45t-140 102.5t-87 149.5 t-30 187q0 105 33 194t95 153.5t152.5 101t204.5 36.5t204.5 -36.5t152.5 -101t95 -154t33 -194.5zM634 641v364h-364q6 -73 32.5 -136.5t73 -112t111 -79t147.5 -36.5zM270 1085h364v363q-83 -6 -147.5 -36t-111 -78.5t-73 -112t-32.5 -136.5zM1077 1005h-363v-364 q82 6 147 36.5t111 79t72.5 112t32.5 136.5zM714 1448v-363h363q-6 73 -32.5 136.5t-72.5 112t-111 78.5t-147 36zM965 428v-200h-80v200h80zM959 1658l-30 -68q-54 42 -116.5 60t-116.5 18q-55 0 -109 -18t-108 -60l-30 68q128 90 247 90q132 0 263 -90z" />
<glyph unicode="&#xa078;" vert-adv-y="2191" d="M1159 1044q0 -101 -30 -186.5t-87.5 -149.5t-140 -102.5t-187.5 -44.5v-276q0 -134 46.5 -197t140.5 -63q42 0 77.5 16.5t65.5 47.5t55 75t47 98l64 -49q-60 -130 -135 -199t-174 -69q-74 0 -124.5 21t-82.5 63t-46 106t-14 150v276q-105 6 -188 45t-140 102.5t-87 149.5 t-30 187q0 105 33 194t95 153.5t152.5 101t204.5 36.5t204.5 -36.5t152.5 -101t95 -154t33 -194.5zM634 641v364h-364q6 -73 32.5 -136.5t73 -112t111 -79t147.5 -36.5zM270 1085h364v363q-83 -6 -147.5 -36t-111 -78.5t-73 -112t-32.5 -136.5zM1077 1005h-363v-364 q82 6 147 36.5t111 79t72.5 112t32.5 136.5zM714 1448v-363h363q-6 73 -32.5 136.5t-72.5 112t-111 78.5t-147 36zM965 428v-200h-80v200h80z" />
<glyph unicode="&#xa079;" vert-adv-y="2191" d="M1038 692h-260v-232h260v-80h-260v-380h-80v380h-212v80h212v232h-212v80h212v366l-399 257v-1395h-80v1530h20l459 -296v296h20l463 -315l-47 -66l-356 236v-613h260v-80z" />
<glyph unicode="&#xa07a;" vert-adv-y="2191" d="M934 430h-280v-430h-80v430h-363v80h363v344h-363v80h363v461h-354v80h802l167 -516l-72 -25l-160 461h-303v-461h280v-80h-280v-344h280v-80zM961 1658l-30 -68q-54 42 -116.5 60t-116.5 18q-55 0 -109 -18t-108 -60l-30 68q128 90 247 90q132 0 263 -90z" />
<glyph unicode="&#xa07b;" vert-adv-y="2191" d="M934 430h-280v-430h-80v430h-363v80h363v344h-363v80h363v461h-354v80h802l167 -516l-72 -25l-160 461h-303v-461h280v-80h-280v-344h280v-80z" />
<glyph unicode="&#xa07c;" vert-adv-y="2191" d="M1110 1047h-370v-533h370v-80h-370v-434h-80v434h-380v80h380v533h-380v80h380v348h80v-348h370v-80z" />
<glyph unicode="&#xa07d;" vert-adv-y="2191" d="M1189 1238v-920h-80v420h-249q5 -82 8 -169.5t3 -179.5q0 -104 -7 -186.5t-25 -139.5t-48 -87.5t-76 -30.5q-42 0 -69 15.5t-45 43t-30 64.5t-24 79q-5 -36 -13.5 -72.5t-26.5 -65t-47.5 -46.5t-75.5 -18q-48 0 -81 36t-53.5 100t-30 150t-9.5 187q0 73 3 159t10 178 t19 185t30.5 179t43.5 161t59 130.5t76.5 87.5t95.5 32q65 0 116 -51.5t89 -145t63 -225t39 -290.5h255v420h80zM791 412q0 104 -5.5 221.5t-17.5 233t-31 221t-46 186t-63 128.5t-81 48q-43 0 -79 -45t-64.5 -121.5t-50 -178t-35.5 -214.5t-21 -231t-7 -227 q0 -80 5.5 -153.5t17 -130t29.5 -90.5t42 -34q30 0 50 19t33 50.5t21 72t13 84.5t9 87.5t9 80.5h58q7 -82 18.5 -154t28 -125t39 -84t52.5 -31q36 0 56 100.5t20 286.5zM1017 1158v-200h-80v200h80zM1017 598v-200h-80v200h80z" />
<glyph unicode="&#xa07e;" vert-adv-y="2191" d="M1113 1059h-197l-172 -321l159 -297h210v-80h-167l194 -361h-90l-194 361h-315l-193 -361h-90l193 361h-168v80h211l160 297l-172 321h-199v80h156l-179 336h90l179 -336h340l181 336h90l-181 -336h154v-80zM699 822l127 237h-254zM584 441h229l-114 213zM954 1658 l-30 -68q-54 42 -116.5 60t-116.5 18q-55 0 -109 -18t-108 -60l-30 68q128 90 247 90q132 0 263 -90z" />
<glyph unicode="&#xa07f;" vert-adv-y="2191" d="M1113 1059h-197l-172 -321l159 -297h210v-80h-167l194 -361h-90l-194 361h-315l-193 -361h-90l193 361h-168v80h211l160 297l-172 321h-199v80h156l-179 336h90l179 -336h340l181 336h90l-181 -336h154v-80zM699 822l127 237h-254zM584 441h229l-114 213z" />
<glyph unicode="&#xa080;" vert-adv-y="2191" d="M956 193h-71l-185 456l-185 -456h-71l217 553l-217 537h84l172 -438l172 438h84l-217 -537zM349 0h-80v1475h80v-1475zM1131 0h-80v1475h80v-1475z" />
<glyph unicode="&#xa081;" vert-adv-y="2191" d="M1146 1475v-445h-20l-471 185v-934l471 185h20v-466h-80v361l-471 -192h-20v782q-103 -31 -165 -127t-79 -257h-80q14 194 96 310t228 154v296h20l471 -192v340h80zM1029 948v-400h-80v400h80z" />
<glyph unicode="&#xa082;" vert-adv-y="2191" d="M1188 1475q0 -141 -7.5 -256t-34.5 -197t-79.5 -127t-142.5 -45q-47 0 -83 15.5t-63 44t-46.5 68.5t-32.5 90q-13 -50 -32 -90t-46 -68.5t-63 -44t-82 -15.5q-90 0 -142.5 45t-79.5 127t-34.5 197t-7.5 256h80q0 -144 7.5 -247.5t28 -169.5t56.5 -97t92 -31q55 0 90 29.5 t56 94.5t29 168.5t9 252.5h80q0 -144 7.5 -247.5t28 -169.5t56.5 -97t92 -31t92 31t56.5 97t28 169.5t7.5 247.5h80zM387 448v80h272v223h80v-223h272v-80h-272v-240h-80v240h-272zM1153 230q-105 -142 -218.5 -213.5t-235.5 -71.5q-110 0 -214.5 72.5t-209.5 212.5l63 49 q91 -125 181 -189.5t180 -64.5q105 0 201.5 60.5t187.5 193.5zM954 1658l-30 -68q-54 42 -116.5 60t-116.5 18q-55 0 -109 -18t-108 -60l-30 68q128 90 247 90q132 0 263 -90z" />
<glyph unicode="&#xa083;" vert-adv-y="2191" d="M1188 1475q0 -141 -7.5 -256t-34.5 -197t-79.5 -127t-142.5 -45q-47 0 -83 15.5t-63 44t-46.5 68.5t-32.5 90q-13 -50 -32 -90t-46 -68.5t-63 -44t-82 -15.5q-90 0 -142.5 45t-79.5 127t-34.5 197t-7.5 256h80q0 -144 7.5 -247.5t28 -169.5t56.5 -97t92 -31q55 0 90 29.5 t56 94.5t29 168.5t9 252.5h80q0 -144 7.5 -247.5t28 -169.5t56.5 -97t92 -31t92 31t56.5 97t28 169.5t7.5 247.5h80zM387 448v80h272v223h80v-223h272v-80h-272v-240h-80v240h-272zM1153 230q-105 -142 -218.5 -213.5t-235.5 -71.5q-110 0 -214.5 72.5t-209.5 212.5l63 49 q91 -125 181 -189.5t180 -64.5q105 0 201.5 60.5t187.5 193.5z" />
<glyph unicode="&#xa084;" vert-adv-y="2191" d="M1188 1475q0 -141 -7.5 -256t-34.5 -197t-79.5 -127t-142.5 -45q-47 0 -83 15.5t-63 44t-46.5 68.5t-32.5 90q-13 -50 -32 -90t-46 -68.5t-63 -44t-82 -15.5q-90 0 -142.5 45t-79.5 127t-34.5 197t-7.5 256h80q0 -144 7.5 -247.5t28 -169.5t56.5 -97t92 -31q55 0 90 29.5 t56 94.5t29 168.5t9 252.5h80q0 -144 7.5 -247.5t28 -169.5t56.5 -97t92 -31t92 31t56.5 97t28 169.5t7.5 247.5h80zM1153 230q-105 -142 -218.5 -213.5t-235.5 -71.5q-110 0 -214.5 72.5t-209.5 212.5l63 49q91 -125 181 -189.5t180 -64.5q105 0 201.5 60.5t187.5 193.5z M659 673h80v-380h-80v380z" />
<glyph unicode="&#xa085;" vert-adv-y="2191" d="M1094 660h-377v-635h13q125 6 210.5 87t142.5 230l75 -33q-63 -177 -167 -270.5t-253 -93.5q-123 0 -216 47t-155.5 137t-93.5 222.5t-31 303.5q0 163 31.5 295t91.5 225.5t146.5 144t197.5 50.5q87 0 163 -40.5t142 -108.5v254h80v-445h-49q-63 123 -144 188t-184 71 v-549h377v-80zM322 686q0 -287 83.5 -450t231.5 -200v1246q-65 -17 -122.5 -68t-100.5 -129.5t-67.5 -180t-24.5 -218.5z" />
<glyph unicode="&#xa086;" vert-adv-y="2191" d="M1263 771q0 -420 -91 -623t-268 -203q-140 0 -227 127t-117 389q-215 7 -319.5 76t-104.5 205t102.5 205t316.5 77q13 138 41.5 234.5t72.5 156.5t102.5 87.5t132.5 27.5q88 0 155.5 -40t112.5 -129.5t68 -234.5t23 -355zM1183 771q0 150 -14.5 275t-47.5 214.5 t-86.5 139.5t-130.5 50t-130.5 -50t-86.5 -139.5t-47.5 -214.5t-14.5 -275q0 -173 14.5 -311t47.5 -234.5t86.5 -148.5t130.5 -52t130.5 52t86.5 148.5t47.5 234.5t14.5 311zM216 743q0 -100 85.5 -151t251.5 -53q-5 54 -6.5 111.5t-1.5 120.5q0 47 1.5 90t3.5 84 q-165 -2 -249.5 -53t-84.5 -149zM389 300v-300h-80v300h80zM389 1475v-300h-80v300h80zM954 1658l-30 -68q-54 42 -116.5 60t-116.5 18q-55 0 -109 -18t-108 -60l-30 68q128 90 247 90q132 0 263 -90z" />
<glyph unicode="&#xa087;" vert-adv-y="2191" d="M1263 771q0 -420 -91 -623t-268 -203q-140 0 -227 127t-117 389q-215 7 -319.5 76t-104.5 205t102.5 205t316.5 77q13 138 41.5 234.5t72.5 156.5t102.5 87.5t132.5 27.5q88 0 155.5 -40t112.5 -129.5t68 -234.5t23 -355zM1183 771q0 150 -14.5 275t-47.5 214.5 t-86.5 139.5t-130.5 50t-130.5 -50t-86.5 -139.5t-47.5 -214.5t-14.5 -275q0 -173 14.5 -311t47.5 -234.5t86.5 -148.5t130.5 -52t130.5 52t86.5 148.5t47.5 234.5t14.5 311zM216 743q0 -100 85.5 -151t251.5 -53q-5 54 -6.5 111.5t-1.5 120.5q0 47 1.5 90t3.5 84 q-165 -2 -249.5 -53t-84.5 -149zM389 300v-300h-80v300h80zM389 1475v-300h-80v300h80z" />
<glyph unicode="&#xa088;" vert-adv-y="2191" d="M1185 786q0 -101 -30 -186.5t-87.5 -149.5t-140 -102.5t-187.5 -44.5v-303h-80v303q-105 6 -188 45t-140 102.5t-87 149.5t-30 187q0 100 30 186t87 149.5t140 102.5t188 45v205h80v-205q105 -6 187.5 -45t140 -103t87.5 -150t30 -186zM295 787q0 -80 24 -151t70.5 -125 t114.5 -87.5t156 -40.5v807q-88 -6 -156 -40t-114.5 -88t-70.5 -124.5t-24 -150.5zM1105 786q0 80 -24 151t-70.5 125t-114.5 88t-156 40v-807q88 7 156 41t114.5 88t70.5 124t24 150zM954 934v-300h-80v300h80z" />
<glyph unicode="&#xa089;" vert-adv-y="2191" d="M1219 711q0 -29 -0.5 -77.5t-3 -107.5t-7.5 -125.5t-15 -131t-25 -123t-37 -103.5t-52 -71.5t-69 -26.5q-44 0 -75 30t-52.5 79.5t-34.5 113.5t-20 133.5t-9 138.5t-2 128q0 33 0.5 61.5t0.5 51.5h-236q0 -47 -2 -120t-8.5 -155t-19.5 -164t-36.5 -148t-58 -107.5 t-84.5 -41.5q-44 0 -75 30t-52.5 79.5t-34.5 114t-20 134t-9 138.5t-2 128q0 45 0.5 81.5t0.5 60.5q0 20 -0.5 54.5t-0.5 79.5q0 57 2 126.5t9 139.5t20 135.5t34.5 116.5t52.5 81.5t75 30.5q47 0 81 -39t57 -102t36.5 -142t21 -158.5t10.5 -151.5t3 -121h235 q0 17 -0.5 36.5t-0.5 41.5q0 57 2 126.5t9 140t19.5 137t34.5 118.5t53.5 83t75.5 31q39 0 69 -27.5t52 -73t37 -105.5t25 -125.5t15 -131.5t7.5 -124.5t3 -105t0.5 -71.5zM502 710q0 144 -7.5 269.5t-23.5 217.5t-40 145t-58 53t-55.5 -53t-34 -145t-17.5 -217t-5 -269 t5 -269.5t17.5 -218t34 -145.5t55.5 -53t58 53t40 145t23.5 217.5t7.5 269.5zM1139 710q0 144 -7.5 269.5t-23.5 217.5t-40 145t-58 53t-55.5 -53t-34 -145t-17.5 -217t-5 -269t5 -269.5t17.5 -218t34 -145.5t55.5 -53t58 53t40 145t23.5 217.5t7.5 269.5zM740 1350v-300 h-80v300h80zM740 370v-300h-80v300h80zM954 1658l-30 -68q-54 42 -116.5 60t-116.5 18q-55 0 -109 -18t-108 -60l-30 68q128 90 247 90q132 0 263 -90z" />
<glyph unicode="&#xa08a;" vert-adv-y="2191" d="M1219 711q0 -29 -0.5 -77.5t-3 -107.5t-7.5 -125.5t-15 -131t-25 -123t-37 -103.5t-52 -71.5t-69 -26.5q-44 0 -75 30t-52.5 79.5t-34.5 113.5t-20 133.5t-9 138.5t-2 128q0 33 0.5 61.5t0.5 51.5h-236q0 -47 -2 -120t-8.5 -155t-19.5 -164t-36.5 -148t-58 -107.5 t-84.5 -41.5q-44 0 -75 30t-52.5 79.5t-34.5 114t-20 134t-9 138.5t-2 128q0 45 0.5 81.5t0.5 60.5q0 20 -0.5 54.5t-0.5 79.5q0 57 2 126.5t9 139.5t20 135.5t34.5 116.5t52.5 81.5t75 30.5q47 0 81 -39t57 -102t36.5 -142t21 -158.5t10.5 -151.5t3 -121h235 q0 17 -0.5 36.5t-0.5 41.5q0 57 2 126.5t9 140t19.5 137t34.5 118.5t53.5 83t75.5 31q39 0 69 -27.5t52 -73t37 -105.5t25 -125.5t15 -131.5t7.5 -124.5t3 -105t0.5 -71.5zM502 710q0 144 -7.5 269.5t-23.5 217.5t-40 145t-58 53t-55.5 -53t-34 -145t-17.5 -217t-5 -269 t5 -269.5t17.5 -218t34 -145.5t55.5 -53t58 53t40 145t23.5 217.5t7.5 269.5zM1139 710q0 144 -7.5 269.5t-23.5 217.5t-40 145t-58 53t-55.5 -53t-34 -145t-17.5 -217t-5 -269t5 -269.5t17.5 -218t34 -145.5t55.5 -53t58 53t40 145t23.5 217.5t7.5 269.5zM740 1350v-300 h-80v300h80zM740 370v-300h-80v300h80z" />
<glyph unicode="&#xa08b;" vert-adv-y="2191" d="M1246 1444q-103 -33 -185.5 -78.5t-147.5 -100.5q41 -94 63.5 -216t25.5 -272h244v-80h-243q-2 -151 -25 -273t-64 -215q65 -55 147 -100t185 -78l-31 -86q-104 36 -188.5 82t-153.5 102q-55 -91 -129 -137.5t-165 -46.5q-96 0 -174.5 53.5t-134 154.5t-85.5 248t-30 335 q0 187 30.5 334.5t86 249.5t133.5 156t174 54q91 0 166 -48.5t130 -141.5q70 58 157 105.5t193 84.5zM579 1450q-85 0 -149 -55.5t-107.5 -151.5t-65.5 -226.5t-22 -280.5t22 -280t65.5 -225.5t107.5 -150.5t149 -55q75 0 133 42t101 118q-112 112 -165 251.5t-53 300.5 q0 158 53.5 297t165.5 251q-43 78 -101.5 121.5t-133.5 43.5zM851 1205q-85 -92 -127 -200.5t-48 -227.5h246q-2 124 -20 232.5t-51 195.5zM922 697h-246q6 -119 48.5 -227.5t126.5 -200.5q33 87 51 195t20 233zM1166 1207v-300h-80v300h80zM1166 567v-300h-80v300h80z" />
<glyph unicode="&#xa08c;" vert-adv-y="2191" d="M1147 1475v-834q0 -180 -27.5 -311.5t-83.5 -217t-140 -126.5t-196 -41q-113 0 -197 41t-139.5 126.5t-83.5 217t-28 311.5v834h80v-637h328v637h80v-1448q80 7 141 46.5t102.5 114.5t62.5 187.5t21 265.5v834h80zM660 27v731h-328v-117q0 -153 21 -265.5t62.5 -187.5 t103 -114.5t141.5 -46.5zM957 1298v-200h-80v200h80zM957 898v-200h-80v200h80zM957 498v-200h-80v200h80zM954 1658l-30 -68q-54 42 -116.5 60t-116.5 18q-55 0 -109 -18t-108 -60l-30 68q128 90 247 90q132 0 263 -90z" />
<glyph unicode="&#xa08d;" vert-adv-y="2191" d="M1147 1475v-834q0 -180 -27.5 -311.5t-83.5 -217t-140 -126.5t-196 -41q-113 0 -197 41t-139.5 126.5t-83.5 217t-28 311.5v834h80v-637h328v637h80v-1448q80 7 141 46.5t102.5 114.5t62.5 187.5t21 265.5v834h80zM660 27v731h-328v-117q0 -153 21 -265.5t62.5 -187.5 t103 -114.5t141.5 -46.5zM957 1298v-200h-80v200h80zM957 898v-200h-80v200h80zM957 498v-200h-80v200h80z" />
<glyph unicode="&#xa08e;" vert-adv-y="2191" d="M1230 1304l-47 -63l-242 160v-1155h-20l-535 205v-451h-80v557h20l535 -202v1175h20zM762 1430q-176 -47 -176 -180q0 -50 46 -89t144 -67v-63q-99 -21 -144.5 -64.5t-45.5 -111.5q0 -138 190 -177v-79q-137 29 -203 93.5t-67 164.5q0 66 30.5 116.5t96.5 87.5 q-66 38 -96.5 88.5t-30.5 116.5q0 168 239 244zM440 1057q0 -67 -52 -153t-171 -195l-47 66q103 99 146.5 170t43.5 112q0 76 -44 147t-132 146l49 64q110 -104 158 -192.5t49 -164.5z" />
<glyph unicode="&#xa08f;" vert-adv-y="2191" d="M740 0h-80v626l-339 -526h-60v1275h56l343 -547v702h80v-702l343 547h56v-1275h-60l-339 523v-623zM1059 1188l-269 -424h269v424zM341 764h268l-268 424v-424zM1059 286v398h-267zM341 286l267 398h-267v-398zM954 1658l-30 -68q-54 42 -116.5 60t-116.5 18 q-55 0 -109 -18t-108 -60l-30 68q128 90 247 90q132 0 263 -90z" />
<glyph unicode="&#xa090;" vert-adv-y="2191" d="M740 0h-80v626l-339 -526h-60v1275h56l343 -547v702h80v-702l343 547h56v-1275h-60l-339 523v-623zM1059 1188l-269 -424h269v424zM341 764h268l-268 424v-424zM1059 286v398h-267zM341 286l267 398h-267v-398z" />
<glyph unicode="&#xa091;" vert-adv-y="2191" d="M1227 1159l-42 -63l-388 285v-1436h-20l-529 383l44 69l425 -311v1444h20zM448 980v-400h-80v400h80zM1117 980v-400h-80v400h80z" />
<glyph unicode="&#xa092;" vert-adv-y="2191" d="M731 0h-80v438q-56 -9 -109.5 -40.5t-99 -84t-79.5 -124t-52 -159.5h-82q22 106 64.5 191.5t98.5 148t122.5 99.5t136.5 48v182h-375v80h375v179q-70 10 -136.5 47.5t-122.5 99.5t-98.5 147.5t-64.5 192.5h82q18 -88 52 -159.5t79.5 -124t99 -84t109.5 -40.5v438h80v-438 q55 9 110.5 40.5t104 84t86.5 124t58 159.5h80q-25 -107 -70 -194.5t-103.5 -151t-126.5 -100.5t-139 -44v-176h375v-80h-375v-180q71 -6 139 -43.5t126.5 -100.5t103.5 -150.5t70 -194.5h-80q-20 88 -58 159t-86.5 123.5t-104 84.5t-110.5 41v-438zM954 1658l-30 -68 q-54 42 -116.5 60t-116.5 18q-55 0 -109 -18t-108 -60l-30 68q128 90 247 90q132 0 263 -90z" />
<glyph unicode="&#xa093;" vert-adv-y="2191" d="M731 0h-80v438q-56 -9 -109.5 -40.5t-99 -84t-79.5 -124t-52 -159.5h-82q22 106 64.5 191.5t98.5 148t122.5 99.5t136.5 48v182h-375v80h375v179q-70 10 -136.5 47.5t-122.5 99.5t-98.5 147.5t-64.5 192.5h82q18 -88 52 -159.5t79.5 -124t99 -84t109.5 -40.5v438h80v-438 q55 9 110.5 40.5t104 84t86.5 124t58 159.5h80q-25 -107 -70 -194.5t-103.5 -151t-126.5 -100.5t-139 -44v-176h375v-80h-375v-180q71 -6 139 -43.5t126.5 -100.5t103.5 -150.5t70 -194.5h-80q-20 88 -58 159t-86.5 123.5t-104 84.5t-110.5 41v-438z" />
<glyph unicode="&#xa094;" vert-adv-y="2191" d="M1184 736q0 -188 -32.5 -335t-94.5 -248t-152 -154.5t-205 -53.5t-205 53.5t-152 154.5t-94.5 248t-32.5 335q0 187 32.5 334.5t95 249.5t152.5 156t204 54q115 0 204.5 -54t151.5 -156t95 -249.5t33 -334.5zM700 473q-50 0 -87.5 21.5t-63.5 58.5l-191 -240 q24 -66 57 -119.5t75.5 -91t95 -57.5t114.5 -20t114 20t94.5 57.5t75.5 91t57 119.5l-191 240q-26 -36 -63 -58t-87 -22zM497 736q0 45 10.5 87.5t31 77.5t51 59.5t70.5 33.5v453q-93 -11 -161.5 -70t-113.5 -154t-67 -220t-22 -267q0 -91 8.5 -174t26.5 -157l181 227 q-15 49 -15 104zM1104 736q0 142 -22 267t-67 220t-113.5 154t-161.5 70v-453q40 -9 70.5 -33.5t51 -60t31 -78t10.5 -87.5q0 -55 -15 -103l181 -227q35 149 35 331zM823 735q0 35 -7 68.5t-21.5 59t-38 41t-56.5 15.5t-56.5 -15.5t-38 -41t-21.5 -58.5t-7 -68t7 -68 t21.5 -58.5t38 -41t56.5 -15.5t56.5 15.5t38 41t21.5 58t7 67.5z" />
<glyph unicode="&#xa095;" vert-adv-y="2191" d="M1213 1445q-13 -138 -51.5 -247t-99.5 -187t-142.5 -122.5t-179.5 -52.5v-611q0 -134 -57.5 -207t-175.5 -73q-62 0 -107 19t-79.5 53t-61.5 81t-51 103l71 44q12 -32 29.5 -70.5t44 -71.5t64 -55.5t90.5 -22.5q34 0 62 12t48 37t31.5 62.5t11.5 88.5v611q-101 6 -181 43 t-140 110.5t-99.5 186t-58.5 269.5h79q16 -147 51 -246.5t86 -160.5t117.5 -89t145.5 -33v559h80v-558q75 7 141.5 42t119.5 100t89 161t50 225h73zM960 1420v-300h-80v300h80zM520 1420v-300h-80v300h80zM954 1658l-30 -68q-54 42 -116.5 60t-116.5 18q-55 0 -109 -18 t-108 -60l-30 68q128 90 247 90q132 0 263 -90z" />
<glyph unicode="&#xa096;" vert-adv-y="2191" d="M1213 1445q-13 -138 -51.5 -247t-99.5 -187t-142.5 -122.5t-179.5 -52.5v-611q0 -134 -57.5 -207t-175.5 -73q-62 0 -107 19t-79.5 53t-61.5 81t-51 103l71 44q12 -32 29.5 -70.5t44 -71.5t64 -55.5t90.5 -22.5q34 0 62 12t48 37t31.5 62.5t11.5 88.5v611q-101 6 -181 43 t-140 110.5t-99.5 186t-58.5 269.5h79q16 -147 51 -246.5t86 -160.5t117.5 -89t145.5 -33v559h80v-558q75 7 141.5 42t119.5 100t89 161t50 225h73zM960 1420v-300h-80v300h80zM520 1420v-300h-80v300h80z" />
<glyph unicode="&#xa097;" vert-adv-y="2191" d="M1124 1530v-505h-20l-364 172v-1197h-80v1320h20l364 -174v384h80zM1124 793v-530h-80v530h80zM356 793v-530h-80v530h80z" />
<glyph unicode="&#xa098;" vert-adv-y="2191" d="M1074 1243l-39 -69l-388 227v-525q95 -19 162.5 -46.5t113.5 -65.5t73.5 -88t42 -114t19 -143t4.5 -175h-79q0 109 -6.5 199t-38.5 158.5t-100 116t-191 72.5v-845h-20l-490 295l40 65l390 -234v1459h20zM1218 592l30 -198l-80 -12l-30 198zM762 1034l189 -66l-27 -76 l-189 66zM1063 889l119 -161l-65 -47l-119 161z" />
<glyph unicode="&#xa099;" vert-adv-y="2191" d="M928 1475v-761q56 -15 101.5 -50t78 -84.5t50 -112t17.5 -132.5q0 -83 -24 -154t-67.5 -123.5t-105 -82.5t-135.5 -30t-134.5 30t-103.5 82.5t-66.5 123.5t-23.5 154q0 73 18.5 137t52.5 114.5t82.5 84.5t108.5 47l-472 383v-855h-80v1022h44l579 -491v698h80zM1095 335 q0 59 -19 115t-52 99.5t-79 69.5t-100 26q-62 0 -109 -26t-78.5 -69.5t-47 -99.5t-15.5 -115q0 -58 15 -114t46 -99.5t78 -70t111 -26.5q54 0 99.5 26t79 69.5t52.5 99t19 115.5zM955 1658l-30 -68q-54 42 -116.5 60t-116.5 18q-55 0 -109 -18t-108 -60l-30 68 q128 90 247 90q132 0 263 -90z" />
<glyph unicode="&#xa09a;" vert-adv-y="2191" d="M928 1475v-761q56 -15 101.5 -50t78 -84.5t50 -112t17.5 -132.5q0 -83 -24 -154t-67.5 -123.5t-105 -82.5t-135.5 -30t-134.5 30t-103.5 82.5t-66.5 123.5t-23.5 154q0 73 18.5 137t52.5 114.5t82.5 84.5t108.5 47l-472 383v-855h-80v1022h44l579 -491v698h80zM1095 335 q0 59 -19 115t-52 99.5t-79 69.5t-100 26q-62 0 -109 -26t-78.5 -69.5t-47 -99.5t-15.5 -115q0 -58 15 -114t46 -99.5t78 -70t111 -26.5q54 0 99.5 26t79 69.5t52.5 99t19 115.5z" />
<glyph unicode="&#xa09b;" vert-adv-y="2191" d="M1220 1241l-47 -64l-289 224v-1401h-80v764h-178q-5 -83 -30.5 -164t-70 -152.5t-107.5 -129.5t-143 -95l-33 80q70 29 124.5 77.5t92.5 109.5t60 131t27 143h-367v80h367q-5 72 -27 142.5t-60 131.5t-92.5 109.5t-124.5 78.5l33 80q80 -37 143 -95.5t107.5 -130 t70 -152.5t30.5 -164h178v686h23z" />
<glyph unicode="&#xa09c;" vert-adv-y="2191" d="M1235 1285l-399 -416v-672h-26l-470 273v-470h-80v597h27l469 -273v1151h80v-493l336 352zM533 1435v-489q0 -31 -10.5 -55t-28 -40.5t-39 -25t-43.5 -8.5q-33 0 -59 9.5t-53.5 29.5t-59.5 52.5t-76 78.5l49 63q73 -75 116 -114t70 -39q29 0 41.5 20t12.5 43v475h80z M954 1658l-30 -68q-54 42 -116.5 60t-116.5 18q-55 0 -109 -18t-108 -60l-30 68q128 90 247 90q132 0 263 -90z" />
<glyph unicode="&#xa09d;" vert-adv-y="2191" d="M1235 1285l-399 -416v-672h-26l-470 273v-470h-80v597h27l469 -273v1151h80v-493l336 352zM533 1435v-489q0 -31 -10.5 -55t-28 -40.5t-39 -25t-43.5 -8.5q-33 0 -59 9.5t-53.5 29.5t-59.5 52.5t-76 78.5l49 63q73 -75 116 -114t70 -39q29 0 41.5 20t12.5 43v475h80z" />
<glyph unicode="&#xa09e;" vert-adv-y="2191" d="M1149 1231l-40 -72l-377 248v-444l417 -267l-40 -72l-377 248v-672h-19l-383 207v-407h-79v536h16l385 -209v1203h20zM331 1414v-607h-80v607h80z" />
<glyph unicode="&#xa09f;" vert-adv-y="2191" d="M1278 1257l-33 -80l-319 207v-1384q-185 0 -333.5 35t-253.5 99.5t-161.5 156.5t-56.5 206q0 116 52 212t147 167t228.5 114t297.5 53v487h20zM846 953q-145 -7 -264 -42.5t-203.5 -94t-131 -136.5t-46.5 -170q0 -95 48 -170.5t133.5 -129.5t204 -85t259.5 -37v865z M780 512q0 -49 -13 -96t-38.5 -84t-63.5 -59.5t-88 -22.5t-88 22.5t-63.5 59t-38.5 84t-13 97.5t13 97.5t38.5 84t63.5 59t88 22.5t88 -22.5t63.5 -59.5t38.5 -84.5t13 -97.5zM700 512q0 35 -7 68.5t-21.5 59t-38 41t-56.5 15.5t-56.5 -15.5t-38 -41t-21.5 -58.5t-7 -68 t7 -68t21.5 -58.5t38 -41t56.5 -15.5t56.5 15.5t38 41t21.5 58t7 67.5z" />
<glyph unicode="&#xa0a0;" vert-adv-y="2191" d="M1221 1258l-47 -66l-306 209v-620q73 -57 151 -133.5t171 -170.5l-49 -63q-50 54 -117.5 121.5t-155.5 148.5v-684q-147 0 -273 29.5t-218.5 92.5t-145.5 161.5t-53 236.5q0 86 27.5 158.5t75.5 125t112 81.5t138 29q60 0 124 -20.5t133 -61.5v698h20zM788 733 q-72 50 -136.5 75.5t-120.5 25.5q-50 0 -99 -20.5t-87.5 -60t-62.5 -97.5t-24 -133q0 -108 43 -188.5t115.5 -134.5t168.5 -83.5t203 -36.5v653zM604 577v-300h-80v300h80zM452 1362v-300h-80v300h80zM1140 1067v-300h-80v300h80zM953 1658l-30 -68q-54 42 -116.5 60 t-116.5 18q-55 0 -109 -18t-108 -60l-30 68q128 90 247 90q132 0 263 -90z" />
<glyph unicode="&#xa0a1;" vert-adv-y="2191" d="M1221 1258l-47 -66l-306 209v-620q73 -57 151 -133.5t171 -170.5l-49 -63q-50 54 -117.5 121.5t-155.5 148.5v-684q-147 0 -273 29.5t-218.5 92.5t-145.5 161.5t-53 236.5q0 86 27.5 158.5t75.5 125t112 81.5t138 29q60 0 124 -20.5t133 -61.5v698h20zM788 733 q-72 50 -136.5 75.5t-120.5 25.5q-50 0 -99 -20.5t-87.5 -60t-62.5 -97.5t-24 -133q0 -108 43 -188.5t115.5 -134.5t168.5 -83.5t203 -36.5v653zM604 577v-300h-80v300h80zM452 1362v-300h-80v300h80zM1140 1067v-300h-80v300h80z" />
<glyph unicode="&#xa0a2;" vert-adv-y="2191" d="M1140 1241l-71 -40q-26 53 -64 98.5t-84 79t-99 52.5t-109 19q-68 0 -126.5 -21t-102 -61t-68 -97t-24.5 -130q0 -58 27 -108t76 -94t117.5 -83.5t150.5 -76.5q83 -39 154.5 -81.5t124.5 -92.5t83.5 -110t30.5 -136q0 -96 -39 -172.5t-101 -130.5t-139 -82.5t-153 -28.5 q-79 0 -148 21.5t-129 61.5t-110.5 96.5t-93.5 127.5l57 47q97 -130 199.5 -202t208.5 -72q70 0 136 24.5t117.5 68.5t83 105.5t31.5 135.5q0 49 -29 97.5t-77.5 92.5t-112 82.5t-133.5 67.5q-82 37 -156.5 77.5t-131.5 93.5t-90.5 122.5t-33.5 164.5q0 78 28.5 146.5 t81 118.5t127.5 79t167 29q130 0 236 -74t188 -215zM912 355q0 -49 -13 -96t-38.5 -84t-63.5 -59.5t-88 -22.5t-88 22.5t-63.5 59t-38.5 84t-13 97.5t13 97.5t38.5 84t63.5 59t88 22.5t88 -22.5t63.5 -59.5t38.5 -84.5t13 -97.5zM832 355q0 35 -7 68.5t-21.5 59t-38 41 t-56.5 15.5t-56.5 -15.5t-38 -41t-21.5 -58.5t-7 -68t7 -68t21.5 -58.5t38 -41t56.5 -15.5t56.5 15.5t38 41t21.5 58t7 67.5z" />
<glyph unicode="&#xa0a3;" vert-adv-y="2191" d="M1130 20v-20h-860v20l384 718l-384 717v20h860v-20l-386 -717zM391 80h616l-308 574zM699 822l308 573h-614zM1203 1031v-560h-80v560h80z" />
<glyph unicode="&#xa0a4;" vert-adv-y="2191" d="M1146 1475v-1530h-20l-608 351l40 72l508 -300v1407h80zM733 780v-300h-80v300h80zM733 1415v-300h-80v300h80zM333 780v-300h-80v300h80zM333 1415v-300h-80v300h80zM954 1658l-30 -68q-54 42 -116.5 60t-116.5 18q-55 0 -109 -18t-108 -60l-30 68q128 90 247 90 q132 0 263 -90z" />
<glyph unicode="&#xa0a5;" vert-adv-y="2191" d="M1146 1475v-1530h-20l-608 351l40 72l508 -300v1407h80zM733 780v-300h-80v300h80zM733 1415v-300h-80v300h80zM333 780v-300h-80v300h80zM333 1415v-300h-80v300h80z" />
<glyph unicode="&#xa0a6;" vert-adv-y="2191" d="M1184 736q0 -188 -32.5 -335t-94.5 -248t-152 -154.5t-205 -53.5t-205 53.5t-152 154.5t-94.5 248t-32.5 335q0 187 32.5 334.5t95 249.5t152.5 156t204 54q115 0 204.5 -54t151.5 -156t95 -249.5t33 -334.5zM1104 736q0 142 -22 267t-67 220t-113.5 154t-161.5 70v-1420 q93 11 161.5 69.5t113.5 153t67 219t22 267.5zM296 736q0 -143 22 -267.5t67 -219t113.5 -153t161.5 -69.5v1420q-93 -11 -161.5 -70t-113.5 -154t-67 -220t-22 -267zM940 615v-300h-80v300h80zM540 1160v-300h-80v300h80zM940 1160v-300h-80v300h80zM540 615v-300h-80v300 h80z" />
<glyph unicode="&#xa0a7;" vert-adv-y="2191" d="M1220 1475q-13 -144 -56 -257.5t-110.5 -192t-157.5 -119.5t-196 -41q-110 0 -197 33.5t-152.5 107t-108 189t-62.5 280.5h80q17 -156 55.5 -258.5t95 -163t129.5 -84.5t160 -24q81 0 155 31t132.5 96t98.5 165t54 238h80zM740 1440v-300h-80v300h80zM1025 560v-560h-80 v560h80zM455 560v-560h-80v560h80zM953 1658l-30 -68q-54 42 -116.5 60t-116.5 18q-55 0 -109 -18t-108 -60l-30 68q128 90 247 90q132 0 263 -90z" />
<glyph unicode="&#xa0a8;" vert-adv-y="2191" d="M1220 1475q-13 -144 -56 -257.5t-110.5 -192t-157.5 -119.5t-196 -41q-110 0 -197 33.5t-152.5 107t-108 189t-62.5 280.5h80q17 -156 55.5 -258.5t95 -163t129.5 -84.5t160 -24q81 0 155 31t132.5 96t98.5 165t54 238h80zM740 1440v-300h-80v300h80zM1025 560v-560h-80 v560h80zM455 560v-560h-80v560h80z" />
<glyph unicode="&#xa0a9;" vert-adv-y="2191" d="M725 1475v-671q205 -10 317 -149.5t129 -410.5h-80q-11 234 -103 353t-263 127v-779h-20l-477 299l40 72l377 -248v1407h80zM342 1275v-580h-80v580h80zM1107 1434v-580h-80v580h80zM953 1658l-30 -68q-54 42 -116.5 60t-116.5 18q-55 0 -109 -18t-108 -60l-30 68 q128 90 247 90q132 0 263 -90z" />
<glyph unicode="&#xa0aa;" vert-adv-y="2191" d="M725 1475v-671q205 -10 317 -149.5t129 -410.5h-80q-11 234 -103 353t-263 127v-779h-20l-477 299l40 72l377 -248v1407h80zM342 1275v-580h-80v580h80zM1107 1434v-580h-80v580h80z" />
<glyph unicode="&#xa0ab;" vert-adv-y="2191" d="M1101 1475v-1262h-20l-590 198v-411h-80v525h20l590 -200v1150h80zM747 855v-200h-80v200h80zM378 855v-200h-80v200h80zM747 1165v-200h-80v200h80zM378 1475v-200h-80v200h80zM747 1475v-200h-80v200h80zM378 1165v-200h-80v200h80z" />
<glyph unicode="&#xa0ac;" vert-adv-y="2191" d="M1219 460q-12 -112 -31 -206.5t-49.5 -163t-77 -107t-114.5 -38.5q-91 0 -152 64t-98 207q-15 -72 -39.5 -123t-56 -84t-68 -48.5t-75.5 -15.5q-60 0 -103.5 26t-75.5 86t-55 158.5t-43 244.5h80q15 -114 32 -196.5t39.5 -135.5t53.5 -78t75 -25q39 0 71 24t57.5 76.5 t44 135t30.5 199.5v241q-104 6 -178.5 42t-122.5 92t-71 128.5t-23 151.5q0 83 25 158t78 132t135.5 91t196.5 34t196.5 -34t135.5 -91t78 -132.5t25 -158.5q0 -79 -23 -151t-71 -128.5t-123 -92t-178 -41.5l-1 -273q12 -101 28.5 -176.5t41 -126t59.5 -75.5t85 -25 q40 0 70.5 36t52.5 96.5t36.5 139t22.5 163.5h80zM664 781v294h-313q5 -54 25 -104.5t57.5 -91t94.5 -66.5t136 -32zM351 1155h313v294q-79 -6 -136 -32.5t-94.5 -66.5t-57.5 -90.5t-25 -104.5zM1057 1075h-313v-294q79 6 136 32.5t94.5 67t57.5 91t25 103.5zM744 1448v-293 h313q-5 54 -25 104t-58 90.5t-94.5 66.5t-135.5 32zM501 628v-300h-80v300h80zM997 628v-300h-80v300h80zM955 1658l-30 -68q-54 42 -116.5 60t-116.5 18q-55 0 -109 -18t-108 -60l-30 68q128 90 247 90q132 0 263 -90z" />
<glyph unicode="&#xa0ad;" vert-adv-y="2191" d="M1219 460q-12 -112 -31 -206.5t-49.5 -163t-77 -107t-114.5 -38.5q-91 0 -152 64t-98 207q-15 -72 -39.5 -123t-56 -84t-68 -48.5t-75.5 -15.5q-60 0 -103.5 26t-75.5 86t-55 158.5t-43 244.5h80q15 -114 32 -196.5t39.5 -135.5t53.5 -78t75 -25q39 0 71 24t57.5 76.5 t44 135t30.5 199.5v241q-104 6 -178.5 42t-122.5 92t-71 128.5t-23 151.5q0 83 25 158t78 132t135.5 91t196.5 34t196.5 -34t135.5 -91t78 -132.5t25 -158.5q0 -79 -23 -151t-71 -128.5t-123 -92t-178 -41.5l-1 -273q12 -101 28.5 -176.5t41 -126t59.5 -75.5t85 -25 q40 0 70.5 36t52.5 96.5t36.5 139t22.5 163.5h80zM664 781v294h-313q5 -54 25 -104.5t57.5 -91t94.5 -66.5t136 -32zM351 1155h313v294q-79 -6 -136 -32.5t-94.5 -66.5t-57.5 -90.5t-25 -104.5zM1057 1075h-313v-294q79 6 136 32.5t94.5 67t57.5 91t25 103.5zM744 1448v-293 h313q-5 54 -25 104t-58 90.5t-94.5 66.5t-135.5 32zM501 628v-300h-80v300h80zM997 628v-300h-80v300h80z" />
<glyph unicode="&#xa0ae;" vert-adv-y="2191" d="M1184 736q0 -188 -32.5 -335t-94.5 -248t-152 -154.5t-205 -53.5t-205 53.5t-152 154.5t-94.5 248t-32.5 335q0 187 32.5 334.5t95 249.5t152.5 156t204 54q115 0 204.5 -54t151.5 -156t95 -249.5t33 -334.5zM1104 736q0 150 -24.5 280.5t-74 226.5t-126 151.5 t-179.5 55.5q-104 0 -180 -55.5t-125.5 -151.5t-74 -226.5t-24.5 -280.5t24.5 -280t74 -225.5t125.5 -150.5t180 -55q103 0 179.5 55t126 150.5t74 225.5t24.5 280zM954 587v-80h-500v80h210v53q0 94 -4.5 176t-17 143t-35 96t-59.5 35q-60 0 -88 -144l-68 17 q16 97 51.5 152t104.5 55q60 0 97.5 -42t58.5 -106q10 32 24.5 59t33.5 47t43.5 31t54.5 11q34 0 60 -14t44.5 -41t31 -65.5t20.5 -86.5l-68 -17q-29 144 -88 144q-37 0 -59.5 -35t-35 -96t-17 -143t-4.5 -176v-53h210zM854 371v-80h-300v80h300z" />
<glyph unicode="&#xa0af;" vert-adv-y="2191" d="M1142 1475v-523h-20l-556 260v-648l607 314l37 -71l-608 -315l608 -314l-37 -71l-607 314v-476h-20l-357 289l51 69l246 -203v1235h20l556 -266v406h80zM954 1658l-30 -68q-54 42 -116.5 60t-116.5 18q-55 0 -109 -18t-108 -60l-30 68q128 90 247 90q132 0 263 -90z" />
<glyph unicode="&#xa0b0;" vert-adv-y="2191" d="M1142 1475v-523h-20l-556 260v-648l607 314l37 -71l-608 -315l608 -314l-37 -71l-607 314v-476h-20l-357 289l51 69l246 -203v1235h20l556 -266v406h80z" />
<glyph unicode="&#xa0b1;" vert-adv-y="2191" d="M1180 793h-472v-217h472v-80h-472v-551h-20l-469 256l33 82l376 -213v426h-398v80h398v217h-398v80h398v517h20l402 -233v373h80v-493h-20l-402 227v-391h472v-80z" />
<glyph unicode="&#xa0b2;" vert-adv-y="2191" d="M1184 736q0 -188 -32.5 -335t-94.5 -248t-152 -154.5t-205 -53.5t-205 53.5t-152 154.5t-94.5 248t-32.5 335q0 187 32.5 334.5t95 249.5t152.5 156t204 54q115 0 204.5 -54t151.5 -156t95 -249.5t33 -334.5zM296 736q0 -177 33.5 -323.5t102.5 -243.5l232 568l-236 563 q-67 -98 -99.5 -244t-32.5 -320zM1104 736q0 172 -31.5 316t-97.5 242l-233 -557l229 -563q34 48 59 109.5t41.5 133t24.5 152t8 167.5zM700 25q68 0 123.5 23.5t100.5 68.5l-221 527l-223 -532q45 -42 99.5 -64.5t120.5 -22.5zM700 1450q-65 0 -118 -21.5t-97 -62.5 l218 -534l216 530q-44 42 -98.5 65t-120.5 23zM1003 886v-300h-80v300h80zM955 1658l-30 -68q-54 42 -116.5 60t-116.5 18q-55 0 -109 -18t-108 -60l-30 68q128 90 247 90q132 0 263 -90z" />
<glyph unicode="&#xa0b3;" vert-adv-y="2191" d="M1184 736q0 -188 -32.5 -335t-94.5 -248t-152 -154.5t-205 -53.5t-205 53.5t-152 154.5t-94.5 248t-32.5 335q0 187 32.5 334.5t95 249.5t152.5 156t204 54q115 0 204.5 -54t151.5 -156t95 -249.5t33 -334.5zM296 736q0 -177 33.5 -323.5t102.5 -243.5l232 568l-236 563 q-67 -98 -99.5 -244t-32.5 -320zM1104 736q0 172 -31.5 316t-97.5 242l-233 -557l229 -563q34 48 59 109.5t41.5 133t24.5 152t8 167.5zM700 25q68 0 123.5 23.5t100.5 68.5l-221 527l-223 -532q45 -42 99.5 -64.5t120.5 -22.5zM700 1450q-65 0 -118 -21.5t-97 -62.5 l218 -534l216 530q-44 42 -98.5 65t-120.5 23zM1003 886v-300h-80v300h80z" />
<glyph unicode="&#xa0b4;" vert-adv-y="2191" d="M1156 1475v-513h-20l-398 260v-1277h-20l-470 257l51 69l359 -201v1285h20l398 -266v386h80zM363 806v-400h-80v400h80zM1155 806v-400h-80v400h80z" />
<glyph unicode="&#xa0b5;" vert-adv-y="2191" d="M595 0h-80v637h-235v-637h-80v1530h20l610 -355v355h20l350 -279l-46 -60l-244 193v-1384h-80v637h-235v-637zM280 717h235v550l-235 140v-690zM595 717h235v363l-235 140v-503z" />
<glyph unicode="&#xa0b6;" vert-adv-y="2191" d="M1284 696h-160q-3 -179 -34.5 -318.5t-87 -235.5t-132.5 -146.5t-170 -50.5t-170 50.5t-132.5 146.5t-87 235.5t-34.5 318.5h-160v80h160q4 178 35.5 318t87 237t132 148t169.5 51t169.5 -51t132 -148t87 -237t34.5 -318h161v-80zM700 1450q-82 0 -145 -51.5t-106 -142.5 t-66.5 -214t-26.5 -266h687q-3 143 -26 266t-66.5 214t-106 142.5t-144.5 51.5zM700 25q82 0 144.5 51.5t106 141.5t66.5 212.5t26 265.5h-687q3 -143 26.5 -265.5t66.5 -212.5t106 -141.5t145 -51.5zM954 1658l-30 -68q-54 42 -116.5 60t-116.5 18q-55 0 -109 -18t-108 -60 l-30 68q128 90 247 90q132 0 263 -90z" />
<glyph unicode="&#xa0b7;" vert-adv-y="2191" d="M1284 696h-160q-3 -179 -34.5 -318.5t-87 -235.5t-132.5 -146.5t-170 -50.5t-170 50.5t-132.5 146.5t-87 235.5t-34.5 318.5h-160v80h160q4 178 35.5 318t87 237t132 148t169.5 51t169.5 -51t132 -148t87 -237t34.5 -318h161v-80zM700 1450q-82 0 -145 -51.5t-106 -142.5 t-66.5 -214t-26.5 -266h687q-3 143 -26 266t-66.5 214t-106 142.5t-144.5 51.5zM700 25q82 0 144.5 51.5t106 141.5t66.5 212.5t26 265.5h-687q3 -143 26.5 -265.5t66.5 -212.5t106 -141.5t145 -51.5z" />
<glyph unicode="&#xa0b8;" vert-adv-y="2191" d="M1188 1475q0 -94 -3 -182t-12 -165t-27 -141t-47 -110t-72 -71.5t-103 -25.5q-47 0 -83 15.5t-63 44t-46.5 68.5t-32.5 90q-13 -50 -32 -90t-46 -68.5t-63 -44t-82 -15.5q-60 0 -103 25.5t-72 71.5t-47 110t-27 141t-12 165t-3 182h80q0 -144 7.5 -258.5t28 -193.5 t56.5 -121t92 -42q55 0 90 40.5t56 118.5t29 192.5t9 263.5h80q0 -144 7.5 -258.5t28 -193.5t56.5 -121t92 -42t92 42t56.5 121t28 193.5t7.5 258.5h80zM1011 598v-80h-272v-181h272v-80h-272v-257h-80v257h-272v80h272v181h-272v80h272v223h80v-223h272z" />
<glyph unicode="&#xa0b9;" vert-adv-y="2191" d="M1147 1475v-834q0 -180 -27.5 -311.5t-83.5 -217t-140 -126.5t-196 -41q-113 0 -197 41t-139.5 126.5t-83.5 217t-28 311.5v834h80v-834q0 -162 23.5 -278.5t70 -191.5t115.5 -110.5t159 -35.5t158.5 35.5t115 110.5t70 191.5t23.5 278.5v834h80zM601 1393l243 -176 l-47 -64l-243 176zM601 997l243 -176l-47 -64l-243 176zM601 586l243 -176l-47 -64l-243 176z" />
<glyph unicode="&#xa0ba;" vert-adv-y="2191" d="M1229 1273l-50 -75l-314 196v-330l364 -226l-50 -75l-315 197v-331l365 -226l-50 -75l-314 196l-1 -579h-21l-424 257l50 75l314 -196v1449h22zM697 1109l-47 -64l-176 147v-798h-19l-284 222l47 64l176 -147v798h13zM954 1658l-30 -68q-54 42 -116.5 60t-116.5 18 q-55 0 -109 -18t-108 -60l-30 68q128 90 247 90q132 0 263 -90z" />
<glyph unicode="&#xa0bb;" vert-adv-y="2191" d="M1229 1273l-50 -75l-314 196v-330l364 -226l-50 -75l-315 197v-331l365 -226l-50 -75l-314 196l-1 -579h-21l-424 257l50 75l314 -196v1449h22zM697 1109l-47 -64l-176 147v-798h-19l-284 222l47 64l176 -147v798h13z" />
<glyph unicode="&#xa0bc;" vert-adv-y="2191" d="M619 890h-133v-287h133v-80h-134v-578h-21l-357 242l50 75l247 -181v442h-132v80h133v287h-133v80h134v560h22l308 -209q34 107 94.5 153t157.5 46q89 0 148 -39.5t93.5 -130t48.5 -237t14 -359.5q0 -207 -14.5 -348t-49.5 -228t-93.5 -125t-146.5 -38q-89 0 -147.5 38.5 t-93.5 127t-49 232t-14 353.5q0 149 7 262.5t23 199.5l-226 166v-424h131v-80zM1212 766q0 150 -6 274t-28.5 213t-67.5 138t-122 49t-122 -49t-67.5 -138t-28.5 -213t-6 -274q0 -173 6 -299t28.5 -209t67.5 -123t122 -40t122 40t67.5 123t28.5 209t6 299zM1030 946v-380 h-80v380h80z" />
<glyph unicode="&#xa0bd;" vert-adv-y="2191" d="M1293 1257l-33 -80l-319 207v-1384q-185 0 -322.5 33t-229.5 96t-137.5 153.5t-45.5 204.5q0 232 164 364t491 152v527h20zM861 913q-290 -14 -432.5 -121.5t-142.5 -291.5q0 -190 145.5 -295t429.5 -117v825zM668 702v-400h-80v400h80z" />
<glyph unicode="&#xa0be;" vert-adv-y="2191" d="M954 1658l-30 -68q-54 42 -116.5 60t-116.5 18q-55 0 -109 -18t-108 -60l-30 68q128 90 247 90q132 0 263 -90zM1213 0h-73q-13 127 -48.5 222.5t-87 160t-117 100t-138.5 44.5v-527h-80v529q-81 -4 -149 -31t-120.5 -88t-88 -161t-51.5 -249h-79q19 159 59 272 t101 186.5t143 109.5t185 41v921h20l515 -303l-40 -72l-415 252v-277q177 -11 266 -59.5t89 -137.5q0 -91 -89.5 -146t-265.5 -72v-108q96 -9 176 -54t140 -122.5t98 -186t50 -244.5zM1024 933q-3 51 -73 79t-202 38v-255q275 25 275 138z" />
<glyph unicode="&#xa0bf;" vert-adv-y="2191" d="M1213 0h-73q-13 127 -48.5 222.5t-87 160t-117 100t-138.5 44.5v-527h-80v529q-81 -4 -149 -31t-120.5 -88t-88 -161t-51.5 -249h-79q19 159 59 272t101 186.5t143 109.5t185 41v921h20l515 -303l-40 -72l-415 252v-277q177 -11 266 -59.5t89 -137.5q0 -91 -89.5 -146 t-265.5 -72v-108q96 -9 176 -54t140 -122.5t98 -186t50 -244.5zM1024 933q-3 51 -73 79t-202 38v-255q275 25 275 138z" />
<glyph unicode="&#xa0c0;" vert-adv-y="2191" d="M1124 1110v-780q0 -79 -33.5 -116.5t-95.5 -37.5q-15 0 -26 1t-23 4.5t-28.5 10.5t-41.5 18l-467 211v-421h-80v538h20l552 -253q19 -9 41.5 -17t36.5 -8q34 0 48.5 19.5t16.5 67.5v763q0 73 -16 135.5t-50.5 108t-88 71t-129.5 25.5q-65 0 -122 -17t-109 -52.5t-100 -90 t-95 -129.5l-58 47q42 75 93.5 134.5t112.5 101t130.5 64t147.5 22.5q83 0 150 -24.5t114.5 -75.5t73.5 -130.5t26 -189.5z" />
<glyph unicode="&#xa0c1;" vert-adv-y="2191" d="M1221 930q0 -195 -53.5 -292.5t-159.5 -97.5q-109 0 -162 86t-57 264h-175v-945h-20l-415 287l47 64l308 -218v812h-320v80h320v505h80v-505h175q9 178 63 264t154 86q109 0 162 -100t53 -290zM1141 930q-2 155 -37 232.5t-101 77.5q-65 0 -99.5 -77.5t-34.5 -232.5 q0 -86 9 -145t26.5 -96t43.5 -53t60 -16q33 0 58 21.5t41.5 62t25 97.5t8.5 129zM954 1658l-30 -68q-54 42 -116.5 60t-116.5 18q-55 0 -109 -18t-108 -60l-30 68q128 90 247 90q132 0 263 -90z" />
<glyph unicode="&#xa0c2;" vert-adv-y="2191" d="M1221 930q0 -195 -53.5 -292.5t-159.5 -97.5q-109 0 -162 86t-57 264h-175v-945h-20l-415 287l47 64l308 -218v812h-320v80h320v505h80v-505h175q9 178 63 264t154 86q109 0 162 -100t53 -290zM1141 930q-2 155 -37 232.5t-101 77.5q-65 0 -99.5 -77.5t-34.5 -232.5 q0 -86 9 -145t26.5 -96t43.5 -53t60 -16q33 0 58 21.5t41.5 62t25 97.5t8.5 129z" />
<glyph unicode="&#xa0c3;" vert-adv-y="2191" d="M816 1475v-609h38q58 7 108.5 28.5t88 53.5t59 72t21.5 85q0 73 -56 133t-153 114l47 73q117 -70 179.5 -148t62.5 -172q0 -48 -14.5 -90t-41 -77.5t-63 -63.5t-80.5 -48q44 -20 80.5 -48.5t63 -64t41 -77.5t14.5 -89q0 -94 -62.5 -172t-179.5 -148l-47 73q97 54 153 114 t56 133q0 45 -21.5 85t-59 72t-88 53.5t-108.5 28.5h-38v-841h-20l-608 351l40 72l508 -300v1407h80zM335 1225v-580h-80v580h80zM563 1225v-580h-80v580h80z" />
<glyph unicode="&#xa0c4;" vert-adv-y="2191" d="M1161 1475v-1475h-80v762h-474v-817h-20l-348 282l46 70l242 -197v1375h80v-634h474v634h80zM954 1658l-30 -68q-54 42 -116.5 60t-116.5 18q-55 0 -109 -18t-108 -60l-30 68q128 90 247 90q132 0 263 -90z" />
<glyph unicode="&#xa0c5;" vert-adv-y="2191" d="M1161 1475v-1475h-80v762h-474v-817h-20l-348 282l46 70l242 -197v1375h80v-634h474v634h80z" />
<glyph unicode="&#xa0c6;" vert-adv-y="2191" d="M1165 621q0 -51 -27.5 -100t-81.5 -88.5t-134.5 -65t-186.5 -29.5v-100q0 -92 -7 -149.5t-26 -89.5t-53.5 -43t-88.5 -11q-47 0 -87.5 9.5t-79 27t-76 43t-77.5 57.5l49 64q24 -19 57 -40.5t69.5 -39.5t74 -29.5t70.5 -11.5q26 0 44 7t29.5 29t16.5 64t5 113v100 q-104 5 -182.5 31t-131 65.5t-79.5 88.5t-27 99t27 99t79.5 88t131 65.5t182.5 31.5v126q-15 -5 -30 -7t-31 -2q-10 0 -20 0.5t-20 0.5q-72 0 -128 19t-94 54t-57.5 84t-19.5 109q0 35 10.5 77t36 78t68 60.5t106.5 24.5q59 0 101.5 -17.5t71.5 -47t46 -68.5t26 -81.5 t12 -86t3 -82.5q29 10 70 42t81 83t74 120.5t49 154.5l79 -17q-14 -93 -52 -172t-88 -140.5t-106 -104t-107 -62.5l-1 -145q106 -4 186.5 -30t134.5 -66t81.5 -89t27.5 -100zM1085 621q0 34 -21.5 69t-65 64t-109.5 48.5t-154 23.5v-408q88 3 154 22.5t109.5 48.5t65 63.5 t21.5 68.5zM315 622q0 -34 21 -68.5t63 -63t106 -48.5t150 -24v407q-86 -4 -150 -23.5t-106 -48t-63 -63t-21 -68.5zM656 1116q0 52 -4.5 110.5t-22.5 108t-54 82.5t-99 33q-41 0 -68 -14t-43.5 -36.5t-23 -51.5t-6.5 -58q0 -32 13 -65t41.5 -60t74 -44t110.5 -17q19 0 39 2 t43 10z" />
<glyph unicode="&#xa0c7;" vert-adv-y="2191" d="M1155 1155h-414v-647h414v-80h-414v-483h-20l-477 299l40 72l377 -248v1462h80v-295h414v-80zM358 1225v-580h-80v580h80zM954 1658l-30 -68q-54 42 -116.5 60t-116.5 18q-55 0 -109 -18t-108 -60l-30 68q128 90 247 90q132 0 263 -90z" />
<glyph unicode="&#xa0c8;" vert-adv-y="2191" d="M1155 1155h-414v-647h414v-80h-414v-483h-20l-477 299l40 72l377 -248v1462h80v-295h414v-80zM358 1225v-580h-80v580h80z" />
<glyph unicode="&#xa0c9;" vert-adv-y="2191" d="M1007 1475v-393h-20l-639 232v-274q105 -11 202.5 -47.5t178.5 -91.5q83 57 183.5 93t209.5 47l10 -80q-92 -10 -177.5 -39t-157.5 -74q72 -63 113.5 -139t41.5 -158q0 -85 -44.5 -163t-119.5 -142q68 -42 154.5 -69t189.5 -36l-10 -80q-109 10 -209.5 46.5t-183.5 93.5 q-81 -55 -178.5 -91.5t-202.5 -47.5v-62h-80v1424h20l639 -233v284h80zM507 551q0 82 41.5 158t113.5 139q-68 42 -148 70.5t-166 39.5v-815q96 11 177 37.5t146 65.5q-75 64 -119.5 142t-44.5 163zM587 551q0 -74 36.5 -141.5t105.5 -122.5q69 55 106 122.5t37 141.5 q0 69 -38.5 132.5t-104.5 116.5q-66 -53 -104 -116.5t-38 -132.5z" />
<glyph unicode="&#xa0ca;" vert-adv-y="2191" d="M1270 1475q-13 -144 -56 -257.5t-110.5 -192t-157.5 -119.5t-196 -41q-110 0 -197 33.5t-152.5 107t-108 189t-62.5 280.5h80q17 -156 55.5 -258.5t95 -163t129.5 -84.5t160 -24q81 0 155 31t132.5 96t98.5 165t54 238h80zM1075 560v-560h-80v560h80zM505 560v-560h-80 v560h80zM996 1658l-30 -68q-54 42 -116.5 60t-116.5 18q-55 0 -109 -18t-108 -60l-30 68q128 90 247 90q132 0 263 -90z" />
<glyph unicode="&#xa0cb;" vert-adv-y="2191" d="M1220 1475q-13 -144 -56 -257.5t-110.5 -192t-157.5 -119.5t-196 -41q-110 0 -197 33.5t-152.5 107t-108 189t-62.5 280.5h80q17 -156 55.5 -258.5t95 -163t129.5 -84.5t160 -24q81 0 155 31t132.5 96t98.5 165t54 238h80zM1025 560v-560h-80v560h80zM455 560v-560h-80 v560h80z" />
<glyph unicode="&#xa0cc;" vert-adv-y="2191" d="M1204 757h-674v-757h-80v757h-254v80h254v693h80v-693h674v-80zM982 1437v-380h-80v380h80zM982 537v-380h-80v380h80z" />
<glyph unicode="&#xa0cd;" vert-adv-y="2191" d="M1225 1087h-143q10 -38 18 -77.5t16 -82.5h109v-80h-98q13 -98 19.5 -205t6.5 -224q0 -104 -11.5 -191t-36 -149.5t-63 -97.5t-91.5 -35q-169 0 -251 252q-13 -55 -35 -101.5t-52 -80t-68.5 -52t-84.5 -18.5q-59 0 -98 36t-62.5 100t-33.5 150t-10 187q0 91 5.5 201.5 t21.5 227.5h-108v80h121q7 41 15 81t18 79h-154v80h178q25 77 58.5 143.5t77 115t98 76.5t121.5 28q60 0 112.5 -25t96 -71.5t79.5 -114t63 -152.5h166v-80zM580 1087h-168q-11 -38 -19 -78t-16 -82h203v-80h-216q-15 -106 -21.5 -211.5t-6.5 -202.5q0 -80 7 -153.5t22 -130 t38 -90.5t55 -34q45 0 82 33t65 87t46 123t24 141h50q10 -81 33 -151t54.5 -122t69.5 -81.5t79 -29.5q29 0 50.5 30.5t35.5 85t21 131t7 169.5q0 91 -5 195.5t-19 210.5h-231v80h220q-7 42 -15 82t-19 78h-186v80h162q-21 62 -48.5 114t-62 89.5t-77.5 58.5t-94 21 q-45 0 -84 -21t-71.5 -58.5t-59.5 -89.5t-48 -114h143v-80z" />
<glyph unicode="&#xa0ce;" vert-adv-y="2191" d="M1189 1159l-42 -63l-388 285v-1436h-20l-529 383l44 69l425 -311v765h-386v-335h-80v785h80v-370h386v599h20zM954 1658l-30 -68q-54 42 -116.5 60t-116.5 18q-55 0 -109 -18t-108 -60l-30 68q128 90 247 90q132 0 263 -90z" />
<glyph unicode="&#xa0cf;" vert-adv-y="2191" d="M1189 1159l-42 -63l-388 285v-1436h-20l-529 383l44 69l425 -311v765h-386v-335h-80v785h80v-370h386v599h20z" />
<glyph unicode="&#xa0d0;" vert-adv-y="2191" d="M1162 1304l-47 -63l-242 160v-1155h-20l-535 205v-451h-80v557h20l535 -202v718h-475v-352h-80v754h80v-322h475v377h20z" />
<glyph unicode="&#xa0d1;" vert-adv-y="2191" d="M982 766h-564v-821h-20l-348 282l53 67l235 -194v1374h80v-629h564v684h20l348 -282l-49 -65l-239 192v-1375h-80v767zM903 1207q0 -49 -13 -96t-38.5 -84t-63.5 -59.5t-88 -22.5t-88 22.5t-63.5 59t-38.5 84t-13 97.5t13 97.5t38.5 84t63.5 59t88 22.5t88 -22.5 t63.5 -59.5t38.5 -84.5t13 -97.5zM903 402q0 -49 -13 -96t-38.5 -84t-63.5 -59.5t-88 -22.5t-88 22.5t-63.5 59t-38.5 84t-13 97.5t13 97.5t38.5 84t63.5 59t88 22.5t88 -22.5t63.5 -59.5t38.5 -84.5t13 -97.5zM823 1207q0 35 -7 68.5t-21.5 59t-38 41t-56.5 15.5 t-56.5 -15.5t-38 -41t-21.5 -58.5t-7 -68t7 -68t21.5 -58.5t38 -41t56.5 -15.5t56.5 15.5t38 41t21.5 58t7 67.5zM823 402q0 35 -7 68.5t-21.5 59t-38 41t-56.5 15.5t-56.5 -15.5t-38 -41t-21.5 -58.5t-7 -68t7 -68t21.5 -58.5t38 -41t56.5 -15.5t56.5 15.5t38 41t21.5 58 t7 67.5z" />
<glyph unicode="&#xa0d2;" vert-adv-y="2191" d="M1182 1475v-580h-20l-865 466v-446h-80v580h20l865 -477v457h80zM1143 230q-105 -142 -218.5 -213.5t-235.5 -71.5q-110 0 -214.5 72.5t-209.5 212.5l63 49q91 -125 181 -189.5t180 -64.5q105 0 201.5 60.5t187.5 193.5zM899 936v-560h-80v560h80zM559 936v-560h-80v560 h80zM954 1658l-30 -68q-54 42 -116.5 60t-116.5 18q-55 0 -109 -18t-108 -60l-30 68q128 90 247 90q132 0 263 -90z" />
<glyph unicode="&#xa0d3;" vert-adv-y="2191" d="M1182 1475v-580h-20l-865 466v-446h-80v580h20l865 -477v457h80zM1143 230q-105 -142 -218.5 -213.5t-235.5 -71.5q-110 0 -214.5 72.5t-209.5 212.5l63 49q91 -125 181 -189.5t180 -64.5q105 0 201.5 60.5t187.5 193.5zM899 936v-560h-80v560h80zM559 936v-560h-80v560 h80z" />
<glyph unicode="&#xa0d4;" vert-adv-y="2191" d="M1182 1475v-580h-20l-865 466v-446h-80v580h20l865 -477v457h80zM1143 230q-105 -142 -218.5 -213.5t-235.5 -71.5q-110 0 -214.5 72.5t-209.5 212.5l63 49q91 -125 181 -189.5t180 -64.5q105 0 201.5 60.5t187.5 193.5zM559 880v-300h-80v300h80zM899 880v-300h-80v300 h80zM729 490v-300h-80v300h80z" />
<glyph unicode="&#xa0d5;" vert-adv-y="2191" d="M1124 1475v-1475h-80v299l-500 -253l-45 65l419 212q-41 9 -87.5 29t-88.5 49.5t-74.5 67t-45.5 80.5q-15 -37 -43.5 -77.5t-67 -81t-84 -79t-95.5 -71.5l-56 72q78 51 135 106.5t94.5 110t55.5 107.5t18 100t-18.5 99.5t-56 107.5t-94.5 110t-134 106l56 72 q50 -33 95.5 -71.5t84 -79t67 -81t43.5 -77.5q13 43 45.5 80.5t74.5 67t88.5 49.5t87.5 29l-419 212l45 65l500 -253v303h80zM1044 1096q-192 -42 -288.5 -138t-96.5 -226q0 -63 25.5 -119.5t74 -102.5t120.5 -80.5t165 -54.5v721zM954 1658l-30 -68q-54 42 -116.5 60 t-116.5 18q-55 0 -109 -18t-108 -60l-30 68q128 90 247 90q132 0 263 -90z" />
<glyph unicode="&#xa0d6;" vert-adv-y="2191" d="M1124 1475v-1475h-80v299l-500 -253l-45 65l419 212q-41 9 -87.5 29t-88.5 49.5t-74.5 67t-45.5 80.5q-15 -37 -43.5 -77.5t-67 -81t-84 -79t-95.5 -71.5l-56 72q78 51 135 106.5t94.5 110t55.5 107.5t18 100t-18.5 99.5t-56 107.5t-94.5 110t-134 106l56 72 q50 -33 95.5 -71.5t84 -79t67 -81t43.5 -77.5q13 43 45.5 80.5t74.5 67t88.5 49.5t87.5 29l-419 212l45 65l500 -253v303h80zM1044 1096q-192 -42 -288.5 -138t-96.5 -226q0 -63 25.5 -119.5t74 -102.5t120.5 -80.5t165 -54.5v721z" />
<glyph unicode="&#xa0d7;" vert-adv-y="2191" d="M1219 696h-414v-696h-80v299l-500 -253l-45 65l419 212q-35 12 -73.5 28t-76.5 38t-72 52.5t-60 72t-41.5 96.5t-15.5 126q0 84 30.5 151t79.5 118t109.5 86.5t119.5 56.5l-419 212l45 65l500 -253v303h80v-699h414v-80zM725 1096q-94 -20 -166 -55t-120.5 -81.5 t-73.5 -103t-25 -120.5t25 -121t73.5 -103.5t120.5 -81.5t166 -55v721zM1087 536v-380h-80v380h80zM1087 1316v-380h-80v380h80z" />
<glyph unicode="&#xa0d8;" vert-adv-y="2191" d="M1164 1107l-508 300v-1407h-80v1530h20l608 -351zM380 620v-560h-80v560h80zM380 1410v-560h-80v560h80zM1090 910v-560h-80v560h80z" />
<glyph unicode="&#xa0d9;" vert-adv-y="2191" d="M1259 1301q-35 -335 -240 -528v-773h-80v377h-479v-377h-80v773q-206 193 -240 528h80q34 -265 160 -415v589h80v-1018h479v1018h80v-589q126 150 160 415h80zM954 1658l-30 -68q-54 42 -116.5 60t-116.5 18q-55 0 -109 -18t-108 -60l-30 68q128 90 247 90q132 0 263 -90 z" />
<glyph unicode="&#xa0da;" vert-adv-y="2191" d="M1259 1301q-35 -335 -240 -528v-773h-80v377h-479v-377h-80v773q-206 193 -240 528h80q34 -265 160 -415v589h80v-1018h479v1018h80v-589q126 150 160 415h80z" />
<glyph unicode="&#xa0db;" vert-adv-y="2191" d="M1179 1060q-116 -103 -206 -177t-153 -122q81 -66 174 -153.5t201 -200.5l-63 -47q-116 116 -211 202t-170 146q-72 -52 -135.5 -95t-118.5 -74t-102 -48.5t-85 -17.5q-91 0 -106 110v377q0 110 94 119q60 -3 193 -86q66 -42 131 -86.5t131 -93.5q88 66 182 144t197 171z M683 761q-66 48 -128.5 89t-112 70.5t-81.5 46.5t-38 18q-7 0 -14 -1t-12.5 -7t-9 -18t-3.5 -34v-327q3 -52 35 -52q20 0 110 51.5t254 163.5zM515 300v-300h-80v300h80zM976 300v-300h-80v300h80zM515 1475v-300h-80v300h80zM976 1475v-300h-80v300h80z" />
<glyph unicode="&#xa0dc;" vert-adv-y="2191" d="M1149 1475v-380h-20l-332 172v-1267h-80v462q-41 -54 -96 -97t-115.5 -75.5t-122.5 -54.5t-116 -33l-16 84q229 66 346.5 164.5t118.5 239.5q0 141 -117.5 240t-347.5 165l16 84q54 -12 116 -33.5t122.5 -54t115.5 -75.5t96 -97v471h20l332 -174v259h80zM394 846v-300 h-80v300h80zM954 1658l-30 -68q-54 42 -116.5 60t-116.5 18q-55 0 -109 -18t-108 -60l-30 68q128 90 247 90q132 0 263 -90z" />
<glyph unicode="&#xa0dd;" vert-adv-y="2191" d="M1149 1475v-380h-20l-332 172v-1267h-80v462q-41 -54 -96 -97t-115.5 -75.5t-122.5 -54.5t-116 -33l-16 84q229 66 346.5 164.5t118.5 239.5q0 141 -117.5 240t-347.5 165l16 84q54 -12 116 -33.5t122.5 -54t115.5 -75.5t96 -97v471h20l332 -174v259h80zM394 846v-300 h-80v300h80z" />
<glyph unicode="&#xa0de;" vert-adv-y="2191" d="M1136 1365l-419 -386v-272l435 385l47 -63l-482 -435v-347h-16l-420 268v-515h-80v647h17l419 -268v1096h80v-383l372 336z" />
<glyph unicode="&#xa0df;" vert-adv-y="2191" d="M1261 1475q-13 -138 -52.5 -247t-101.5 -187t-144.5 -122.5t-181.5 -52.5v-666h-14l-388 207v-407h-79v536h10l391 -209v539q-122 8 -213.5 60t-154.5 161l-131 -173l-64 48l156 206q-51 124 -73 307h80q8 -70 19.5 -128.5t27.5 -107.5l128 169l64 -48l-157 -207 q27 -54 61 -92t74 -62.5t86 -37t97 -15.5v529h80v-528q75 7 141.5 42t119.5 100t89 161t50 225h80zM954 1658l-30 -68q-54 42 -116.5 60t-116.5 18q-55 0 -109 -18t-108 -60l-30 68q128 90 247 90q132 0 263 -90z" />
<glyph unicode="&#xa0e0;" vert-adv-y="2191" d="M1261 1475q-13 -138 -52.5 -247t-101.5 -187t-144.5 -122.5t-181.5 -52.5v-666h-14l-388 207v-407h-79v536h10l391 -209v539q-122 8 -213.5 60t-154.5 161l-131 -173l-64 48l156 206q-51 124 -73 307h80q8 -70 19.5 -128.5t27.5 -107.5l128 169l64 -48l-157 -207 q27 -54 61 -92t74 -62.5t86 -37t97 -15.5v529h80v-528q75 7 141.5 42t119.5 100t89 161t50 225h80z" />
<glyph unicode="&#xa0e1;" vert-adv-y="2191" d="M1220 1475q-13 -138 -52.5 -247.5t-102 -187.5t-145.5 -122.5t-182 -51.5v-320l338 180l39 -70l-377 -201v-255h-14l-388 207v-407h-79v536h10l391 -209v539q-100 6 -180 43t-140 110.5t-99.5 186t-58.5 269.5h80q17 -156 55.5 -258.5t95 -163t129.5 -84.5t160 -24 q81 0 155 31t132.5 96t98.5 165t54 238h80z" />
<glyph unicode="&#xa0e2;" vert-adv-y="2191" d="M1220 1475q-13 -138 -52.5 -247.5t-102 -187.5t-145.5 -122.5t-182 -51.5v-666h-14l-388 207v-407h-79v536h10l391 -209v539q-100 6 -180 43t-140 110.5t-99.5 186t-58.5 269.5h80q17 -156 55.5 -258.5t95 -163t129.5 -84.5t160 -24q81 0 155 31t132.5 96t98.5 165 t54 238h80zM738 1410v-300h-80v300h80z" />
<glyph unicode="&#xa0e3;" vert-adv-y="2191" d="M1224 1450q-98 -62 -180.5 -141.5t-142 -171t-93 -192.5t-33.5 -206t33.5 -206.5t93 -194t142 -172.5t180.5 -141l-33 -80q-111 70 -202 161t-156.5 194t-101.5 214t-36 222q0 31 3 63l-219 219v-1073h-20l-283 272l47 64l176 -177v1067l22 7l292 -285q21 91 64 180.5 t104.5 171.5t139.5 154.5t170 130.5zM954 1658l-30 -68q-54 42 -116.5 60t-116.5 18q-55 0 -109 -18t-108 -60l-30 68q128 90 247 90q132 0 263 -90z" />
<glyph unicode="&#xa0e4;" vert-adv-y="2191" d="M1224 1450q-98 -62 -180.5 -141.5t-142 -171t-93 -192.5t-33.5 -206t33.5 -206.5t93 -194t142 -172.5t180.5 -141l-33 -80q-111 70 -202 161t-156.5 194t-101.5 214t-36 222q0 31 3 63l-219 219v-1073h-20l-283 272l47 64l176 -177v1067l22 7l292 -285q21 91 64 180.5 t104.5 171.5t139.5 154.5t170 130.5z" />
<glyph unicode="&#xa0e5;" vert-adv-y="2191" d="M1182 1475v-580h-20l-442 238v-209q204 -35 301 -116t97 -203q0 -158 -101 -254.5t-297 -130.5v-220h-80v1176l-343 185v-446h-80v580h20l865 -477v457h80zM720 844v-545q318 75 318 306q0 90 -75.5 150.5t-242.5 88.5zM423 855v-607h-80v607h80z" />
<glyph unicode="&#xa0e6;" vert-adv-y="2191" d="M828 1475v-844q58 11 111 24t93 38.5t63.5 69.5t23.5 116v521h80v-559q0 -80 -32 -130.5t-84.5 -82t-119 -49.5t-135.5 -34v-600h-20l-608 351l40 72l508 -300v1407h80zM433 1400v-607h-80v607h80z" />
<glyph unicode="&#xa0e7;" vert-adv-y="2191" d="M1157 469v-80h-417v-309h417v-80h-874v80h377v309h-378v80h378v459l-398 -300l-55 58l426 322l-410 310l55 58l382 -289v388h80v-387l382 289l55 -58l-412 -311l428 -323l-55 -58l-398 301v-459h417zM368 1160v-300h-80v300h80zM1112 1160v-300h-80v300h80zM954 1658 l-30 -68q-54 42 -116.5 60t-116.5 18q-55 0 -109 -18t-108 -60l-30 68q128 90 247 90q132 0 263 -90z" />
<glyph unicode="&#xa0e8;" vert-adv-y="2191" d="M1157 469v-80h-417v-309h417v-80h-874v80h377v309h-378v80h378v459l-398 -300l-55 58l426 322l-410 310l55 58l382 -289v388h80v-387l382 289l55 -58l-412 -311l428 -323l-55 -58l-398 301v-459h417zM368 1160v-300h-80v300h80zM1112 1160v-300h-80v300h80z" />
<glyph unicode="&#xa0e9;" vert-adv-y="2191" d="M1082 1475v-80h-360v-284q202 -35 299 -116t97 -202q0 -158 -100.5 -254t-295.5 -131v-328h360v-80h-800v80h360v1315h-360v80h800zM1038 793q0 89 -75 149.5t-241 88.5v-544q316 75 316 306zM448 1061v-607h-80v607h80z" />
<glyph unicode="&#xa0ea;" vert-adv-y="2191" d="M1184 736q0 -188 -32.5 -335t-94.5 -248t-152 -154.5t-205 -53.5t-205 53.5t-152 154.5t-94.5 248t-32.5 335q0 187 32.5 334.5t95 249.5t152.5 156t204 54q115 0 204.5 -54t151.5 -156t95 -249.5t33 -334.5zM1104 736q0 130 -18 246h-772q-10 -58 -14 -119t-4 -127 q0 -69 4.5 -132.5t14.5 -122.5h769q11 59 15.5 122.5t4.5 132.5zM700 1450q-73 0 -132.5 -28t-105.5 -79t-79 -122.5t-53 -158.5h740q-21 87 -54 158.5t-79 122.5t-105 79t-132 28zM700 25q72 0 130.5 27t104 76.5t78.5 118.5t54 154h-735q21 -85 54 -154t79 -118.5 t104.5 -76.5t130.5 -27z" />
</font>
</defs>
</svg>
