<?xml version="1.0" standalone="no"?>
<!DOCTYPE svg PUBLIC "-//W3C//DTD SVG 1.1//EN" "http://www.w3.org/Graphics/SVG/1.1/DTD/svg11.dtd" >
<svg xmlns="http://www.w3.org/2000/svg">
<metadata></metadata>
<defs>
<font id="walkway_condensedregular" horiz-adv-x="367" >
<font-face units-per-em="1000" ascent="800" descent="-200" />
<missing-glyph horiz-adv-x="248" />
<glyph horiz-adv-x="0" />
<glyph unicode="&#xd;" horiz-adv-x="248" />
<glyph unicode=" "  horiz-adv-x="248" />
<glyph unicode="&#x09;" horiz-adv-x="248" />
<glyph unicode="&#xa0;" horiz-adv-x="248" />
<glyph unicode="!" horiz-adv-x="136" d="M76 173h-15v505h15v-505zM75 11q0 -11 -7 -11q-8 0 -8 11v65q0 10 8 10q7 0 7 -10v-65z" />
<glyph unicode="&#x22;" horiz-adv-x="204" d="M149 559q0 -12 -7 -12q-8 0 -8 12v0v102q0 11 8 11q7 0 7 -11v0v-102zM69 559q0 -12 -8 -12q-7 0 -7 12v0v102q0 11 7 11q8 0 8 -11v0v-102z" />
<glyph unicode="#" horiz-adv-x="372" d="M317 388l-3 -19h-63l-17 -109h62l-3 -19h-62l-13 -80h-15l13 80h-84l-13 -80h-15l14 80h-63l3 19h62l19 109h-63l3 19h62l14 80h14l-13 -80h84l13 80h14l-12 -80h62zM237 369h-84l-18 -109h84z" />
<glyph unicode="$" horiz-adv-x="449" d="M415 165q0 -65 -36 -113t-99 -62v-60h-15v57q-17 -3 -34 -3q-29 0 -54 6v-60h-15v62q-137 42 -137 222v10h15v-6q0 -170 122 -206v345q-121 41 -121 162q0 140 121 170v64h15v-61q19 2 41 2q26 0 47 -4v63h15v-66q124 -35 125 -199h-14q-7 149 -111 180v-325 q70 -25 98 -55q37 -40 37 -123zM265 348v323q-21 4 -47 4q-22 0 -41 -3v-299zM162 378v291q-107 -30 -107 -150q0 -102 107 -141zM400 168q0 59 -17 86q-25 39 -103 68v-313q58 13 90 57q30 41 30 102zM265 6v321l-88 25v-343q25 -6 55 -6q17 0 33 3z" />
<glyph unicode="%" horiz-adv-x="525" d="M444 678l-333 -678h-18l334 678h17zM486 154q0 -173 -94 -173t-94 173q0 178 95 178q93 0 93 -178zM227 480q0 -172 -94 -172q-93 0 -93 172q0 177 94 177q93 0 93 -177zM470 154q0 159 -78 159t-78 -159q0 -154 79 -154q77 0 77 154zM212 480q0 158 -79 158 q-78 0 -78 -158q0 -154 79 -154q78 0 78 154z" />
<glyph unicode="&#x26;" horiz-adv-x="422" d="M365 -19h-14v176q-4 -18 -15 -50q-55 -123 -149 -123q-69 0 -112 48t-43 117q0 78 52 143q31 39 104 93q-93 61 -93 168q0 52 28.5 88.5t78.5 36.5q53 0 82 -38q26 -34 26 -89q0 -91 -128 -192q-68 -53 -91 -84q-44 -58 -44 -126q0 -61 38 -103.5t98 -42.5q96 0 142 121 q26 69 26 139h14v-282zM295 552q0 45 -23 74q-25 33 -68 33q-44 0 -69 -31t-25 -76q0 -102 91 -158q94 77 94 158z" />
<glyph unicode="'" horiz-adv-x="122" d="M69 559q0 -12 -8 -12q-7 0 -7 12v0v102q0 11 7 11q8 0 8 -11v0v-102z" />
<glyph unicode="(" horiz-adv-x="163" d="M150 -168h-14q-86 195 -86 451q0 257 86 451h14q-86 -190 -86 -451t86 -451z" />
<glyph unicode=")" horiz-adv-x="163" d="M113 283q0 -259 -89 -451h-15q89 190 89 451t-89 451h15q89 -191 89 -451z" />
<glyph unicode="*" horiz-adv-x="238" d="M189 500q-3 -9 -11 -3l-58 44v-87q0 -11 -7 -11q-8 0 -8 11v0v87l-58 -44q-7 -5 -11 3t4 14l58 44l-59 43q-7 5 -3 14q2 4 5 4q2 0 5 -2h1l58 -43v87q0 11 8 11q7 0 7 -11v0v-87l58 43q3 2 5 2q4 0 6 -4q3 -10 -4 -15l-58 -42l58 -44q7 -5 4 -14z" />
<glyph unicode="+" horiz-adv-x="392" d="M337 242h-134v-175h-15v175h-133v19h133v172h15v-172h134v-19z" />
<glyph unicode="," horiz-adv-x="183" d="M114 73v0l-29 -155q-2 -11 -10 -8q-6 2 -6 8q0 2 1 5v0l30 155q2 11 8 8q8 -2 6 -13z" />
<glyph unicode="-" horiz-adv-x="245" d="M216 254h-180v20h180v-20z" />
<glyph unicode="." horiz-adv-x="146" d="M80 9q0 -11 -7 -11t-7 11v65q0 11 7 11t7 -11v-65z" />
<glyph unicode="/" horiz-adv-x="245" d="M250 694l-234 -694h-15l234 694h15z" />
<glyph unicode="0" horiz-adv-x="409" d="M374 243q0 -101 -34 -168q-44 -87 -135 -87q-90 0 -135 87q-36 69 -36 168v172q0 99 36 168q45 88 135 88t135 -88q34 -67 34 -168v-172zM360 243v172q0 90 -33 155q-41 82 -123 82t-123 -82q-33 -65 -33 -155v-172q0 -90 33 -154q42 -82 123 -82q83 0 124 81 q32 64 32 155z" />
<glyph unicode="1" horiz-adv-x="289" d="M217 0h-15v617l-108 -128h-22l130 157h15v-646z" />
<glyph unicode="2" horiz-adv-x="409" d="M377 0h-336q0 174 138 294q25 21 98 84q65 56 65 122q0 63 -34 100.5t-96 37.5q-148 0 -148 -204h-15q0 94 32 151q40 72 127 72q148 0 148 -160q0 -81 -110 -171q-64 -53 -86 -73q-33 -37 -58 -82q-45 -80 -45 -152h320v-19z" />
<glyph unicode="3" horiz-adv-x="409" d="M379 176q0 -81 -44 -133q-47 -54 -127 -54q-92 0 -138 66q-41 58 -41 153v10h14v-24q0 -80 40 -131q44 -55 122 -55q73 0 116.5 47t43.5 121q0 162 -147 162h-32v19h33q136 0 136 143q0 64 -38.5 101t-102.5 37q-157 0 -157 -192h-14q0 211 169 211q75 0 116.5 -41 t41.5 -116q0 -132 -110 -152q119 -15 119 -172z" />
<glyph unicode="4" horiz-adv-x="409" d="M384 225h-91v-225h-14v225h-256l146 422h14l-139 -403h235v403l14 -1v-402h91v-19z" />
<glyph unicode="5" horiz-adv-x="409" d="M374 214q0 -92 -39 -153q-46 -72 -133 -72q-91 0 -136 66q-39 57 -39 152h15q0 -87 36 -139q41 -60 124 -60q81 0 122 65q35 55 35 140t-38 141q-43 65 -124 65q-93 0 -136 -99h-18l9 326h301v-19h-285l-9 -284q47 95 140 95q87 0 134 -71q41 -61 41 -153z" />
<glyph unicode="6" horiz-adv-x="409" d="M365 446h-14q0 76 -34 129q-39 62 -111 62q-75 0 -113 -61q-32 -51 -33 -130l-1 -150q40 110 145 110q80 0 123 -66q36 -57 36 -141t-38 -140q-43 -65 -123 -65t-122 65q-37 56 -37 140v10q1 7 1 9v231q0 84 38 140q43 64 124 64t123 -66q36 -56 36 -141zM349 199 q0 78 -33 130q-39 61 -113 61t-113 -61q-33 -52 -33 -130q0 -77 34 -129q39 -61 112 -61t112 61q34 52 34 129z" />
<glyph unicode="7" horiz-adv-x="409" d="M369 646l-221 -646h-14l214 627h-302v19h323z" />
<glyph unicode="8" horiz-adv-x="421" d="M391 180q0 -90 -45 -139q-46 -52 -135 -52t-135.5 51.5t-46.5 141.5q0 69 31 114q35 51 100 59q-49 10 -77.5 48t-28.5 89q0 165 157 165q77 0 116.5 -43.5t39.5 -121.5q0 -51 -28 -88.5t-77 -48.5q129 -20 129 -175zM353 493q0 145 -142 145t-142 -147q0 -58 43 -94 q40 -34 99 -34q60 0 101 35.5t41 94.5zM377 181q0 163 -166 163q-167 0 -167 -163q0 -81 43.5 -127t123.5 -46q81 0 123.5 46t42.5 127z" />
<glyph unicode="9" horiz-adv-x="409" d="M365 456v-268q0 -83 -39 -139q-44 -64 -124 -64t-122 65q-37 56 -37 140h14q0 -77 34 -129q39 -61 112 -61t112 61q34 52 34 129v170q-39 -109 -144 -109q-80 0 -122 65q-37 56 -37 140q0 83 38 140q43 66 122 66q80 0 123 -66q36 -55 36 -140zM351 456q0 78 -33 130 q-38 61 -112 61t-113 -61q-33 -51 -33 -130q0 -77 34 -129q39 -61 112 -61t112 61q33 52 33 129z" />
<glyph unicode=":" horiz-adv-x="171" d="M93 389q0 -11 -7 -11q-8 0 -8 11v0v65q0 11 8 11q6 0 7 -11v0v-65zM93 9q0 -11 -7 -11q-8 0 -8 11v0v65q0 11 8 11q6 0 7 -11v0v-65z" />
<glyph unicode=";" horiz-adv-x="176" d="M107 389q0 -11 -7 -11q-8 0 -8 11v0v65q0 11 8 11q7 0 7 -11v0v-65zM110 73v0l-30 -155q-2 -11 -9 -8q-6 2 -6 8q0 2 1 5v0l30 155q2 11 8 8q8 -2 6 -13z" />
<glyph unicode="&#x3c;" horiz-adv-x="374" d="M335 49l-301 180v23l301 179v-20l-288 -171l288 -171v-20z" />
<glyph unicode="=" horiz-adv-x="441" d="M406 294h-371v19h371v-19zM406 167h-371v19h371v-19z" />
<glyph unicode="&#x3e;" horiz-adv-x="374" d="M335 229l-301 -180v20l287 171l-287 171v20l301 -179v-23z" />
<glyph unicode="?" d="M185 11q0 -11 -7 -11t-7 11v65q0 10 7 10t7 -10v-65zM28 514q7 77 42 124q42 56 115 56q68 0 106 -44.5t38 -113.5q0 -84 -69 -166q-74 -87 -74 -173v-24h-15v18q0 97 68 179q43 52 57 80q18 37 18 86q0 63 -33.5 101t-95.5 38q-131 0 -144 -172z" />
<glyph unicode="@" horiz-adv-x="588" d="M395 188l6 72q-47 -129 -144 -130q-67 -1 -100 66q-22 45 -22 109q0 28 1 39q8 86 42 144q44 73 121 74q101 2 118 -128l12 128h13l-35 -374q1 -3 0 -6q1 -16 14 -16q18 0 42 28q19 22 29 45q38 86 38 163q0 109 -55 187q-63 88 -167 88q-122 0 -191 -112 q-59 -95 -59 -225q0 -128 59 -222q70 -111 190 -111q68 0 127.5 43.5t85.5 107.5h18q-26 -69 -89 -118q-66 -51 -138 -51q-129 0 -205 118q-65 101 -65 238q0 134 64 234q74 116 200 116q114 0 181 -93q59 -83 59 -202q0 -95 -44 -181q-14 -27 -35 -48q-27 -27 -50 -27 q-25 0 -21 44zM409 347q2 20 2 38q0 67 -24 109q-30 53 -92 52q-75 -1 -116 -87q-32 -68 -32 -151q0 -64 23 -108q29 -56 88 -55q67 1 109 71q34 56 42 131z" />
<glyph unicode="A" horiz-adv-x="445" d="M442 0h-16l-68 223h-268l-69 -223h-18l214 678h19zM352 242l-125 411l-130 -411h255z" />
<glyph unicode="B" horiz-adv-x="449" d="M423 182q0 -84 -44.5 -133t-127.5 -49h-217v678h226q73 0 112 -50q36 -46 36 -121q0 -54 -28.5 -96t-79.5 -58q123 -21 123 -171zM393 512q0 66 -34.5 106.5t-99.5 40.5h-210v-296h209q65 0 101 43q34 40 34 106zM409 181q0 76 -38.5 119.5t-113.5 43.5h-208v-325h211 q71 0 110 45t39 117z" />
<glyph unicode="C" horiz-adv-x="503" d="M461 111q-61 -118 -187 -118q-125 0 -188 114q-50 91 -50 227q0 140 52 234q65 117 193 117q131 0 187 -116l-13 -12q-50 109 -174 109q-119 0 -181 -110q-50 -89 -50 -218q0 -127 48 -216q59 -110 176 -110q118 0 175 111z" />
<glyph unicode="D" horiz-adv-x="476" d="M446 338q0 -142 -53 -230q-66 -108 -199 -108h-154v678h180q126 0 183 -114q43 -86 43 -226zM431 338q0 321 -211 321h-165v-640h141q126 0 187 102q48 82 48 217z" />
<glyph unicode="E" horiz-adv-x="395" d="M384 0h-344v678h340v-19h-326v-296h289v-18h-289v-326h330v-19z" />
<glyph unicode="F" horiz-adv-x="353" d="M355 659h-301v-296h257v-18h-257v-345h-14v678h315v-19z" />
<glyph unicode="G" horiz-adv-x="531" d="M495 316q1 -21 1 -41q0 -116 -52 -193q-59 -89 -170 -89q-132 0 -197 112q-53 90 -53 232q0 138 52 232q64 116 193 116q96 0 153 -63q51 -56 65 -156h-15q-31 200 -203 200q-122 0 -182 -109q-49 -87 -49 -219q0 -134 50 -220q61 -106 186 -106q98 0 155 79 q52 71 52 172v34h-204v19h218z" />
<glyph unicode="H" horiz-adv-x="476" d="M436 0h-15v345h-366v-345h-15v678h15v-315h366v315h15v-678z" />
<glyph unicode="I" horiz-adv-x="94" d="M55 0h-15v678h15v-678z" />
<glyph unicode="J" horiz-adv-x="340" d="M297 190q0 -197 -141 -197q-132 0 -142 152h15q7 -133 124 -133q79 0 108 56q21 40 21 128v482h15v-488z" />
<glyph unicode="K" horiz-adv-x="469" d="M455 0h-20l-268 378l-112 -128v-250h-15v678h15v-403l363 403h22l-261 -289z" />
<glyph unicode="L" horiz-adv-x="353" d="M354 0h-314v678h15v-659h299v-19z" />
<glyph unicode="M" horiz-adv-x="573" d="M533 0h-15v658l-223 -658h-16l-224 658v-658h-15v678h24l222 -655l224 655h23v-678z" />
<glyph unicode="N" horiz-adv-x="476" d="M436 0h-22l-359 657v-657h-15v678h22q57 -111 179.5 -328t179.5 -328v656h15v-678z" />
<glyph unicode="O" horiz-adv-x="530" d="M507 339q0 -140 -50 -231q-63 -115 -192 -115t-191 115q-50 91 -50 231q0 138 50 226q63 110 191 110q129 0 192 -109q50 -88 50 -227zM492 339q0 131 -47 214q-58 103 -180 103q-120 0 -179 -104q-47 -83 -47 -213q0 -129 48 -217q60 -110 178 -110q121 0 180 109 q47 86 47 218z" />
<glyph unicode="P" horiz-adv-x="435" d="M412 491q0 -83 -43 -131q-45 -51 -127 -51h-187v-309h-15v678h210q162 0 162 -187zM397 490q0 169 -143 169h-199v-331h200q68 0 106 48q36 45 36 114z" />
<glyph unicode="Q" horiz-adv-x="530" d="M507 339q0 -116 -36 -200q-45 -106 -141 -136q27 -50 75 -50h65v-19h-65q-57 0 -89 65q-24 -6 -51 -6q-129 0 -191 115q-50 91 -50 231q0 138 50 226q63 110 191 110q129 0 192 -109q50 -88 50 -227zM492 339q0 131 -47 214q-58 103 -180 103q-120 0 -179 -104 q-47 -83 -47 -213q0 -156 67 -245q6 45 31 77q29 36 72 36q49 0 79 -46q26 -40 26 -92q0 -25 8 -49q91 27 135 129q35 80 35 190zM309 17q-9 26 -9 53q0 46 -22 80q-25 39 -69 39q-41 0 -67 -35q-23 -31 -24 -74q59 -68 147 -68q23 0 44 5z" />
<glyph unicode="R" horiz-adv-x="449" d="M414 507q0 -143 -106 -177q99 -28 99 -165v-165h-14v162q0 155 -141 155h-197v-317h-15v678h218q156 0 156 -171zM400 504q0 155 -140 155h-205v-322h193q74 0 113 46t39 121z" />
<glyph unicode="S" horiz-adv-x="449" d="M415 165q0 -81 -51 -126.5t-133 -45.5q-102 0 -154 59t-52 162v10h15v-6q0 -206 192 -206q77 0 122.5 40t45.5 116q0 53 -17.5 84.5t-64.5 51.5q-22 9 -100 34q-89 28 -119 51q-58 44 -58 130q0 166 177 166q185 0 187 -197h-14q-4 90 -43 133q-42 45 -130 45 q-163 0 -163 -147q0 -74 47 -111q30 -23 100 -42q114 -30 152 -59q61 -46 61 -142z" />
<glyph unicode="T" horiz-adv-x="381" d="M379 659h-181v-659h-15v659h-181v19h377v-19z" />
<glyph unicode="U" horiz-adv-x="465" d="M424 250q0 -119 -36 -179q-45 -78 -156 -78t-156 79q-36 61 -36 180v426h15v-425q0 -241 177 -241t177 237v429h15v-428z" />
<glyph unicode="V" horiz-adv-x="440" d="M431 678l-200 -678h-16l-206 678h15l199 -656l193 656h15z" />
<glyph unicode="W" horiz-adv-x="679" d="M668 678l-193 -678h-16l-118 405l-116 -405h-16l-198 678h15l192 -656l114 409l-71 247h15l192 -656l185 656h15z" />
<glyph unicode="X" horiz-adv-x="423" d="M422 0h-18l-191 333l-193 -333h-19l202 349l-191 329h19l182 -314l182 314h19l-191 -329z" />
<glyph unicode="Y" horiz-adv-x="438" d="M438 678l-211 -345v-333h-15v333l-212 345h18l201 -325l202 325h17z" />
<glyph unicode="Z" horiz-adv-x="438" d="M413 0h-387v26l367 633h-347v19h361v-25l-366 -634h372v-19z" />
<glyph unicode="[" horiz-adv-x="163" d="M153 -168h-82v902h82v-19h-68v-864h68v-19z" />
<glyph unicode="\" horiz-adv-x="245" d="M245 0h-15l-236 694h15z" />
<glyph unicode="]" horiz-adv-x="163" d="M92 734v-902h-82v19h67l1 48l-1 816h-67v19h82z" />
<glyph unicode="^" horiz-adv-x="209" d="M165 511h-17l-45 116l-46 -116h-14l52 135h15z" />
<glyph unicode="_" d="M367 -119h-367v48h367v-48z" />
<glyph unicode="`" horiz-adv-x="135" d="M113 545q5 -8 0 -14q-2 -2 -5 -2t-7 4l-79 122q-6 9 1 15q5 7 11 -2z" />
<glyph unicode="a" horiz-adv-x="395" d="M349 0h-14v141q-41 -152 -153 -152q-86 0 -129 89q-33 69 -33 165q0 97 34 167q44 90 131 90q116 0 150 -153v151h14v-498zM335 243q0 93 -31 156q-40 82 -123 82q-77 0 -116 -85q-31 -67 -31 -153q0 -88 30 -152q39 -83 117 -83t120 83q34 67 34 152z" />
<glyph unicode="b" horiz-adv-x="395" d="M368 242q0 -100 -32 -165q-42 -87 -132 -87q-58 0 -99 49q-35 41 -50 103v-142h-14v678h14v-331q13 64 48 105q41 48 102 48q89 0 131 -90q32 -68 32 -168zM354 243q0 92 -28 154q-38 84 -118 84q-85 0 -124 -83q-29 -62 -29 -158q0 -87 33 -151q41 -80 121 -80 q78 0 116 83q29 63 29 151z" />
<glyph unicode="c" d="M342 141q-10 -66 -46 -106q-41 -46 -104 -46q-89 0 -133 83q-36 66 -36 163q0 104 36 174q46 91 140 91q57 0 95 -42q34 -37 44 -96l-13 -10q-23 129 -127 129q-85 0 -127 -85q-33 -66 -33 -161q0 -89 32 -150q40 -77 121 -77q59 0 96 43q33 38 41 99z" />
<glyph unicode="d" horiz-adv-x="395" d="M349 0h-14v141q-41 -152 -153 -152q-86 0 -129 89q-33 69 -33 165q0 97 34 167q44 90 131 90q116 0 150 -153v331h14v-678zM335 243q0 93 -31 156q-40 82 -123 82q-77 0 -116 -85q-31 -67 -31 -153q0 -88 30 -152q39 -83 117 -83t120 83q34 67 34 152z" />
<glyph unicode="e" d="M352 241l-320 -1q2 -232 151 -232q54 0 92 37q35 34 49 89h15q-13 -65 -51 -103q-42 -42 -106 -42q-91 0 -133 87q-31 64 -31 167q0 97 35 167q45 90 132 90q88 0 132 -79q35 -63 35 -158v-22zM334 259q0 87 -31 146q-39 76 -118 76q-78 0 -118 -76q-32 -59 -35 -146h302 z" />
<glyph unicode="f" horiz-adv-x="187" d="M228 648q-142 0 -142 -164v-49h78v-20h-78v-416h-15v416h-50v20h50v49q0 182 157 182v-18z" />
<glyph unicode="g" horiz-adv-x="381" d="M342 17q0 -196 -156 -196q-69 0 -105.5 42t-38.5 112h15q7 -135 130 -135q141 0 141 178v127q-15 -58 -51 -95q-41 -42 -97 -42q-84 0 -126 85q-33 66 -33 159q0 96 34 163q43 85 130 85q59 0 98 -47q33 -40 45 -103v138h14v-471zM328 250q0 82 -31 148q-39 83 -114 83 q-77 0 -116 -80q-31 -63 -31 -148t29 -146q38 -80 113 -80q78 0 118 77q32 61 32 146z" />
<glyph unicode="h" d="M325 0h-14v323q0 66 -26 108q-31 50 -93 50q-72 0 -108 -71q-29 -56 -29 -135v-275h-14v678h14v-317q10 61 42 97q37 42 95 42q68 0 103 -52q30 -44 30 -115v-333z" />
<glyph unicode="i" horiz-adv-x="95" d="M55 611q-4 -8 -8 -8t-6 8v67q2 9 6 9q3 0 8 -9v-67zM55 0h-14v488h14v-488z" />
<glyph unicode="j" horiz-adv-x="95" d="M55 611q-4 -8 -8 -8t-6 8v67q2 9 6 9q3 0 8 -9v-67zM53 17q0 -196 -157 -196v18q142 0 142 179v470h15v-471z" />
<glyph unicode="k" horiz-adv-x="372" d="M349 0h-19l-184 289l-91 -95v-194h-14v678h14v-460l254 271l28 -1l-180 -186z" />
<glyph unicode="l" horiz-adv-x="95" d="M55 0h-14v678h14v-678z" />
<glyph unicode="m" horiz-adv-x="572" d="M531 0h-15v323q0 158 -102 158q-62 0 -94 -58q-27 -47 -27 -114v-309h-14v323q0 158 -104 158q-64 0 -96 -76q-24 -57 -24 -130v-275h-14v488h14v-127q8 58 38 95q35 44 89 44q47 0 76 -37q25 -31 33 -81q27 118 122 118q118 0 118 -167v-333z" />
<glyph unicode="n" d="M325 0h-14v323q0 66 -26 108q-31 50 -93 50q-72 0 -108 -71q-29 -56 -29 -135v-275h-14v488h14v-127q10 61 42 97q37 42 95 42q68 0 103 -52q30 -44 30 -115v-333z" />
<glyph unicode="o" horiz-adv-x="381" d="M362 244q0 -100 -36 -168q-46 -87 -136 -87q-89 0 -134 88q-36 70 -36 167q0 99 36 168q46 88 136 88q89 0 134 -88q36 -70 36 -168zM347 244q0 92 -32 155q-41 82 -124 82q-82 0 -124 -82q-32 -63 -32 -155q0 -90 33 -154q42 -82 123 -82t123 82q33 65 33 154z" />
<glyph unicode="p" horiz-adv-x="395" d="M368 246q0 -101 -32 -168q-42 -89 -131 -89q-61 0 -102 48q-34 40 -48 105v-310h-14v656h14v-142q13 65 48 106q40 48 101 48q90 0 132 -88q32 -66 32 -166zM354 245q0 88 -29 152q-38 84 -116 84q-80 0 -121 -81q-33 -65 -33 -152q0 -96 29 -157q39 -83 124 -83 q79 0 117 84q29 64 29 153z" />
<glyph unicode="q" horiz-adv-x="395" d="M349 -168h-15v308q-32 -151 -153 -151q-84 0 -127 92q-34 72 -34 165q0 96 34 165q44 89 129 89q118 0 151 -154v142h15v-656zM335 245q0 88 -33 154q-41 82 -122 82q-78 0 -116 -84q-29 -64 -29 -152q0 -87 30 -152q39 -85 116 -85q85 0 124 81q30 61 30 156z" />
<glyph unicode="r" horiz-adv-x="223" d="M204 481q-85 0 -123 -109q-26 -74 -26 -179v-193h-14v488h14v-184q-1 75 36 131q42 65 113 65v-19z" />
<glyph unicode="s" horiz-adv-x="340" d="M304 122q0 -135 -130 -135q-145 0 -145 181h16q0 -160 130 -160q53 0 83 30.5t30 83.5q0 76 -77 103q-5 2 -72 17q-96 22 -96 123q0 57 31.5 96.5t87.5 39.5q140 0 140 -158h-16q0 137 -120 137q-49 0 -78 -32.5t-29 -82.5q0 -76 77 -97q19 -5 75 -20q93 -24 93 -126z " />
<glyph unicode="t" horiz-adv-x="184" d="M169 441h-70v-441h-14l-1 441h-69v19h69v154h15v-154h70v-19z" />
<glyph unicode="u" d="M325 0h-14v124q-11 -59 -43 -94q-37 -41 -93 -41q-134 0 -134 178v321h14v-320q0 -67 26 -109q31 -51 94 -51q75 0 110 75q26 55 26 140v265h14v-488z" />
<glyph unicode="v" horiz-adv-x="330" d="M324 488l-143 -488h-19l-156 488h18l147 -472l137 472h16z" />
<glyph unicode="w" horiz-adv-x="540" d="M521 488l-136 -488h-19l-93 308l-87 -308h-18l-148 488h17l140 -472l88 320l-47 152h18l139 -472l130 472h16z" />
<glyph unicode="x" horiz-adv-x="327" d="M324 0h-18l-143 238l-142 -238h-18l152 253l-138 235h19l127 -221l130 221h18l-138 -235z" />
<glyph unicode="y" d="M325 17q0 -196 -156 -196q-68 0 -106 44q-35 40 -38 110h15q8 -135 130 -135q141 0 141 178v106q-11 -59 -43 -94q-37 -41 -93 -41q-134 0 -134 178v321h14v-320q0 -67 26 -109q31 -51 94 -51q75 0 110 75q26 55 26 140v265h14v-471z" />
<glyph unicode="z" horiz-adv-x="331" d="M311 0h-291v24l264 445h-244v19h260v-23l-265 -446h276v-19z" />
<glyph unicode="{" horiz-adv-x="245" d="M178 -168h-8q-55 0 -55 95v229q0 72 -19 93q-10 11 -34 26v17q32 19 40 33q13 23 13 85v229q0 95 55 95h8v-19h-7q-28 0 -37 -36q-4 -17 -4 -65v-206q0 -63 -13 -89q-8 -16 -39 -36q31 -20 39 -35q13 -25 13 -90v-205q0 -49 4 -66q9 -36 37 -36h7v-19z" />
<glyph unicode="|" horiz-adv-x="163" d="M89 -32h-15v738h15v-738z" />
<glyph unicode="}" horiz-adv-x="245" d="M62 -168h8q55 0 55 95v229q0 72 19 93q10 11 34 26v17q-32 19 -40 33q-13 23 -13 85v229q0 95 -55 95h-8v-19h7q28 0 37 -36q4 -17 4 -65v-206q0 -63 13 -89q8 -16 39 -36q-31 -20 -39 -35q-13 -25 -13 -90v-205q0 -49 -4 -66q-9 -36 -37 -36h-7v-19z" />
<glyph unicode="~" horiz-adv-x="384" d="M290 355q-7 -4 -24 -4q-18 0 -76.5 38t-71.5 38q-47 0 -56 -77h-22q4 39 22 68q22 36 57 36q16 0 74.5 -38.5t72.5 -38.5q48 0 56 79h22q-2 -28 -16 -58q-16 -34 -38 -43z" />
<glyph unicode="&#xa0;" />
<glyph unicode="&#xa1;" horiz-adv-x="136" d="M60 410h15v-505h-15v505zM61 572q0 11 8 11q7 0 7 -11v-65q0 -10 -7 -10q-8 0 -8 10v65z" />
<glyph unicode="&#xa2;" d="M102 43l144 428q-22 10 -48 10q-85 0 -127 -85q-33 -66 -33 -161q0 -130 64 -192zM288 551l-23 -68q57 -35 73 -121l-13 -10q-15 81 -66 113l-145 -432q33 -25 77 -25q59 0 96 43q33 38 41 99l14 -9q-10 -66 -46 -106q-41 -46 -104 -46q-48 0 -84 26l-18 -51h-14l21 61 q-74 67 -74 210q0 104 36 174q46 91 140 91q28 0 53 -11l21 62h15z" />
<glyph unicode="&#xa4;" horiz-adv-x="409" d="M346 208l-9 -12l-70 90q-30 -34 -70 -34t-69 35l-71 -91l-9 12l70 91q-26 37 -26 88q0 52 27 90l-71 92l9 12l72 -92q29 33 68 33q40 0 68 -33l72 92l9 -12l-71 -92q27 -38 27 -89q0 -52 -26 -90zM289 387q0 47 -22 79q-25 38 -70 38q-42 0 -68 -38q-23 -34 -23 -78 q0 -45 23 -79q26 -39 68 -39q43 0 69 38q23 34 23 79z" />
<glyph unicode="&#xa5;" horiz-adv-x="451" d="M382 129h-148v-129h-15v129h-148v19h148v108h-148v19h148v58l-212 345h18l201 -325l202 325h17l-211 -345v-58h148v-19h-148v-108h148v-19z" />
<glyph unicode="&#xa6;" horiz-adv-x="163" d="M89 380h-15v316h15v-316zM89 -23h-15v316h15v-316z" />
<glyph unicode="&#xa7;" horiz-adv-x="409" d="M339 273q0 -111 -94 -131q83 -28 83 -115q0 -56 -31 -94q-33 -41 -88 -41q-138 0 -138 155h14q0 -136 121 -136q51 0 79 32t28 84q0 75 -64 94l-108 32q-35 16 -54.5 52t-17.5 75q6 102 94 120q-83 28 -83 116q0 57 30 94q33 41 88 41q139 0 139 -156h-14q0 137 -121 137 q-50 0 -79 -32.5t-29 -83.5q0 -58 44 -83q16 -9 92 -31q36 -5 58 -23q51 -32 51 -106zM325 273q-18 112 -128 112q-49 0 -80.5 -26.5t-31.5 -74.5q0 -55 35.5 -90.5t90.5 -35.5q54 0 84 30.5t30 84.5z" />
<glyph unicode="&#xa8;" horiz-adv-x="150" d="M123 559q0 -12 -8 -12q-7 0 -7 12v55q0 10 7 10q8 0 8 -10v-55zM42 559q0 -12 -7 -12q-8 0 -8 12v55q0 10 8 10q7 0 7 -10v-55z" />
<glyph unicode="&#xa9;" horiz-adv-x="392" d="M367 454q0 -84 -41 -146q-47 -72 -127 -72q-82 0 -128 70q-41 61 -41 147q0 83 42 146q47 73 126 73q80 0 127 -72q42 -62 42 -146zM351 453q0 76 -37 133q-43 65 -115 65t-115 -65q-38 -56 -38 -132q0 -75 38 -132q43 -66 114 -66q72 0 115 65q38 56 38 132zM289 412 q-20 -99 -84 -99q-52 0 -79 45q-23 38 -23 93q0 54 22 90q26 43 77 43q76 0 86 -95h-16q-11 74 -70 74q-43 0 -65 -36q-18 -31 -18 -76q0 -47 19 -79q23 -38 67 -38q50 0 67 78h17z" />
<glyph unicode="&#xaa;" horiz-adv-x="265" d="M234 349h-16v65q-26 -72 -87 -72q-53 0 -80 56q-21 43 -21 102q0 60 21 103q27 55 81 55q61 0 86 -70v69h16v-308zM218 500q0 137 -87 137q-46 0 -68 -49q-17 -36 -17 -88t17 -88q22 -49 68 -49t69 48q18 38 18 89z" />
<glyph unicode="&#xab;" horiz-adv-x="274" d="M154 392v-22l-90 -96l90 -97v-19l-104 106v19zM235 392v-22l-89 -96l89 -97v-19l-104 106v19z" />
<glyph unicode="&#xac;" horiz-adv-x="421" d="M378 134h-15v149h-329v19h344v-168z" />
<glyph unicode="&#xae;" horiz-adv-x="380" d="M360 454q0 -85 -40 -147q-47 -71 -128 -71t-128 71q-41 61 -41 146q0 83 42 146q47 73 126 73q80 0 127 -72q42 -63 42 -146zM344 453q0 77 -37 133q-42 65 -115 65q-72 0 -115 -65q-38 -56 -38 -132q0 -77 37 -133q42 -65 115 -65q72 0 115 65q38 56 38 132zM269 511 q0 -46 -25 -64q23 -16 23 -58v-67h-17v66q0 48 -42 48h-62v-114h-16v258h80q59 0 59 -69zM253 510q0 48 -43 48h-64v-100h60q47 0 47 52z" />
<glyph unicode="&#xaf;" horiz-adv-x="219" d="M195 597h-171v19h171v-19z" />
<glyph unicode="&#xb0;" horiz-adv-x="294" d="M251 521q0 -52 -26 -91q-29 -45 -78 -45t-79 44q-26 39 -26 91q0 51 26 90q29 45 78 45q50 0 79 -44q26 -38 26 -90zM238 520q0 46 -22 79q-25 38 -69 38q-42 0 -68 -38q-23 -34 -23 -78q0 -45 23 -79q26 -39 68 -39q44 0 69 38q22 33 22 79z" />
<glyph unicode="&#xb1;" horiz-adv-x="441" d="M362 242h-135v-175h-14v175h-134v19h134v172h14v-172h135v-19zM363 -3h-283v20h283v-20z" />
<glyph unicode="&#xb2;" horiz-adv-x="274" d="M249 256h-224q0 112 97 191l59 48q38 31 38 67q0 79 -80 79q-92 0 -92 -123h-17q0 144 106 144q99 0 99 -102q0 -46 -47 -85l-61 -50q-81 -66 -84 -149h206v-20z" />
<glyph unicode="&#xb3;" horiz-adv-x="298" d="M267 369q0 -53 -30.5 -85t-83.5 -32q-60 0 -92 39q-30 36 -30 97v11h18v-20q0 -47 27 -76.5t74 -29.5q45 0 72.5 25.5t27.5 70.5q0 93 -91 93h-25v21h26q84 0 84 80q0 37 -25 57.5t-63 20.5q-98 0 -98 -116h-17q0 137 114 137q48 0 77 -26t29 -73q0 -72 -55 -91 q61 -21 61 -103z" />
<glyph unicode="&#xb4;" horiz-adv-x="148" d="M120 655l-79 -122q-5 -8 -12 -2q-6 5 0 14l79 123q5 9 12 2q5 -7 0 -15z" />
<glyph unicode="&#xb5;" d="M311 -91q-31 0 -53.5 19.5t-22.5 49.5q0 9 2 18q-21 -7 -46 -7q-110 0 -136 135v-295h-14v659h14v-265q0 -85 26 -140q35 -75 110 -75q63 0 94 51q26 42 26 109v320h14v-321q0 -110 -56 -153q-15 -12 -15 -33q0 -50 57 -50v-22z" />
<glyph unicode="&#xb6;" horiz-adv-x="347" d="M304 -133h-15v792h-60v-792h-15v385q-81 -7 -129 66q-42 62 -42 147q0 83 42 145q48 69 128 69q3 0 5 -1h86v-811z" />
<glyph unicode="&#xb7;" horiz-adv-x="146" d="M90 292q0 -12 -7 -12t-7 12v64q0 11 7 11t7 -11v-64z" />
<glyph unicode="&#xb8;" horiz-adv-x="181" d="M158 -108q0 -66 -72 -66q-26 0 -63 16l6 18q32 -15 55 -15q57 0 57 51q0 35 -42 40q-22 3 -28 -1v5l5 69h15l-1 -55q2 1 11 1q57 0 57 -63z" />
<glyph unicode="&#xb9;" horiz-adv-x="201" d="M146 260h-18v361l-77 -71h-28l108 103h15v-393z" />
<glyph unicode="&#xba;" horiz-adv-x="289" d="M143 350q-56 0 -86 51q-25 42 -25 102q0 61 26 103q31 50 88 50t87 -50q25 -42 25 -103q0 -62 -26 -103q-31 -50 -89 -50zM144 640q-49 0 -76 -46q-23 -38 -23 -91q0 -55 22 -92q26 -45 77 -45t78 45q22 37 22 92t-22 92q-27 45 -78 45z" />
<glyph unicode="&#xbb;" horiz-adv-x="267" d="M131 392v-22l89 -96l-89 -97v-19l104 106v19zM50 392v-22l89 -96l-89 -97v-19l104 106v19z" />
<glyph unicode="&#xbc;" horiz-adv-x="571" d="M529 137h-64v-137h-14v137h-184l106 261h15l-100 -245h163v245l14 -1v-244h64v-16zM388 694l-233 -694h-14l233 694h14zM159 263h-15v363l-79 -73h-22l102 98h14v-388z" />
<glyph unicode="&#xbd;" horiz-adv-x="562" d="M527 0h-220q1 109 90 182l62 51q41 34 41 71q0 82 -81 82q-93 0 -94 -124h-13q1 140 104 140q97 0 97 -100q0 -44 -43 -79q-31 -26 -63 -53q-84 -73 -86 -154h206v-16zM381 694l-233 -694h-15l234 694h14zM151 263h-15v363l-78 -73h-23l102 98h14v-388z" />
<glyph unicode="&#xbe;" horiz-adv-x="634" d="M593 137h-65v-137h-14v137h-184l107 261h15l-100 -245h162v245l14 -1v-244h65v-16zM453 694l-234 -694h-15l234 694h15zM274 369q0 -51 -31.5 -82.5t-82.5 -31.5q-119 0 -119 133v9h14v-18q0 -48 28 -78t75 -30q46 0 74 26.5t28 71.5q0 96 -93 96h-24v16h24q87 0 87 82 q0 81 -90 81q-99 0 -100 -116h-13q1 132 112 132q104 0 104 -97q0 -70 -61 -91q68 -23 68 -103z" />
<glyph unicode="&#xbf;" d="M172 588q0 11 7 11q8 0 8 -11v-65q0 -10 -8 -10q-7 0 -7 10v65zM329 85q-7 -78 -42 -125q-41 -55 -115 -55q-68 0 -106 45t-38 114q0 85 69 166q74 87 74 173v24h16v-19q0 -97 -69 -179q-43 -52 -57 -80q-18 -38 -18 -85q0 -63 34 -101.5t96 -38.5q131 0 143 173z" />
<glyph unicode="&#xc0;" horiz-adv-x="473" d="M456 0h-16l-68 223h-268l-69 -223h-18l214 678h19zM366 242l-125 411l-130 -411h255zM283 731q5 -9 0 -14q-6 -5 -11 2l-80 123q-5 8 1 14q5 7 11 -2z" />
<glyph unicode="&#xc1;" horiz-adv-x="473" d="M456 0h-16l-68 223h-268l-69 -223h-18l214 678h19zM366 242l-125 411l-130 -411h255zM283 844l-79 -123q-5 -8 -11 -2t-1 14l80 123q6 9 11 2q5 -5 0 -14z" />
<glyph unicode="&#xc2;" horiz-adv-x="473" d="M456 0h-16l-68 223h-268l-69 -223h-18l214 678h19zM366 242l-125 411l-130 -411h255zM314 712h-17l-60 116l-60 -116h-15l68 135h15z" />
<glyph unicode="&#xc3;" horiz-adv-x="473" d="M456 0h-16l-68 223h-268l-69 -223h-18l214 678h19zM366 242l-125 411l-130 -411h255zM338 792q-1 -23 -13 -42q-14 -23 -35 -23q-9 0 -48 27.5t-47 27.5q-16 0 -26 -21q-8 -16 -9 -35l-12 12q0 22 14 42.5t35 20.5q8 0 47 -27.5t46 -27.5q16 0 27 21q9 17 9 35z" />
<glyph unicode="&#xc4;" horiz-adv-x="473" d="M456 0h-16l-68 223h-268l-69 -223h-18l214 678h19zM366 242l-125 411l-130 -411h255zM286 733q0 -11 -7 -11t-7 11v55q0 11 7 11t7 -11v-55zM205 733q0 -11 -7 -11q-8 0 -8 11v55q0 11 8 11q7 0 7 -11v-55z" />
<glyph unicode="&#xc5;" horiz-adv-x="473" d="M456 0h-16l-68 223h-268l-69 -223h-18l214 678h19zM366 242l-125 411l-130 -411h255zM237 727q-26 0 -41 25q-13 21 -13 48t13 48q15 25 41 25q27 0 42 -24q13 -20 13 -49t-13 -49q-15 -24 -42 -24zM237 852q-18 0 -28 -16t-10 -36t10 -36t28 -16q39 0 39 52t-39 52z" />
<glyph unicode="&#xc6;" horiz-adv-x="754" d="M428 364zM413 364l1 292l-182 -292h181zM413 0v345h-193l-212 -345h-17l418 678h309v-19h-290v-295h33v-1h220v-18h-253l1 -326h293v-19h-309z" />
<glyph unicode="&#xc7;" horiz-adv-x="503" d="M334 -108q0 -66 -72 -66q-26 0 -64 16l7 18q32 -15 55 -15q56 0 56 51q0 35 -42 40q-22 3 -27 -1v5l5 69h15l-2 -55q3 1 11 1q58 0 58 -63zM461 111q-61 -118 -187 -118q-125 0 -188 114q-50 91 -50 227q0 140 52 234q65 117 193 117q131 0 187 -116l-13 -12 q-50 109 -174 109q-119 0 -181 -110q-50 -89 -50 -218q0 -127 48 -216q59 -110 176 -110q118 0 175 111z" />
<glyph unicode="&#xc8;" horiz-adv-x="395" d="M384 0h-344v678h340v-19h-326v-296h289v-18h-289v-326h330v-19zM243 722q5 -8 -1 -14t-11 2l-79 122q-6 9 1 14q5 7 10 -1z" />
<glyph unicode="&#xc9;" horiz-adv-x="395" d="M384 0h-344v678h340v-19h-326v-296h289v-18h-289v-326h330v-19zM243 832l-79 -122q-5 -8 -11 -2t-1 14l80 123q5 8 11 1q5 -6 0 -14z" />
<glyph unicode="&#xca;" horiz-adv-x="395" d="M384 0h-344v678h340v-19h-326v-296h289v-18h-289v-326h330v-19zM274 722h-18l-60 116l-60 -116h-15l68 135h15z" />
<glyph unicode="&#xcb;" horiz-adv-x="395" d="M384 0h-344v678h340v-19h-326v-296h289v-18h-289v-326h330v-19zM245 741q0 -11 -7 -11q-8 0 -8 11v0v55q0 11 8 11q7 0 7 -11v0v-55zM164 741q0 -11 -7 -11t-7 11v0v55q0 11 7 11t7 -11v0v-55z" />
<glyph unicode="&#xcc;" horiz-adv-x="94" d="M55 0h-15v678h15v-678zM92 737q5 -9 0 -14q-6 -6 -12 2l-79 122q-5 8 1 15q6 6 11 -2z" />
<glyph unicode="&#xcd;" horiz-adv-x="94" d="M55 0h-15v678h15v-678zM92 844l-79 -123q-5 -8 -11 -2t-1 14l79 123q6 9 12 2q5 -6 0 -14z" />
<glyph unicode="&#xce;" horiz-adv-x="94" d="M55 0h-15v678h15v-678zM123 718h-17l-60 116l-61 -116h-14l67 135h15z" />
<glyph unicode="&#xcf;" horiz-adv-x="94" d="M55 0h-15v678h15v-678zM95 749q0 -12 -8 -12q-7 0 -7 12v0v55q0 10 7 10t8 -10v0v-55zM14 749q0 -12 -7 -12q-8 0 -8 12v0v55q0 10 8 10q6 0 7 -10v0v-55z" />
<glyph unicode="&#xd0;" horiz-adv-x="476" d="M40 330h-26v20h26v328h180q126 0 183 -114q43 -86 43 -226q0 -142 -53 -230q-66 -108 -199 -108h-154v330zM193 330h-138v-311h141q126 0 187 102q48 82 48 217q0 321 -211 321h-165v-309h138v-20z" />
<glyph unicode="&#xd1;" horiz-adv-x="476" d="M436 0h-22l-359 657v-657h-15v678h22q57 -111 179.5 -328t179.5 -328v656h15v-678zM333 787q-1 -22 -13 -42q-14 -24 -34 -24q-10 0 -49 27.5t-47 27.5q-16 0 -26 -21q-8 -16 -9 -35l-12 12q0 21 14 42t34 21q9 0 48 -27.5t47 -27.5q16 0 26 21q9 18 9 35z" />
<glyph unicode="&#xd2;" horiz-adv-x="530" d="M507 339q0 -140 -50 -231q-63 -115 -192 -115t-191 115q-50 91 -50 231q0 138 50 226q63 110 191 110q129 0 192 -109q50 -88 50 -227zM492 339q0 131 -47 214q-58 103 -180 103q-120 0 -179 -104q-47 -83 -47 -213q0 -129 48 -217q60 -110 178 -110q121 0 180 109 q47 86 47 218zM311 735q5 -8 -1 -14q-5 -5 -10 2l-80 122q-6 8 0 15t12 -2z" />
<glyph unicode="&#xd3;" horiz-adv-x="530" d="M507 339q0 -140 -50 -231q-63 -115 -192 -115t-191 115q-50 91 -50 231q0 138 50 226q63 110 191 110q129 0 192 -109q50 -88 50 -227zM492 339q0 131 -47 214q-58 103 -180 103q-120 0 -179 -104q-47 -83 -47 -213q0 -129 48 -217q60 -110 178 -110q121 0 180 109 q47 86 47 218zM311 849l-80 -122q-4 -4 -6 -4q-5 0 -7 4q-2 6 2 12l79 123q5 8 12 2q6 -6 0 -15z" />
<glyph unicode="&#xd4;" horiz-adv-x="530" d="M507 339q0 -140 -50 -231q-63 -115 -192 -115t-191 115q-50 91 -50 231q0 138 50 226q63 110 191 110q129 0 192 -109q50 -88 50 -227zM492 339q0 131 -47 214q-58 103 -180 103q-120 0 -179 -104q-47 -83 -47 -213q0 -129 48 -217q60 -110 178 -110q121 0 180 109 q47 86 47 218zM341 730h-17l-60 115l-60 -115h-15l67 134h15z" />
<glyph unicode="&#xd5;" horiz-adv-x="530" d="M507 339q0 -140 -50 -231q-63 -115 -192 -115t-191 115q-50 91 -50 231q0 138 50 226q63 110 191 110q129 0 192 -109q50 -88 50 -227zM492 339q0 131 -47 214q-58 103 -180 103q-120 0 -179 -104q-47 -83 -47 -213q0 -129 48 -217q60 -110 178 -110q121 0 180 109 q47 86 47 218zM362 807q-2 -22 -14 -42q-14 -23 -34 -23q-10 0 -48.5 27.5t-46.5 27.5q-32 0 -36 -56l-12 12q0 21 14.5 42t34.5 21q9 0 48 -27.5t46 -27.5q17 0 27 21q8 16 9 35z" />
<glyph unicode="&#xd6;" horiz-adv-x="530" d="M507 339q0 -140 -50 -231q-63 -115 -192 -115t-191 115q-50 91 -50 231q0 138 50 226q63 110 191 110q129 0 192 -109q50 -88 50 -227zM492 339q0 131 -47 214q-58 103 -180 103q-120 0 -179 -104q-47 -83 -47 -213q0 -129 48 -217q60 -110 178 -110q121 0 180 109 q47 86 47 218zM313 749q0 -12 -7 -12q-8 0 -8 12v0v55q0 10 8 10q6 0 7 -10v0v-55zM232 749q0 -12 -7 -12t-7 12v0v55q0 10 7 10t7 -10v0v-55z" />
<glyph unicode="&#xd7;" horiz-adv-x="343" d="M277 127l-10 -13l-96 123l-95 -121l-10 13l95 123l-94 121l11 14l93 -122l95 122l10 -14l-94 -121z" />
<glyph unicode="&#xd8;" horiz-adv-x="530" d="M158 44l201 592q-41 20 -94 20q-120 0 -179 -104q-47 -83 -47 -213q0 -140 58 -231q28 -43 61 -64zM371 629l-200 -593q41 -24 94 -24q121 0 180 109q47 86 47 218q0 218 -121 290zM397 704l-19 -57q129 -80 129 -308q0 -140 -50 -231q-63 -115 -192 -115q-56 0 -101 24 l-16 -46h-14l18 54q-39 25 -67 68q-61 94 -61 246q0 138 50 226q63 110 191 110q56 0 100 -21l17 50h15z" />
<glyph unicode="&#xd9;" horiz-adv-x="465" d="M424 250q0 -119 -36 -179q-45 -78 -156 -78t-156 79q-36 61 -36 180v426h15v-425q0 -241 177 -241t177 237v429h15v-428zM278 728q5 -8 -1 -15q-5 -5 -11 2l-79 123q-5 8 1 14q5 7 11 -2z" />
<glyph unicode="&#xda;" horiz-adv-x="465" d="M424 250q0 -119 -36 -179q-45 -78 -156 -78t-156 79q-36 61 -36 180v426h15v-425q0 -241 177 -241t177 237v429h15v-428zM278 840l-79 -123q-6 -7 -11 -2q-7 6 -1 15l79 122q6 9 12 2q5 -6 0 -14z" />
<glyph unicode="&#xdb;" horiz-adv-x="465" d="M424 250q0 -119 -36 -179q-45 -78 -156 -78t-156 79q-36 61 -36 180v426h15v-425q0 -241 177 -241t177 237v429h15v-428zM309 720h-17l-61 116l-60 -116h-15l68 135h15z" />
<glyph unicode="&#xdc;" horiz-adv-x="465" d="M424 250q0 -119 -36 -179q-45 -78 -156 -78t-156 79q-36 61 -36 180v426h15v-425q0 -241 177 -241t177 237v429h15v-428zM280 749q0 -12 -7 -12q-8 0 -8 12v0v55q0 10 8 10q7 0 7 -10v0v-55zM199 749q0 -12 -7 -12t-7 12v0v55q0 10 7 10t7 -10v0v-55z" />
<glyph unicode="&#xdd;" horiz-adv-x="460" d="M449 678l-211 -345v-333h-15v333l-212 345h18l201 -325l202 325h17zM276 844l-79 -123q-5 -9 -12 -2q-5 6 0 14l80 123q5 8 11 2q5 -6 0 -14z" />
<glyph unicode="&#xde;" horiz-adv-x="297" d="M55 192l110 1q79 1 79 154q0 158 -80 158h-109v-313zM259 347q0 -172 -95 -172h-109v-175h-14v678h14v-154h110q94 0 94 -177z" />
<glyph unicode="&#xdf;" horiz-adv-x="353" d="M41 408h-25v20h25q0 55 2 115q5 147 123 147q142 0 139 -139q-1 -61 -25 -92q-25 -34 -84 -43q63 -1 104 -81q33 -65 33 -136q0 -102 -40 -160q-48 -69 -145 -69v19q170 0 170 210q0 88 -40 144q-46 65 -130 65v19q67 0 96 17q46 27 46 102q0 68 -29 96.5t-97 28.5 q-109 0 -109 -154v-517h-14v408z" />
<glyph unicode="&#xe0;" horiz-adv-x="386" d="M349 0h-14v141q-41 -152 -153 -152q-86 0 -129 89q-33 69 -33 165q0 97 34 167q44 90 131 90q116 0 150 -153v151h14v-498zM335 243q0 93 -31 156q-40 82 -123 82q-77 0 -116 -85q-31 -67 -31 -153q0 -88 30 -152q39 -83 117 -83t120 83q34 67 34 152zM223 545 q3 -5 1 -11q-2 -5 -6 -5q-3 0 -7 4l-79 122q-6 9 0 15q5 7 11 -2z" />
<glyph unicode="&#xe1;" horiz-adv-x="386" d="M358 0h-15v141q-41 -152 -153 -152q-85 0 -128 89q-33 69 -33 165q0 98 33 167q43 90 131 90q117 0 150 -153v151h15v-498zM343 243q0 94 -30 156q-39 82 -123 82q-78 0 -117 -85q-30 -66 -30 -153q0 -89 29 -152q38 -83 118 -83q78 0 120 83q33 66 33 152zM231 655 l-80 -122q-3 -4 -6 -4q-4 0 -6 4q-3 6 1 12l79 123q6 9 12 2t0 -15z" />
<glyph unicode="&#xe2;" horiz-adv-x="386" d="M358 0h-15v141q-41 -152 -153 -152q-85 0 -128 89q-33 69 -33 165q0 98 33 167q43 90 131 90q117 0 150 -153v151h15v-498zM343 243q0 94 -30 156q-39 82 -123 82q-78 0 -117 -85q-30 -66 -30 -153q0 -89 29 -152q38 -83 118 -83q78 0 120 83q33 66 33 152zM261 540h-17 l-60 115l-60 -115h-15l67 134h15z" />
<glyph unicode="&#xe3;" horiz-adv-x="386" d="M358 0h-15v141q-41 -152 -153 -152q-85 0 -128 89q-33 69 -33 165q0 98 33 167q43 90 131 90q117 0 150 -153v151h15v-498zM343 243q0 94 -30 156q-39 82 -123 82q-78 0 -117 -85q-30 -66 -30 -153q0 -89 29 -152q38 -83 118 -83q78 0 120 83q33 66 33 152zM281 617 q-1 -23 -13 -42q-14 -23 -35 -23q-10 0 -48.5 27.5t-45.5 27.5q-33 0 -36 -56l-12 12q0 21 14 42t34 21q9 0 48 -27.5t46 -27.5q16 0 27 21q9 17 9 35z" />
<glyph unicode="&#xe4;" horiz-adv-x="386" d="M358 0h-15v141q-41 -152 -153 -152q-85 0 -128 89q-33 69 -33 165q0 98 33 167q43 90 131 90q117 0 150 -153v151h15v-498zM343 243q0 94 -30 156q-39 82 -123 82q-78 0 -117 -85q-30 -66 -30 -153q0 -89 29 -152q38 -83 118 -83q78 0 120 83q33 66 33 152zM241 559 q0 -12 -7 -12t-7 12v0v55q0 10 7 10t7 -10v0v-55zM161 559q0 -12 -8 -12q-7 0 -7 12v0v55q0 10 7 10q8 0 8 -10v0v-55z" />
<glyph unicode="&#xe5;" horiz-adv-x="386" d="M358 0h-15v141q-41 -152 -153 -152q-85 0 -128 89q-33 69 -33 165q0 98 33 167q43 90 131 90q117 0 150 -153v151h15v-498zM343 243q0 94 -30 156q-39 82 -123 82q-78 0 -117 -85q-30 -66 -30 -153q0 -89 29 -152q38 -83 118 -83q78 0 120 83q33 66 33 152zM189 554 q-27 0 -42 24q-13 21 -13 49t14.5 50.5t40.5 22.5t41 -25q13 -21 13 -48t-13 -48q-15 -25 -41 -25zM189 679q-39 0 -39 -52t39 -52q38 0 38 52t-38 52z" />
<glyph unicode="&#xe6;" horiz-adv-x="689" d="M668 241l-319 -1v-25q0 -207 151 -207q54 0 92 37q35 34 48 89h16q-14 -64 -53 -103q-42 -42 -105 -42q-112 0 -149 131v-120h-14v141q-41 -152 -153 -152q-86 0 -129 89q-33 69 -33 165q0 97 34 167q44 90 131 90q116 0 150 -153v151h14v-143q11 40 32 72q48 73 120 73 q87 0 131 -79q36 -64 36 -158v-22zM650 259q0 85 -32 146q-39 76 -117 76q-72 0 -115 -70q-37 -59 -37 -136v-16h301zM335 243q0 93 -31 156q-40 82 -123 82q-77 0 -116 -85q-31 -67 -31 -153q0 -88 30 -152q39 -83 117 -83t120 83q34 67 34 152z" />
<glyph unicode="&#xe7;" d="M342 141q-10 -66 -46 -106q-41 -46 -104 -46q-89 0 -133 83q-36 66 -36 163q0 104 36 174q46 91 140 91q57 0 95 -42q34 -37 44 -96l-13 -10q-23 129 -127 129q-85 0 -127 -85q-33 -66 -33 -161q0 -89 32 -150q40 -77 121 -77q59 0 96 43q33 38 41 99zM267 -108 q0 -66 -72 -66q-25 0 -63 16l7 18q32 -15 54 -15q57 0 57 51q0 35 -42 40q-22 3 -27 -1v5l5 69h15l-2 -55q3 1 11 1q57 0 57 -63z" />
<glyph unicode="&#xe8;" d="M352 241l-320 -1q2 -232 151 -232q54 0 92 37q35 34 49 89h15q-13 -65 -51 -103q-42 -42 -106 -42q-91 0 -133 87q-31 64 -31 167q0 97 35 167q45 90 132 90q88 0 132 -79q35 -63 35 -158v-22zM334 259q0 87 -31 146q-39 76 -118 76q-78 0 -118 -76q-32 -59 -35 -146h302 zM230 545q5 -8 -1 -14q-6 -5 -11 2l-80 122q-6 8 1 15q5 7 11 -2z" />
<glyph unicode="&#xe9;" d="M352 241l-320 -1q2 -232 151 -232q54 0 92 37q35 34 49 89h15q-13 -65 -51 -103q-42 -42 -106 -42q-91 0 -133 87q-31 64 -31 167q0 97 35 167q45 90 132 90q88 0 132 -79q35 -63 35 -158v-22zM334 259q0 87 -31 146q-39 76 -118 76q-78 0 -118 -76q-32 -59 -35 -146h302 zM230 657l-80 -122q-4 -4 -7 -4q-7 0 -7 9q0 3 3 7l79 123q5 8 12 2q2 -3 2 -7q0 -3 -2 -8z" />
<glyph unicode="&#xea;" d="M352 241l-320 -1q2 -232 151 -232q54 0 92 37q35 34 49 89h15q-13 -65 -51 -103q-42 -42 -106 -42q-91 0 -133 87q-31 64 -31 167q0 97 35 167q45 90 132 90q88 0 132 -79q35 -63 35 -158v-22zM334 259q0 87 -31 146q-39 76 -118 76q-78 0 -118 -76q-32 -59 -35 -146h302 zM260 540h-17l-60 115l-61 -115h-14l68 134h14z" />
<glyph unicode="&#xeb;" d="M352 241l-320 -1q2 -232 151 -232q54 0 92 37q35 34 49 89h15q-13 -65 -51 -103q-42 -42 -106 -42q-91 0 -133 87q-31 64 -31 167q0 97 35 167q45 90 132 90q88 0 132 -79q35 -63 35 -158v-22zM334 259q0 87 -31 146q-39 76 -118 76q-78 0 -118 -76q-32 -59 -35 -146h302 zM232 559q0 -12 -7 -12t-7 12v0v55q0 10 7 10t7 -10v0v-55zM151 559q0 -12 -7 -12q-8 0 -8 12v0v55q0 10 8 10q7 0 7 -10v0v-55z" />
<glyph unicode="&#xec;" horiz-adv-x="95" d="M55 0h-14v488h14v-488zM93 545q5 -8 -1 -14q-5 -5 -11 2l-79 122q-6 9 1 15q5 6 10 -2z" />
<glyph unicode="&#xed;" horiz-adv-x="95" d="M55 0h-14v488h14v-488zM93 652l-79 -123q-5 -8 -11 -2t-1 14l80 123q6 9 11 2q5 -6 0 -14z" />
<glyph unicode="&#xee;" horiz-adv-x="95" d="M55 0h-14v488h14v-488zM121 540h-17l-56 115l-57 -115h-15l65 134h14z" />
<glyph unicode="&#xef;" horiz-adv-x="95" d="M55 0h-14v488h14v-488zM98 559q0 -12 -8 -12q-7 0 -7 12v0v55q0 10 7 10q8 0 8 -10v0v-55zM17 559q0 -12 -7 -12q-8 0 -8 12v0v55q0 10 8 10q7 0 7 -10v0v-55z" />
<glyph unicode="&#xf0;" horiz-adv-x="395" d="M335 243q0 93 -31 156q-40 82 -123 82q-77 0 -116 -85q-31 -67 -31 -153q0 -88 30 -152q39 -83 117 -83t120 83q34 67 34 152zM335 586h-233v20h233v72h14v-678h-14v141q-41 -152 -153 -152q-86 0 -129 89q-33 69 -33 165q0 97 34 167q44 90 131 90q116 0 150 -153v239z " />
<glyph unicode="&#xf1;" d="M325 0h-14v323q0 66 -26 108q-31 50 -93 50q-72 0 -108 -71q-29 -56 -29 -135v-275h-14v488h14v-127q10 61 42 97q37 42 95 42q68 0 103 -52q30 -44 30 -115v-333zM281 617q-1 -22 -13 -42q-14 -23 -34 -23q-10 0 -49 27.5t-46 27.5q-17 0 -27 -21q-8 -16 -8 -35l-13 12 q0 20 14.5 41.5t33.5 21.5q9 0 48 -27.5t47 -27.5q16 0 26 21q9 18 9 35z" />
<glyph unicode="&#xf2;" horiz-adv-x="381" d="M362 244q0 -100 -36 -168q-46 -87 -136 -87q-89 0 -134 88q-36 70 -36 167q0 99 36 168q46 88 136 88q89 0 134 -88q36 -70 36 -168zM347 244q0 92 -32 155q-41 82 -124 82q-82 0 -124 -82q-32 -63 -32 -155q0 -90 33 -154q42 -82 123 -82t123 82q33 65 33 154zM237 545 q3 -5 1 -11q-2 -5 -6 -5q-3 0 -7 4l-79 122q-6 9 0 15q5 7 11 -2z" />
<glyph unicode="&#xf3;" horiz-adv-x="381" d="M362 244q0 -100 -36 -168q-46 -87 -136 -87q-89 0 -134 88q-36 70 -36 167q0 99 36 168q46 88 136 88q89 0 134 -88q36 -70 36 -168zM347 244q0 92 -32 155q-41 82 -124 82q-82 0 -124 -82q-32 -63 -32 -155q0 -90 33 -154q42 -82 123 -82t123 82q33 65 33 154zM237 652 l-80 -123q-5 -8 -11 -2t-1 14l80 123q6 9 12 2q5 -6 0 -14z" />
<glyph unicode="&#xf4;" horiz-adv-x="381" d="M362 244q0 -100 -36 -168q-46 -87 -136 -87q-89 0 -134 88q-36 70 -36 167q0 99 36 168q46 88 136 88q89 0 134 -88q36 -70 36 -168zM347 244q0 92 -32 155q-41 82 -124 82q-82 0 -124 -82q-32 -63 -32 -155q0 -90 33 -154q42 -82 123 -82t123 82q33 65 33 154zM267 540 h-16l-61 115l-61 -115h-14l68 134h14z" />
<glyph unicode="&#xf5;" horiz-adv-x="381" d="M362 244q0 -100 -36 -168q-46 -87 -136 -87q-89 0 -134 88q-36 70 -36 167q0 99 36 168q46 88 136 88q89 0 134 -88q36 -70 36 -168zM347 244q0 92 -32 155q-41 82 -124 82q-82 0 -124 -82q-32 -63 -32 -155q0 -90 33 -154q42 -82 123 -82t123 82q33 65 33 154zM286 617 q-2 -23 -13 -42q-13 -23 -34 -23q-10 0 -49.5 27.5t-45.5 27.5q-17 0 -27 -21q-8 -16 -9 -35l-12 12q0 22 14 42.5t35 20.5q8 0 47 -27.5t47 -27.5q30 0 36 56z" />
<glyph unicode="&#xf6;" horiz-adv-x="381" d="M362 244q0 -100 -36 -168q-46 -87 -136 -87q-89 0 -134 88q-36 70 -36 167q0 99 36 168q46 88 136 88q89 0 134 -88q36 -70 36 -168zM347 244q0 92 -32 155q-41 82 -124 82q-82 0 -124 -82q-32 -63 -32 -155q0 -90 33 -154q42 -82 123 -82t123 82q33 65 33 154zM239 559 q0 -12 -7 -12q-8 0 -8 12v0v55q0 10 8 10q7 0 7 -10v0v-55zM158 559q0 -12 -8 -12q-7 0 -7 12v0v55q0 10 7 10q8 0 8 -10v0v-55z" />
<glyph unicode="&#xf7;" horiz-adv-x="414" d="M369 231h-334v19h334v-19zM215 85q0 -11 -8 -11q-7 0 -7 11v65q0 11 7 11q8 0 8 -11v-65zM215 323q0 -11 -8 -11q-7 0 -7 11v65q0 10 7 10q8 0 8 -10v-65z" />
<glyph unicode="&#xf8;" horiz-adv-x="381" d="M110 36l145 429q-29 16 -64 16q-82 0 -124 -82q-32 -63 -32 -155q0 -98 39 -164q16 -27 36 -44zM267 456l-145 -428q30 -20 69 -20q81 0 123 82q33 65 33 154q0 98 -39 164q-18 31 -41 48zM298 549l-24 -75q25 -18 45 -51q43 -70 43 -179q0 -100 -36 -168 q-46 -87 -136 -87q-42 0 -74 20l-19 -56h-14l21 64q-84 68 -84 227q0 99 36 168q46 88 136 88q38 0 69 -17l22 66h15z" />
<glyph unicode="&#xf9;" d="M325 0h-14v124q-11 -59 -43 -94q-37 -41 -93 -41q-134 0 -134 178v321h14v-320q0 -67 26 -109q31 -51 94 -51q75 0 110 75q26 55 26 140v265h14v-488zM230 541q5 -8 -1 -14q-6 -5 -11 2l-79 123q-5 9 0 14q5 7 11 -2z" />
<glyph unicode="&#xfa;" d="M325 0h-14v124q-11 -59 -43 -94q-37 -41 -93 -41q-134 0 -134 178v321h14v-320q0 -67 26 -109q31 -51 94 -51q75 0 110 75q26 55 26 140v265h14v-488zM230 655l-80 -122q-5 -8 -11 -2q-5 5 0 14l79 123q5 9 12 2q6 -7 0 -15z" />
<glyph unicode="&#xfb;" d="M325 0h-14v124q-11 -59 -43 -94q-37 -41 -93 -41q-134 0 -134 178v321h14v-320q0 -67 26 -109q31 -51 94 -51q75 0 110 75q26 55 26 140v265h14v-488zM260 540h-17l-60 115l-61 -115h-14l68 134h14z" />
<glyph unicode="&#xfc;" d="M325 0h-14v124q-11 -59 -43 -94q-37 -41 -93 -41q-134 0 -134 178v321h14v-320q0 -67 26 -109q31 -51 94 -51q75 0 110 75q26 55 26 140v265h14v-488zM232 559q0 -12 -8 -12q-7 0 -7 12v0v55q0 10 7 10q8 0 8 -10v0v-55zM150 559q0 -12 -7 -12t-7 12v0v55q0 10 7 10 t7 -10v0v-55z" />
<glyph unicode="&#xfd;" horiz-adv-x="354" d="M325 17q0 -196 -156 -196q-68 0 -106 44q-35 40 -38 110h15q8 -135 130 -135q141 0 141 178v106q-11 -59 -43 -94q-37 -41 -93 -41q-134 0 -134 178v321h14v-320q0 -67 26 -109q31 -51 94 -51q75 0 110 75q26 55 26 140v265h14v-471zM223 657l-80 -122q-3 -4 -6 -4 q-4 0 -7 5q-3 6 2 11l79 123q5 8 12 2q2 -3 2 -7q0 -3 -2 -8z" />
<glyph unicode="&#xfe;" horiz-adv-x="395" d="M368 246q0 -101 -32 -168q-42 -89 -131 -89q-61 0 -102 48q-34 40 -48 105v-310h-14v846h14v-332q13 65 48 106q40 48 101 48q90 0 132 -88q32 -66 32 -166zM354 245q0 88 -29 152q-38 84 -116 84q-80 0 -121 -81q-33 -65 -33 -152q0 -96 29 -157q39 -83 124 -83 q79 0 117 84q29 64 29 153z" />
<glyph unicode="&#xff;" horiz-adv-x="357" d="M325 17q0 -196 -156 -196q-68 0 -106 44q-35 40 -38 110h15q8 -135 130 -135q141 0 141 178v106q-11 -59 -43 -94q-37 -41 -93 -41q-134 0 -134 178v321h14v-320q0 -67 26 -109q31 -51 94 -51q75 0 110 75q26 55 26 140v265h14v-471zM227 559q0 -12 -8 -12q-7 0 -7 12v0 v55q0 10 7 10t8 -10v0v-55zM146 559q0 -12 -7 -12q-8 0 -8 12v0v55q0 10 8 10q6 0 7 -10v0v-55z" />
<glyph unicode="&#x131;" horiz-adv-x="95" d="M55 0h-14v488h14v-488z" />
<glyph unicode="&#x152;" horiz-adv-x="707" d="M680 0h-351q-29 -8 -61 -8q-126 0 -190 115q-51 92 -51 230q0 139 50 231q63 115 191 115q23 0 46 -5h362v-19h-310q43 -24 77 -71q62 -87 66 -225h145v-18h-144v-8q0 -156 -67 -251q-30 -43 -71 -67h308v-19zM494 363q-4 130 -61 212q-37 54 -90 75v-287h151zM495 337v8 h-152v-320q52 22 90 76q62 90 62 236zM329 20v635q-29 9 -61 9q-119 0 -179 -110q-48 -88 -48 -217q0 -130 48 -218q60 -109 179 -109q32 0 61 10z" />
<glyph unicode="&#x153;" horiz-adv-x="736" d="M364 244q0 92 -32 155q-41 82 -124 82q-82 0 -124 -82q-32 -63 -32 -155q0 -89 33 -154q42 -82 123 -82t123 82q33 64 33 154zM699 241l-319 -1q2 -232 151 -232q54 0 92 37q35 34 49 89h15q-13 -64 -52 -103q-42 -42 -105 -42q-132 0 -158 174q-12 -59 -41 -103 q-47 -71 -124 -71q-89 0 -134 88q-36 70 -36 167q0 99 36 168q46 88 136 88q70 0 114 -57q36 -47 49 -123q12 62 41 107q47 73 120 73q88 0 131 -79q35 -63 35 -158v-22zM681 259q0 86 -31 146q-39 76 -117 76q-77 0 -118 -77q-32 -60 -35 -145h301z" />
<glyph unicode="&#x160;" horiz-adv-x="449" d="M415 165q0 -81 -51 -126.5t-133 -45.5q-102 0 -154 59t-52 162v10h15v-6q0 -206 192 -206q77 0 122.5 40t45.5 116q0 53 -17 83q-19 34 -65 53q-19 8 -100 34q-43 14 -62 21q-36 13 -57 30q-58 45 -58 130q0 166 177 166q185 0 187 -197h-14q-4 90 -43 133 q-42 45 -130 45q-163 0 -163 -147q0 -74 47 -111q30 -23 100 -42q114 -30 152 -59q61 -46 61 -142zM299 874l-69 -135h-15l-68 135h15l60 -116l60 116h17z" />
<glyph unicode="&#x161;" horiz-adv-x="340" d="M304 122q0 -135 -130 -135q-145 0 -145 181h16q0 -160 130 -160q53 0 83 30.5t30 83.5q0 76 -77 103q-5 2 -72 17q-96 22 -96 123q0 57 31.5 96.5t87.5 39.5q140 0 140 -158h-16q0 137 -120 137q-49 0 -78 -32.5t-29 -82.5q0 -76 77 -97q5 -1 75 -20q93 -25 93 -126z M245 684l-70 -135h-15l-68 135h15l60 -116l60 116h18z" />
<glyph unicode="&#x178;" horiz-adv-x="464" d="M451 678l-211 -345v-333h-15v333l-212 345h18l201 -325l202 325h17zM283 749q0 -12 -7 -12t-7 12v0v55q0 10 7 10t7 -10v0v-55zM202 749q0 -12 -7 -12t-7 12v0v55q0 10 7 10t7 -10v0v-55z" />
<glyph unicode="&#x192;" horiz-adv-x="409" d="M-20 -168l3 18q134 0 165 149v0l69 416h-51l4 20h50q4 20 9 49q31 182 185 182l-2 -18q-138 0 -168 -164l-9 -49h77l-3 -20h-77l-66 -401q-30 -182 -186 -182z" />
<glyph unicode="&#x2c6;" horiz-adv-x="181" d="M167 540h-17l-60 115l-61 -115h-14l67 134h15z" />
<glyph unicode="&#x2c7;" horiz-adv-x="95" d="M121 684l-70 -135h-15l-67 135h15l60 -116l60 116h17z" />
<glyph unicode="&#x2da;" horiz-adv-x="95" d="M45 569q-26 0 -41 23t-15 50t15 50t41 23t41 -25q13 -21 13 -48t-13 -48q-15 -25 -41 -25zM45 694q-39 0 -39 -52t39 -52t39 52t-39 52z" />
<glyph unicode="&#x2dc;" horiz-adv-x="256" d="M223 617q-2 -24 -13 -42q-14 -23 -35 -23q-9 0 -48 27.5t-47 27.5q-16 0 -26 -21q-8 -16 -9 -35l-12 12q0 20 14.5 41.5t33.5 21.5q9 0 48 -27.5t46 -27.5q16 0 27 21q9 17 9 35z" />
<glyph unicode="&#x3bc;" horiz-adv-x="409" />
<glyph unicode="&#x2013;" horiz-adv-x="346" d="M345 254h-345v20h345v-20z" />
<glyph unicode="&#x2014;" horiz-adv-x="626" d="M624 254h-624v20h624v-20z" />
<glyph unicode="&#x2018;" horiz-adv-x="122" d="M85 664l-30 -155q-2 -11 -9 -8q-7 2 -5 13l30 155q2 10 9 8t5 -13z" />
<glyph unicode="&#x2019;" horiz-adv-x="122" d="M85 664l-29 -155q-2 -10 -10 -8q-7 2 -5 13l30 155q2 11 9 8q7 -2 5 -13z" />
<glyph unicode="&#x201a;" horiz-adv-x="204" d="M112 73v0l-29 -155q-2 -11 -10 -8q-6 2 -6 8q0 2 1 5v0l30 155q2 11 8 8q8 -2 6 -13z" />
<glyph unicode="&#x201c;" horiz-adv-x="187" d="M159 664l-30 -155q-2 -11 -9 -8q-7 2 -5 13l29 155q2 10 9 8q8 -2 6 -13zM85 664l-30 -155q-2 -11 -9 -8q-7 2 -5 13l30 155q2 10 9 8t5 -13z" />
<glyph unicode="&#x201d;" horiz-adv-x="193" d="M159 664l-30 -155q-1 -10 -9 -8q-7 2 -5 13l30 155q2 11 8 8q8 -2 6 -13zM85 664l-29 -155q-2 -10 -10 -8q-7 2 -5 13l30 155q2 11 9 8q7 -2 5 -13z" />
<glyph unicode="&#x201e;" horiz-adv-x="246" d="M112 73v0l-29 -155q-2 -11 -10 -8q-6 2 -6 8q0 2 1 5v0l30 155q2 11 8 8q8 -2 6 -13zM185 73v0l-29 -155q-2 -11 -10 -8q-5 2 -5 8v5l30 155q2 11 9 8q8 -2 5 -13z" />
<glyph unicode="&#x2020;" horiz-adv-x="241" d="M205 472h-83v-529h-14v529h-82v20h82v129h14v-129h83v-20z" />
<glyph unicode="&#x2021;" horiz-adv-x="236" d="M208 45h-82v-102h-15v102h-82v20h82v407h-82v20h82v129h15v-129h82v-20h-82v-407h82v-20z" />
<glyph unicode="&#x2022;" horiz-adv-x="204" d="M131 261q0 -11 -46 -11q-47 0 -47 11v128q0 11 47 11q46 0 46 -11v-128z" />
<glyph unicode="&#x2026;" horiz-adv-x="447" d="M109 9q0 -11 -7 -11q-8 0 -8 11v65q0 11 8 11q7 0 7 -11v-65zM241 9q0 -11 -7 -11t-7 11v65q0 11 7 11t7 -11v-65zM374 9q0 -11 -7 -11q-8 0 -8 11v65q0 11 8 11q7 0 7 -11v-65z" />
<glyph unicode="&#x2030;" horiz-adv-x="708" d="M687 154q0 -173 -95 -173q-93 0 -93 173q0 178 94 178t94 -178zM431 678l-333 -678h-18l334 678h17zM473 154q0 -173 -94 -173q-93 0 -93 173q0 178 94 178q93 0 93 -178zM215 480q0 -172 -95 -172q-93 0 -93 172q0 177 94 177t94 -177zM671 154q0 159 -79 159 q-78 0 -78 -159q0 -154 79 -154q78 0 78 154zM458 154q0 159 -79 159q-78 0 -78 -159q0 -154 79 -154q78 0 78 154zM199 480q0 158 -79 158q-77 0 -77 -158q0 -154 78 -154t78 154z" />
<glyph unicode="&#x2039;" horiz-adv-x="206" d="M154 392v-22l-90 -96l90 -97v-19l-104 106v19z" />
<glyph unicode="&#x203a;" horiz-adv-x="206" d="M50 392v-22l89 -96l-89 -97v-19l104 106v19z" />
<glyph unicode="&#x20ac;" horiz-adv-x="409" d="M279 253h-187v-10q0 -90 33 -154q42 -82 123 -82q70 0 114 65l10 -13q-47 -71 -123 -71q-90 0 -135 87q-36 69 -36 168v10h-52l2 19h50v108h-35l2 19h33v16q0 99 36 168q45 88 135 88q76 0 123 -71l-10 -14q-44 66 -114 66q-82 0 -123 -82q-33 -65 -33 -155v-16h206 l-3 -19h-203v-108h189z" />
<glyph unicode="&#x2122;" horiz-adv-x="552" d="M257 663q1 -36 1 -316h-17v316h-83v-316h-17v316h-104v21h230l112 -307l111 307h26v-337h-18v311l-110 -311h-16z" />
<glyph unicode="&#x2212;" horiz-adv-x="414" d="M369 231h-334v19h334v-19z" />
<glyph unicode="&#xe000;" horiz-adv-x="490" d="M0 490h490v-490h-490v490z" />
<glyph horiz-adv-x="248" />
<glyph horiz-adv-x="248" />
<glyph horiz-adv-x="248" />
<glyph horiz-adv-x="248" />
<glyph horiz-adv-x="248" />
<glyph horiz-adv-x="248" />
<glyph horiz-adv-x="204" />
<glyph horiz-adv-x="204" />
<glyph horiz-adv-x="204" />
<glyph horiz-adv-x="204" />
<glyph horiz-adv-x="204" />
<glyph horiz-adv-x="204" />
<glyph horiz-adv-x="204" />
<glyph horiz-adv-x="204" />
<glyph horiz-adv-x="204" />
<glyph horiz-adv-x="204" />
<glyph horiz-adv-x="204" />
<glyph horiz-adv-x="204" />
<glyph horiz-adv-x="204" />
<glyph horiz-adv-x="204" />
<glyph horiz-adv-x="204" />
<glyph horiz-adv-x="294" d="M398 447l-14 1q0 46 -22 79q-25 38 -69 38t-69 -39q-22 -34 -22 -80q0 -50 -27 -90q-30 -45 -78 -45q-49 0 -79 45q-26 39 -26 90h14q0 -46 22 -79q25 -38 69 -38t69 38q22 33 22 79q0 69 44 111q28 26 61 26q50 0 79 -45q26 -39 26 -91z" />
<glyph horiz-adv-x="245" d="M230 392h-65v-136h-17v136h-184l107 266h19l-100 -245h158v245l17 -1v-244h65v-21z" />
</font>
</defs>
</svg>
