<?xml version="1.0" standalone="no"?>
<!DOCTYPE svg PUBLIC "-//W3C//DTD SVG 1.1//EN" "http://www.w3.org/Graphics/SVG/1.1/DTD/svg11.dtd" >
<svg xmlns="http://www.w3.org/2000/svg">
<metadata></metadata>
<defs>
<font id="walkway_condensed_boldregular" horiz-adv-x="367" >
<font-face units-per-em="1000" ascent="800" descent="-200" />
<missing-glyph horiz-adv-x="248" />
<glyph horiz-adv-x="0" />
<glyph unicode="&#xd;" horiz-adv-x="248" />
<glyph unicode=" "  horiz-adv-x="248" />
<glyph unicode="&#x09;" horiz-adv-x="248" />
<glyph unicode="&#xa0;" horiz-adv-x="248" />
<glyph unicode="!" horiz-adv-x="136" d="M46 166v512h45v-512h-45zM68 0q-23 0 -23 25v62q0 24 23 24q22 0 22 -24v-62q0 -25 -22 -25z" />
<glyph unicode="&#x22;" horiz-adv-x="204" d="M142 547q-23 0 -23 22v82q0 21 23 21q22 0 22 -21v-82q0 -22 -22 -22zM61 547q-22 0 -22 22v82q0 21 22 21q23 0 23 -21v-82q0 -22 -23 -22z" />
<glyph unicode="#" horiz-adv-x="372" d="M327 350h-63l-12 -71h62l-8 -45h-62l-13 -73h-46l13 73h-53l-13 -73h-46l14 73h-63l8 45h62l14 71h-63l8 45h62l14 73h45l-13 -73h53l13 73h44l-12 -73h63zM166 350l-13 -71h53l13 71h-53z" />
<glyph unicode="$" horiz-adv-x="449" d="M295 -9v-61h-45v53q-9 -1 -19 -1q-20 0 -39 3v-55h-45v64q-137 47 -137 225v24h45v-21q0 -139 92 -178v302q-121 44 -121 167q0 139 121 175v65h45v-58q12 1 26 1q17 0 32 -2v59h45v-68q124 -40 125 -217h-43q-7 133 -82 167v-282q66 -24 94 -53q41 -43 41 -129 q0 -65 -36 -114t-99 -66zM250 647q-15 2 -32 2q-14 0 -26 -2v-264l58 -16v280zM147 637q-77 -30 -77 -124q0 -81 77 -115v239zM370 249q-18 29 -75 52v-261q90 31 90 134q0 53 -15 75zM250 316l-58 16v-299q19 -3 40 -3q9 0 18 1v285z" />
<glyph unicode="%" horiz-adv-x="525" d="M133 294q-108 0 -108 180q0 184 109 184q108 0 108 -184q0 -180 -109 -180zM120 -1h-51l349 679h50zM392 -19q-109 0 -109 180q0 185 110 185q108 0 108 -185q0 -180 -109 -180zM133 611q-63 0 -63 -137q0 -133 64 -133q63 0 63 133q0 137 -64 137zM392 299 q-63 0 -63 -138q0 -133 64 -133q62 0 62 133q0 138 -63 138z" />
<glyph unicode="&#x26;" horiz-adv-x="422" d="M336 84q-57 -100 -149 -100q-75 0 -122.5 50t-47.5 123q0 71 44 131q32 44 101 94q-82 61 -82 162q0 55 31 92q34 42 91 42q60 0 93 -41q30 -37 30 -95q0 -95 -134 -196q-64 -48 -89 -79q-40 -50 -40 -110q0 -53 33.5 -89.5t87.5 -36.5q86 0 128 107q25 63 25 142h44 v-299h-44v103zM204 631q-37 0 -58 -25t-21 -63q0 -85 75 -134q80 66 80 134q0 37 -19.5 62.5t-56.5 25.5z" />
<glyph unicode="'" horiz-adv-x="122" d="M61 547q-22 0 -22 22v82q0 21 22 21q23 0 23 -21v-82q0 -22 -23 -22z" />
<glyph unicode="(" horiz-adv-x="163" d="M126 -168q-91 200 -91 451q0 252 91 451h47q-94 -202 -94 -451t94 -451h-47z" />
<glyph unicode=")" horiz-adv-x="163" d="M34 -168h-49q98 202 98 451t-98 451h49q94 -196 94 -451q0 -254 -94 -451z" />
<glyph unicode="*" horiz-adv-x="238" d="M50 624h2l38 -25v50q0 23 23 23q22 0 22 -23v-50q41 26 48 26q13 0 20 -12q7 -19 -9 -29l-41 -26q15 -10 30 -19q22 -15 22 -29q0 -21 -20 -21q-9 0 -50 27v-50q0 -23 -22 -23q-23 0 -23 23v50q-40 -27 -50 -27q-20 0 -20 21q0 14 22 29q15 10 30 19l-42 27q-10 7 -10 18 q0 22 21 22q4 0 9 -1z" />
<glyph unicode="+" horiz-adv-x="392" d="M218 228v-161h-45v161h-133v46h133v159h45v-159h134v-46h-134z" />
<glyph unicode="," horiz-adv-x="183" d="M100 -73q-4 -18 -20 -18q-9 0 -17.5 6.5t-8.5 14.5q0 3 1 8l23 108q10 41 26 41q4 0 9 -2q20 -5 16 -26z" />
<glyph unicode="-" horiz-adv-x="245" d="M21 254v20h210v-20h-210z" />
<glyph unicode="." horiz-adv-x="146" d="M73 -2q-22 0 -22 20v47q0 20 22 20t22 -20v-47q0 -20 -22 -20z" />
<glyph unicode="/" horiz-adv-x="245" d="M27 0h-47l244 694h47z" />
<glyph unicode="0" horiz-adv-x="409" d="M353 79q-48 -91 -148 -91q-99 0 -148 90q-38 70 -38 169v164q0 99 38 169q50 91 148 91q100 0 148 -92q36 -68 36 -168v-164q0 -101 -36 -168zM345 411q0 82 -30 140q-37 73 -111 73t-111 -73q-30 -58 -30 -140v-164q0 -81 30 -139q38 -73 111 -73q75 0 112 73 q29 56 29 139v164z" />
<glyph unicode="1" horiz-adv-x="289" d="M187 0v564l-86 -97h-61l155 179h37v-646h-45z" />
<glyph unicode="2" horiz-adv-x="409" d="M26 0q0 187 143 307q25 20 98 80q60 49 60 105q0 55 -29.5 86.5t-85.5 31.5q-133 0 -133 -195h-45q0 108 34 166q45 76 140 76q80 0 123 -47q40 -43 40 -120q0 -67 -73 -138q-64 -53 -127 -106q-91 -98 -98 -199h319v-47h-366z" />
<glyph unicode="3" horiz-adv-x="409" d="M208 -11q-99 0 -150 69q-44 59 -44 155v24h44v-37q0 -71 36 -115q40 -49 111 -49q67 0 106 40.5t39 105.5q0 141 -132 141h-47v47h48q121 0 121 122q0 55 -34 86.5t-92 31.5q-142 0 -142 -184h-44q0 109 40 164q47 67 144 67q81 0 127 -43.5t46 -121.5q0 -107 -75 -144 q84 -40 84 -166q0 -85 -50.5 -139t-135.5 -54z" />
<glyph unicode="4" horiz-adv-x="409" d="M308 215v-215h-44v215h-262l156 432h46l-139 -385h199v386l44 -3v-383h91v-47h-91z" />
<glyph unicode="5" horiz-adv-x="409" d="M202 -11q-99 0 -148 69q-42 59 -42 168h45q0 -190 145 -190q73 0 111 57q31 48 31 125q0 75 -34 125q-40 57 -113 57q-83 0 -126 -95h-43l9 341h331v-47h-285l-7 -206q48 54 123 54q95 0 146 -73q44 -63 44 -155q0 -96 -44 -159q-51 -71 -143 -71z" />
<glyph unicode="6" horiz-adv-x="409" d="M336 426q0 82 -32 130q-35 53 -98 53q-67 0 -102 -53q-29 -45 -29 -115l-1 -85q47 61 130 61q87 0 134 -69q40 -59 40 -144q0 -84 -41 -142q-48 -68 -135 -68t-134 68q-40 58 -40 142v11q1 3 1 8v220q0 86 41 143q48 67 136 67q89 0 136 -70q38 -57 38 -157h-44zM203 373 q-67 0 -102 -54q-29 -45 -29 -115q0 -68 30 -113q36 -54 101 -54t101 54q30 45 30 113q0 71 -30 116q-34 53 -101 53z" />
<glyph unicode="7" horiz-adv-x="409" d="M159 0h-46l214 599h-296v47h359z" />
<glyph unicode="8" horiz-adv-x="421" d="M211 -11q-96 0 -147 55q-50 52 -50 144q0 128 97 168q-72 40 -72 129q0 172 172 172q83 0 127 -46t44 -126q0 -89 -72 -129q96 -38 96 -170q0 -92 -50 -144.5t-145 -52.5zM211 610q-127 0 -127 -126q0 -49 37 -78.5t90 -29.5q54 0 90.5 29.5t36.5 80.5q0 124 -127 124z M211 329q-152 0 -152 -142q0 -71 39 -111t113 -40q151 0 151 151q0 142 -151 142z" />
<glyph unicode="9" horiz-adv-x="409" d="M202 -15q-88 0 -135 69q-39 58 -39 156h44q0 -83 32 -130q35 -52 99 -52q65 0 101 54q30 46 30 114v104q-46 -60 -129 -60q-87 0 -134 68q-40 57 -40 142q0 84 41 143q48 69 134 69q88 0 135 -68q39 -58 39 -144v-256q0 -88 -44 -145q-49 -64 -134 -64zM206 619 q-67 0 -102 -54q-29 -45 -29 -115q0 -68 30 -114q36 -53 101 -53q66 0 101 53q29 45 29 114q0 70 -29 115q-35 54 -101 54z" />
<glyph unicode=":" horiz-adv-x="171" d="M86 355q-23 0 -23 24v61q0 25 23 25q20 0 22 -24v-62q0 -24 -22 -24zM86 -2q-23 0 -23 25v61q0 24 23 24q20 0 22 -24v-61q0 -25 -22 -25z" />
<glyph unicode=";" horiz-adv-x="176" d="M100 354q-23 0 -23 25v61q0 25 23 25q22 0 22 -25v-61q0 -25 -22 -25zM95 -71q-5 -21 -18 -21q-9 0 -18 8.5t-9 15.5q0 3 1 8l23 121q10 46 26 46q4 0 9 -2q20 -6 16 -29z" />
<glyph unicode="&#x3c;" horiz-adv-x="374" d="M19 222v37l331 183v-52l-273 -150l273 -150v-52z" />
<glyph unicode="=" horiz-adv-x="441" d="M20 271v42h401v-42h-401zM20 167v42h401v-42h-401z" />
<glyph unicode="&#x3e;" horiz-adv-x="374" d="M19 38v52l272 150l-272 150v52l331 -183v-37z" />
<glyph unicode="?" d="M201 203v-37h-45v32q0 98 72 180q39 46 52 69q19 36 19 81q0 54 -29.5 86.5t-84.5 32.5q-59 0 -90 -40q-34 -42 -41 -140l-42 34q8 83 46 133q45 60 127 60q75 0 118 -49q41 -45 41 -117q0 -86 -71.5 -167t-71.5 -158zM178 0q-22 0 -22 25v62q0 24 22 24t22 -24v-62 q0 -25 -22 -25z" />
<glyph unicode="@" horiz-adv-x="588" d="M421 188q15 0 34 24q15 19 23 37q37 80 37 151q0 99 -52 170q-59 79 -155 79q-113 0 -178 -101q-57 -88 -57 -208q0 -118 57 -205q65 -100 177 -100q62 0 118.5 39.5t84.5 105.5h50q-36 -90 -104.5 -140.5t-144.5 -50.5q-138 0 -218 120q-67 101 -67 236q0 137 69 237 q78 113 210 113q119 0 190 -91q65 -84 65 -206q0 -95 -46 -181q-15 -28 -39 -50q-30 -29 -59 -29q-38 0 -36 53q-48 -66 -123 -67q-72 -1 -109 62q-28 50 -28 121q0 27 1 38q8 87 45 145q48 76 133 77q76 2 110 -61l6 61h43l-36 -372q1 -4 0 -6q0 -1 -1 -1zM295 523 q-66 -1 -102 -75q-31 -62 -31 -139q0 -56 20 -94q25 -48 76 -47q68 1 107 80q31 62 31 135q0 141 -101 140z" />
<glyph unicode="A" horiz-adv-x="445" d="M415 0l-68 213h-246l-69 -213h-50l224 678h41l215 -678h-47zM227 591l-109 -330h214z" />
<glyph unicode="B" horiz-adv-x="449" d="M251 0h-232v678h241q80 0 124 -53q39 -48 39 -125q0 -98 -79 -144q94 -38 94 -167q0 -86 -48.5 -137.5t-138.5 -51.5zM259 631h-195v-255h194q58 0 90 37q30 34 30 92q0 57 -31 91.5t-88 34.5zM257 329h-193v-282h196q65 0 100 40q34 37 34 101q0 67 -35 104t-102 37z " />
<glyph unicode="C" horiz-adv-x="503" d="M450 524q-55 114 -169 114q-110 0 -168 -98q-48 -82 -48 -202q0 -117 44 -197q56 -101 165 -101t171 116l34 -33q-70 -130 -205 -130q-134 0 -201 117q-52 90 -52 224q0 138 54 231q69 120 206 120q140 0 205 -129z" />
<glyph unicode="D" horiz-adv-x="476" d="M405 109q-70 -109 -211 -109h-169v678h195q135 0 196 -116q45 -86 45 -224q0 -140 -56 -229zM220 631h-150v-584h126q119 0 175 92q45 75 45 199q0 293 -196 293z" />
<glyph unicode="E" horiz-adv-x="395" d="M25 0v678h370v-47h-326v-255h289v-46h-289v-283h330v-47h-374z" />
<glyph unicode="F" horiz-adv-x="353" d="M69 631v-255h257v-46h-257v-330h-44v678h345v-47h-301z" />
<glyph unicode="G" horiz-adv-x="531" d="M456 85q-64 -92 -182 -92q-140 0 -209 113q-56 91 -56 231q0 138 54 231q69 117 206 117q102 0 164 -65q54 -57 71 -174h-45q-31 192 -190 192q-114 0 -171 -100q-45 -79 -45 -200q0 -123 46 -201q58 -97 175 -97q90 0 143 70q49 64 49 156v18h-204v47h247q2 -34 2 -53 q0 -116 -55 -193z" />
<glyph unicode="H" horiz-adv-x="476" d="M406 0v330h-336v-330h-45v678h45v-302h336v302h45v-678h-45z" />
<glyph unicode="I" horiz-adv-x="94" d="M25 0v678h45v-678h-45z" />
<glyph unicode="J" horiz-adv-x="340" d="M156 -7q-146 0 -158 175h45q7 -128 110 -128q70 0 95 46q19 36 19 116v476h45v-482q0 -203 -156 -203z" />
<glyph unicode="K" horiz-adv-x="469" d="M427 0l-261 353l-96 -105v-248h-45v678h45v-363l341 363h63l-276 -292l286 -386h-57z" />
<glyph unicode="L" horiz-adv-x="353" d="M25 0v678h45v-631h299v-47h-344z" />
<glyph unicode="M" horiz-adv-x="573" d="M503 0v557l-197 -557h-38l-198 558v-558h-45v678h50l211 -597l213 597h49v-678h-45z" />
<glyph unicode="N" horiz-adv-x="476" d="M405 0l-335 587v-587h-45v678h46q59 -109 167 -294q122 -207 168 -290v584h45v-678h-46z" />
<glyph unicode="O" horiz-adv-x="530" d="M470 111q-68 -118 -205 -118q-134 0 -201 112q-55 91 -55 234q0 136 53 225q67 111 203 111q137 0 204 -111q53 -88 53 -225q0 -138 -52 -228zM265 628q-113 0 -167 -95q-44 -75 -44 -194t44 -198q56 -101 167 -101q113 0 168 99q44 79 44 200t-44 196q-55 93 -168 93z " />
<glyph unicode="P" horiz-adv-x="435" d="M380 349q-50 -53 -138 -53h-172v-296h-45v678h225q177 0 177 -194q0 -85 -47 -135zM254 631h-184v-288h185q61 0 94 40t33 101q0 147 -128 147z" />
<glyph unicode="Q" horiz-adv-x="530" d="M353 7q20 -26 52 -26h80v-47h-80q-61 0 -97 60q-21 -3 -43 -3q-134 0 -201 112q-55 92 -55 235q0 136 53 225q67 112 203 112q137 0 204 -111q53 -89 53 -226q0 -112 -35 -194q-44 -101 -134 -137zM265 628q-113 0 -167 -95q-44 -76 -44 -195q0 -122 45 -200 q31 87 110 87q57 0 91 -49q29 -43 29 -98q0 -14 3 -28q77 29 115 119q30 73 30 169q0 122 -44 197q-54 93 -168 93zM285 79q0 40 -18 68q-22 32 -58 32q-33 0 -53 -25.5t-23 -59.5q54 -56 132 -56q13 0 25 2q-5 19 -5 39z" />
<glyph unicode="R" horiz-adv-x="449" d="M346 331q76 -41 76 -159v-172h-44v170q0 133 -126 133h-182v-303h-45v678h233q171 0 171 -178q0 -124 -83 -169zM260 631h-190v-279h178q67 0 102 39t35 106q0 134 -125 134z" />
<glyph unicode="S" horiz-adv-x="449" d="M231 -7q-109 0 -165 61t-56 165v24h45v-20q0 -183 177 -183q71 0 112 34.5t41 100.5q0 47 -14 72q-17 28 -59 45q-21 9 -98 32q-92 28 -124 51q-64 47 -64 136q0 174 192 174q200 0 202 -218h-43q-4 90 -39 130.5t-120 40.5q-148 0 -148 -127q0 -60 37 -91q28 -23 99 -41 q116 -30 157 -59q67 -48 67 -148q0 -85 -58 -133q-54 -46 -141 -46z" />
<glyph unicode="T" horiz-adv-x="381" d="M213 631v-631h-45v631h-181v47h407v-47h-181z" />
<glyph unicode="U" horiz-adv-x="465" d="M401 74q-50 -81 -169 -81q-207 0 -207 263v422h45v-422q0 -216 162 -216t162 213v425h45v-424q0 -118 -38 -180z" />
<glyph unicode="V" horiz-adv-x="440" d="M242 0h-38l-215 678h46l188 -592l182 592h46z" />
<glyph unicode="W" horiz-adv-x="679" d="M486 0h-38l-107 350l-105 -350h-38l-207 678h46l181 -590l98 339l-75 251h46l181 -590l174 590h46z" />
<glyph unicode="X" horiz-adv-x="423" d="M395 0l-182 304l-184 -304h-54l211 349l-200 329h54l173 -286l173 286h54l-200 -329l208 -349h-53z" />
<glyph unicode="Y" horiz-adv-x="438" d="M242 329v-329h-45v329l-224 349h53l193 -298l194 298h52z" />
<glyph unicode="Z" horiz-adv-x="438" d="M11 0v43l356 588h-336v47h391v-42l-355 -589h361v-47h-417z" />
<glyph unicode="[" horiz-adv-x="163" d="M56 -168v902h112v-48h-68v-806h68v-48h-112z" />
<glyph unicode="\" horiz-adv-x="245" d="M219 0l-246 694h47l246 -694h-47z" />
<glyph unicode="]" horiz-adv-x="163" d="M-5 -168v48h67l1 32l-1 774h-67v48h112v-902h-112z" />
<glyph unicode="^" horiz-adv-x="209" d="M138 511l-35 73l-36 -73h-46l64 135h35l68 -135h-50z" />
<glyph unicode="_" d="M-15 -119v48h397v-48h-397z" />
<glyph unicode="`" horiz-adv-x="135" d="M124 535q-16 -13 -34 2l-80 100q-13 17 2 29q7 7 14 7q15 0 42 -34q29 -38 57 -77q12 -14 -1 -27z" />
<glyph unicode="a" horiz-adv-x="395" d="M320 -1v73q-48 -83 -138 -83q-95 0 -142 91q-35 68 -35 163q0 96 36 166q48 91 144 91q90 0 135 -78v76h44v-499h-44zM291 384q-36 69 -110 69q-69 0 -104 -75q-28 -58 -28 -135q0 -78 27 -134q35 -73 105 -73q71 0 109 73q30 59 30 134q0 83 -29 141z" />
<glyph unicode="b" horiz-adv-x="395" d="M204 -10q-84 0 -134 84v-74h-44v678h44v-251q48 81 135 81q98 0 144 -93q34 -69 34 -169q0 -104 -37 -171q-46 -85 -142 -85zM312 388q-33 72 -104 72q-77 0 -112 -74q-26 -55 -26 -142q0 -79 30 -136q37 -71 109 -71q70 0 104 74q26 56 26 136q0 84 -27 141z" />
<glyph unicode="c" d="M307 37q-46 -48 -115 -48q-97 0 -146 85q-38 66 -38 162q0 101 38 172q50 92 153 92q65 0 107 -46q37 -39 48 -105l-39 -29q-26 133 -117 133q-77 0 -115 -75q-30 -58 -30 -142q0 -79 29 -133q36 -67 109 -67q52 0 85 35q30 33 40 108l42 -25q-12 -76 -51 -117z" />
<glyph unicode="d" horiz-adv-x="395" d="M320 0v73q-48 -84 -138 -84q-95 0 -142 92q-35 69 -35 166t36 168q48 92 144 92q90 0 135 -78v249h44v-678h-44zM291 390q-36 70 -110 70q-69 0 -104 -76q-28 -59 -28 -137q0 -80 27 -137q35 -74 105 -74q69 0 107 72q32 61 32 139q0 84 -29 143z" />
<glyph unicode="e" d="M47 226q7 -190 136 -190q97 0 129 119h45q-17 -83 -58 -122q-47 -44 -117 -44q-100 0 -146 89q-33 64 -33 165q0 100 40 171q49 86 142 86q96 0 144 -80q38 -64 38 -158v-35zM290 389q-36 64 -105 64q-66 0 -103 -60q-29 -48 -34 -120h271q-3 68 -29 116z" />
<glyph unicode="f" horiz-adv-x="187" d="M101 477v-32h78v-48h-78v-398h-45v398h-50v48h50v32q0 189 187 189v-46q-75 0 -108.5 -34.5t-33.5 -108.5z" />
<glyph unicode="g" horiz-adv-x="381" d="M186 -179q-74 0 -117 46q-40 43 -42 130h44q7 -129 116 -129q126 0 126 156v51q-50 -75 -133 -75q-93 0 -139 88q-35 67 -35 160q0 96 36 164q47 88 143 88q82 0 128 -76v65h44v-466q0 -202 -171 -202zM283 382q-35 71 -100 71q-69 0 -104 -71q-28 -56 -28 -133 q0 -76 26 -131q34 -71 101 -71q70 0 106 68q29 55 29 131t-30 136z" />
<glyph unicode="h" d="M296 0v324q0 136 -104 136q-64 0 -96 -62q-26 -50 -26 -120v-278h-44v678h44v-236q43 66 122 66q75 0 115 -55q33 -47 33 -120v-333h-44z" />
<glyph unicode="i" horiz-adv-x="95" d="M47 577q-16 0 -21 21v67q5 22 21 22q12 0 23 -19v-72q-10 -19 -23 -19zM26 0v496h44v-496h-44z" />
<glyph unicode="j" horiz-adv-x="95" d="M47 577q-16 0 -21 20v68q5 22 21 22q12 0 23 -20v-72q-10 -18 -23 -18zM-119 -179v47q74 0 108 37.5t34 120.5v469h45v-470q0 -204 -187 -204z" />
<glyph unicode="k" horiz-adv-x="372" d="M322 0l-178 268l-74 -74v-194h-44v678h44v-418l233 237l68 -2l-195 -193l200 -302h-54z" />
<glyph unicode="l" horiz-adv-x="95" d="M26 0v678h44v-678h-44z" />
<glyph unicode="m" horiz-adv-x="572" d="M501 0v319q0 134 -87 134q-54 0 -82 -49q-24 -41 -24 -98v-306h-44v319q0 134 -89 134q-55 0 -84 -65q-21 -50 -21 -114v-274h-44v489h44v-51q41 62 112 62q77 0 110 -77q37 77 121 77q133 0 133 -172v-328h-45z" />
<glyph unicode="n" d="M296 0v319q0 134 -104 134q-64 0 -96 -61q-26 -49 -26 -118v-274h-44v489h44v-53q43 64 122 64q75 0 115 -54q33 -46 33 -118v-328h-44z" />
<glyph unicode="o" horiz-adv-x="381" d="M190 -11q-97 0 -147 89q-38 70 -38 166q0 102 41 172q50 84 146 84q98 0 147 -90q38 -69 38 -166q0 -102 -41 -171q-50 -84 -146 -84zM302 384q-37 69 -111 69q-75 0 -112 -71q-29 -56 -29 -138q0 -80 30 -136q38 -72 111 -72t111 71q30 57 30 137q0 83 -30 140z" />
<glyph unicode="p" horiz-adv-x="395" d="M205 -18q-87 0 -135 81v-231h-44v657h44v-69q48 80 134 80q98 0 145 -90q34 -68 34 -167q0 -105 -36 -173q-47 -88 -142 -88zM311 381q-34 72 -102 72q-72 0 -109 -72q-30 -57 -30 -137q0 -86 26 -141q35 -74 112 -74q71 0 105 75q26 57 26 138t-28 139z" />
<glyph unicode="q" horiz-adv-x="395" d="M319 -168v227q-45 -77 -138 -77t-140 95q-36 71 -36 166q0 99 38 170q48 87 140 87q88 0 136 -81v70h45v-657h-45zM289 382q-37 71 -109 71q-70 0 -104 -75q-26 -57 -26 -136t27 -137q35 -76 104 -76q77 0 112 73q27 54 27 140q0 81 -31 140z" />
<glyph unicode="r" horiz-adv-x="223" d="M95 360q-25 -68 -25 -164v-196h-44v489h44v-70q48 81 149 81v-47q-89 0 -124 -93z" />
<glyph unicode="s" horiz-adv-x="340" d="M174 -13q-160 0 -160 200h46q0 -151 115 -151q98 0 98 93q0 61 -67 83q-4 2 -70 16q-108 23 -108 130q0 59 34 99q38 44 100 44q155 0 155 -178h-46q0 129 -105 129q-42 0 -67 -26.5t-25 -67.5q0 -61 66 -77q99 -26 123 -40q56 -34 56 -112q0 -66 -38 -104t-107 -38z" />
<glyph unicode="t" horiz-adv-x="184" d="M114 420v-420h-44l-1 420h-69v47h69v147h45v-147h70v-47h-70z" />
<glyph unicode="u" d="M296 -1v54q-43 -64 -121 -64q-80 0 -118 58q-31 48 -31 124v317h44v-316q0 -58 23 -93q27 -43 82 -43q67 0 98 64q23 49 23 124v264h44v-489h-44z" />
<glyph unicode="v" horiz-adv-x="330" d="M192 0h-41l-166 488h50l135 -410l127 410h47z" />
<glyph unicode="w" horiz-adv-x="540" d="M396 0h-41l-82 254l-76 -254h-40l-157 488h48l128 -407l73 249l-51 158h49l128 -407l119 407h47z" />
<glyph unicode="x" horiz-adv-x="327" d="M298 0l-135 211l-134 -211h-53l161 253l-146 235h54l118 -194l121 194h53l-146 -235l160 -253h-53z" />
<glyph unicode="y" d="M169 -179q-152 0 -160 176h45q8 -129 116 -129q126 0 126 156v23q-43 -65 -121 -65q-80 0 -118 59q-31 48 -31 125v322h44v-321q0 -58 23 -95q27 -43 82 -43q67 0 98 66q23 49 23 125v268h44v-465q0 -202 -171 -202z" />
<glyph unicode="z" horiz-adv-x="331" d="M5 0v41l252 400h-232v47h290v-40l-253 -401h264v-47h-321z" />
<glyph unicode="{" horiz-adv-x="245" d="M170 -168q-70 0 -70 107v221q0 64 -15 80q-9 9 -38 27v33q36 21 42 31q11 19 11 75v221q0 107 70 107h23v-48h-22q-17 0 -22 -23q-4 -15 -4 -60v-199q0 -65 -15 -93q-7 -13 -26 -28q19 -14 26 -27q15 -27 15 -94v-198q0 -68 13 -80q5 -4 13 -4h22v-48h-23z" />
<glyph unicode="|" horiz-adv-x="163" d="M59 -32v738h45v-738h-45z" />
<glyph unicode="}" horiz-adv-x="245" d="M155 240q-15 -16 -15 -80v-221q0 -107 -70 -107h-23v48h22q17 0 22 23q4 15 4 61v198q0 67 15 94q7 13 26 27q-19 15 -26 28q-15 28 -15 93v199q0 67 -13 79q-5 4 -13 4h-22v48h23q70 0 70 -107v-221q0 -56 11 -75q6 -10 42 -31v-33q-29 -18 -38 -27z" />
<glyph unicode="~" horiz-adv-x="384" d="M341 394q-26 -43 -75 -43q-22 0 -80.5 29t-67.5 29q-34 0 -43 -59h-52q7 47 27 71q26 33 69 33q20 0 78.5 -29.5t68.5 -29.5q35 0 43 61h51q-3 -36 -19 -62z" />
<glyph unicode="&#xa0;" />
<glyph unicode="&#xa1;" horiz-adv-x="136" d="M69 472q-23 0 -23 24v62q0 25 23 25q22 0 22 -25v-62q0 -24 -22 -24zM45 -95v512h45v-512h-45z" />
<glyph unicode="&#xa2;" d="M307 36q-46 -48 -115 -48q-42 0 -76 17l-15 -41h-46l25 68q-72 69 -72 204q0 103 38 174q50 93 153 93q23 0 44 -7l19 55h47l-26 -73q54 -38 71 -127l-39 -29q-16 80 -48 109l-135 -381q26 -15 59 -15q52 0 85 36q30 32 40 109l42 -26q-12 -76 -51 -118zM198 456 q-77 0 -115 -76q-30 -59 -30 -144q0 -100 43 -154l131 370q-14 4 -29 4z" />
<glyph unicode="&#xa4;" horiz-adv-x="409" d="M337 187l-71 85q-31 -24 -69 -24t-68 25l-72 -86l-28 34l71 85q-23 35 -23 81q0 47 23 83l-71 86l28 34l73 -87q30 23 67 23q38 0 67 -23l73 87l28 -34l-71 -86q23 -36 23 -82q0 -47 -23 -83l71 -84zM197 481q-35 0 -55.5 -28.5t-20.5 -64.5t19 -64q22 -31 57 -31 q36 0 58 30q19 27 19 64q0 39 -20 66.5t-57 27.5z" />
<glyph unicode="&#xa5;" horiz-adv-x="451" d="M249 329v-37h148v-47h-148v-74h148v-48h-148v-123h-45v123h-148v48h148v74h-148v47h148v37l-224 349h53l193 -298l194 298h52z" />
<glyph unicode="&#xa6;" horiz-adv-x="163" d="M59 364v332h45v-332h-45zM59 -23v332h45v-332h-45z" />
<glyph unicode="&#xa7;" horiz-adv-x="409" d="M285 145q58 -35 58 -109q0 -59 -35 -100q-37 -44 -99 -44q-153 0 -153 178h44q0 -131 106 -131q92 0 92 97q0 62 -53 77l-109 31q-40 17 -62 55.5t-20 80.5q5 86 69 117q-58 35 -58 110q0 59 35.5 101.5t97.5 42.5q154 0 154 -179h-44q0 132 -106 132q-43 0 -68 -27.5 t-25 -69.5q0 -48 36 -68q14 -7 88 -28q39 -5 64 -24q57 -35 57 -114q0 -95 -69 -128zM197 366q-97 0 -97 -82q0 -48 31 -77.5t80 -29.5q98 0 99 95q-16 94 -113 94z" />
<glyph unicode="&#xa8;" horiz-adv-x="150" d="M115 547q-22 0 -22 20v38q0 19 22 19q23 0 23 -19v-38q0 -20 -23 -20zM35 547q-23 0 -23 20v38q0 19 23 19q22 0 22 -19v-38q0 -20 -22 -20z" />
<glyph unicode="&#xa9;" horiz-adv-x="392" d="M199 236q-88 0 -139 69q-45 61 -45 148q0 84 46 148q53 71 137 71q87 0 139 -72q45 -63 45 -146q0 -87 -47 -149q-51 -69 -136 -69zM199 624q-65 0 -104 -56q-34 -49 -34 -114q0 -64 34 -114q39 -57 103 -57q65 0 104 56q34 49 34 114q0 67 -34 116q-39 55 -103 55z M205 308q-60 0 -91 48q-26 39 -26 95q0 55 25 93q30 46 89 46q89 0 103 -118h-46q-11 70 -57 70q-68 0 -68 -91q0 -95 71 -95q38 0 55 73h47q-26 -121 -102 -121z" />
<glyph unicode="&#xaa;" horiz-adv-x="265" d="M203 348v23q-29 -29 -72 -29q-61 0 -92 57q-24 43 -24 101q0 59 23 102q31 56 94 56q43 0 71 -27v26h46v-309h-46zM131 611q-37 0 -56 -39q-14 -30 -14 -72t14 -72q19 -39 56 -39t57 39q15 30 15 72q0 111 -72 111z" />
<glyph unicode="&#xab;" horiz-adv-x="274" d="M116 260v28l134 124v-58l-83 -80l83 -80v-56zM35 260v28l134 124v-58l-84 -80l84 -80v-56z" />
<glyph unicode="&#xac;" horiz-adv-x="421" d="M348 134v126h-329v42h374v-168h-45z" />
<glyph unicode="&#xae;" horiz-adv-x="380" d="M192 236q-85 0 -137 68q-47 61 -47 149q0 84 46 148q53 71 137 71q85 0 137 -70q47 -63 47 -148q0 -88 -46 -150q-52 -68 -137 -68zM192 624q-65 0 -104 -56q-34 -49 -34 -114q0 -67 33 -115q38 -56 104 -56q65 0 104 56q34 49 34 114q0 68 -34 116q-38 55 -103 55z M266 447q16 -19 16 -54v-77h-47v76q0 31 -27 31h-47v-107h-46v270h95q74 0 74 -79q0 -38 -18 -60zM210 537h-49v-65h45q32 0 32 34q0 31 -28 31z" />
<glyph unicode="&#xaf;" horiz-adv-x="219" d="M9 597v19h201v-19h-201z" />
<glyph unicode="&#xb0;" horiz-adv-x="294" d="M147 385q-57 0 -91 45q-29 39 -29 90q0 50 29 90q34 45 90 45q57 0 91 -44q29 -39 29 -90q0 -55 -32 -94q-34 -42 -87 -42zM147 611q-35 0 -55.5 -27.5t-20.5 -62.5t19 -62q22 -30 57 -30q37 0 58 29q18 26 18 62q0 37 -20 64t-56 27z" />
<glyph unicode="&#xb1;" horiz-adv-x="441" d="M242 226v-164h-44v164h-134v46h134v161h44v-161h135v-46h-135zM65 -3v47h313v-47h-313z" />
<glyph unicode="&#xb2;" horiz-adv-x="274" d="M10 256q0 125 103 203l59 45q32 24 32 51q0 59 -65 59q-77 0 -77 -114h-47q0 162 121 162q114 0 114 -109q0 -39 -34 -73q-6 -6 -66 -52q-81 -64 -91 -125h205v-47h-254z" />
<glyph unicode="&#xb3;" horiz-adv-x="298" d="M153 252q-67 0 -103 41q-34 38 -34 100v24h48v-33q0 -38 22.5 -61t63.5 -23q85 0 85 75q0 72 -76 72h-40v48h41q69 0 69 61q0 58 -73 58q-83 0 -83 -108h-47q0 156 129 156q54 0 87.5 -28t33.5 -78q0 -58 -37 -85q43 -29 43 -96q0 -57 -36 -90t-93 -33z" />
<glyph unicode="&#xb4;" horiz-adv-x="148" d="M53 538q-7 -9 -19 -9q-23 0 -23 20q0 7 6 13l79 101q7 9 19 9q8 0 16 -6q13 -13 1 -29z" />
<glyph unicode="&#xb5;" d="M220 -16q-14 -2 -29 -2q-81 0 -121 63v-216h-44v659h44v-268q0 -76 23 -125q31 -66 98 -66q55 0 82 44q23 36 23 95v320h44v-321q0 -112 -62 -158q-9 -7 -9 -20q0 -33 57 -33v-51q-52 0 -78.5 22.5t-27.5 56.5z" />
<glyph unicode="&#xb6;" horiz-adv-x="347" d="M274 -133v764h-30v-764h-45v371q-80 0 -128 73q-43 63 -43 147q0 87 47 150q52 71 138 71q4 0 8 -1h98v-811h-45z" />
<glyph unicode="&#xb7;" horiz-adv-x="146" d="M83 280q-22 0 -22 21v46q0 20 22 20t22 -20v-46q0 -21 -22 -21z" />
<glyph unicode="&#xb8;" horiz-adv-x="181" d="M105 -37q68 -2 68 -67q0 -70 -87 -70q-29 0 -82 20l16 41q44 -18 64 -18q42 0 42 30q0 18 -29 21q-17 2 -41 -12v29l6 72h44z" />
<glyph unicode="&#xb9;" horiz-adv-x="201" d="M113 260v317l-56 -48h-72l140 124h36v-393h-48z" />
<glyph unicode="&#xba;" horiz-adv-x="289" d="M143 350q-64 0 -98 52q-28 42 -28 101q0 60 29 102q35 51 100 51t99 -51q28 -42 28 -102q0 -64 -32 -106q-35 -47 -98 -47zM144 614q-41 0 -64 -37q-20 -31 -20 -74q0 -45 19 -75q22 -36 65 -36q44 0 66 36q19 30 19 75q0 46 -19 75q-23 36 -66 36z" />
<glyph unicode="&#xbb;" horiz-adv-x="267" d="M116 138v56l83 80l-83 80v58l134 -124v-28zM35 138v56l83 80l-83 80v58l134 -124v-28z" />
<glyph unicode="&#xbc;" horiz-adv-x="571" d="M166 0h-46l243 694h46zM480 131v-131h-44v131h-191l118 279h47l-100 -234h126v235l44 -3v-232h64v-45h-64zM129 252v329l-58 -51h-66l134 123h35v-401h-45z" />
<glyph unicode="&#xbd;" horiz-adv-x="562" d="M292 0q1 126 96 200l62 49q35 29 35 57q0 64 -66 64q-78 0 -79 -119h-43q1 163 119 163q112 0 112 -110q0 -39 -33 -72q-32 -27 -63 -53q-86 -70 -95 -135h205v-44h-250zM159 0h-47l244 694h46zM121 252v329l-57 -51h-67l134 123h35v-401h-45z" />
<glyph unicode="&#xbe;" horiz-adv-x="634" d="M230 0h-47l244 694h47zM543 131v-131h-44v131h-191l119 279h47l-100 -234h125v235l44 -3v-232h65v-45h-65zM160 244q-134 0 -134 142v23h44v-31q0 -40 23.5 -64.5t64.5 -24.5q40 0 63.5 21t23.5 58q0 78 -78 78h-39v44h39q72 0 72 64q0 63 -75 63q-84 0 -85 -111h-43 q1 155 127 155q119 0 119 -107q0 -59 -42 -87q49 -31 49 -99q0 -56 -36.5 -90t-92.5 -34z" />
<glyph unicode="&#xbf;" d="M179 488q-22 0 -22 24v62q0 25 22 25q23 0 23 -25v-62q0 -24 -23 -24zM299 -37q-46 -58 -127 -58q-74 0 -118 49q-41 46 -41 118q0 58 32 111q33 46 67 92q44 62 44 122v37h46v-33q0 -98 -73 -180q-38 -45 -52 -69q-19 -36 -19 -80q0 -55 29.5 -87.5t85.5 -32.5 q59 0 91 41.5t39 140.5l42 -36q-9 -87 -46 -135z" />
<glyph unicode="&#xc0;" horiz-adv-x="473" d="M293 696q-20 -16 -34 5l-80 119q-7 11 -1 25q6 15 18 15q14 0 38 -36q31 -48 62 -95q12 -19 -3 -33zM429 0l-68 215h-246l-69 -215h-50l224 684h41l215 -684h-47zM241 596l-109 -333h214z" />
<glyph unicode="&#xc1;" horiz-adv-x="473" d="M217 703q-8 -11 -19 -11q-23 0 -23 24q0 8 4 15q32 47 63 95q24 36 38 36q7 0 14 -9q13 -15 2 -31zM429 0l-68 215h-246l-69 -215h-50l224 684h41l215 -684h-47zM241 596l-109 -333h214z" />
<glyph unicode="&#xc2;" horiz-adv-x="473" d="M288 687l-51 95l-51 -95h-48l83 160h33l85 -160h-51zM429 0l-68 215h-246l-69 -215h-50l224 684h41l215 -684h-47zM241 596l-109 -333h214z" />
<glyph unicode="&#xc3;" horiz-adv-x="473" d="M338 730q-19 -29 -48 -29q-13 0 -53 26.5t-42 26.5q-14 0 -18 -26q-2 -8 -4 -47l-40 39q0 30 17 55.5t47 25.5q13 0 52 -26.5t41 -26.5q7 0 14 13t7 58l42 -34q-1 -33 -15 -55zM429 0l-68 215h-246l-69 -215h-50l224 683h41l215 -683h-47zM241 595l-109 -333h214z" />
<glyph unicode="&#xc4;" horiz-adv-x="473" d="M279 696q-22 0 -22 25v53q0 25 22 25t22 -25v-53q0 -25 -22 -25zM198 696q-23 0 -23 25v53q0 25 23 25q22 0 22 -25v-53q0 -25 -22 -25zM429 0l-68 215h-246l-69 -215h-50l224 682h41l215 -682h-47zM241 595l-109 -333h214z" />
<glyph unicode="&#xc5;" horiz-adv-x="473" d="M237 703q-33 0 -53 29q-16 25 -16 56t16 56q20 29 53 29q35 0 54 -29q16 -24 16 -56q0 -35 -17 -59q-20 -26 -53 -26zM429 0l-68 216h-246l-69 -216h-50l224 685h41l215 -685h-47zM237 823q-23 0 -23 -35q0 -36 23 -36q24 0 24 36q0 35 -24 35zM241 597l-109 -334h214z " />
<glyph unicode="&#xc6;" horiz-adv-x="754" d="M398 0v330h-170l-212 -330h-52l437 678h332v-47h-290v-254h33v-1h220v-46h-253l1 -283h293v-47h-339zM259 377h139l1 215z" />
<glyph unicode="&#xc7;" horiz-adv-x="503" d="M450 522q-55 115 -169 115q-110 0 -168 -98q-48 -83 -48 -204q0 -118 44 -199q56 -101 165 -101t171 117l34 -33q-70 -132 -205 -132q-134 0 -201 118q-52 91 -52 226q0 139 54 233q69 121 206 121q140 0 205 -130zM281 -20q68 -2 68 -76q0 -78 -87 -78q-29 0 -83 22 l18 45q43 -19 63 -19q41 0 41 34q0 23 -36 25q-10 1 -33 -17v35l6 81h45z" />
<glyph unicode="&#xc8;" horiz-adv-x="395" d="M253 688q-7 -7 -16 -7q-11 0 -19 11l-79 118q-12 19 3 32q7 8 14 8q14 0 39 -37q30 -47 61 -93q11 -18 -3 -32zM25 0v684h370v-48h-326v-256h289v-47h-289v-285h330v-48h-374z" />
<glyph unicode="&#xc9;" horiz-adv-x="395" d="M177 692q-8 -11 -19 -11q-23 0 -23 24q0 8 4 15q27 41 68 104q18 25 32 25q8 0 15 -8q13 -14 2 -31zM25 0v684h370v-48h-326v-256h289v-47h-289v-285h330v-48h-374z" />
<glyph unicode="&#xca;" horiz-adv-x="395" d="M247 697l-51 95l-51 -95h-48l83 160h33l86 -160h-52zM25 0v684h370v-47h-326v-257h289v-47h-289v-285h330v-48h-374z" />
<glyph unicode="&#xcb;" horiz-adv-x="395" d="M238 704q-23 0 -23 25v53q0 25 23 25q22 0 22 -25v-53q0 -25 -22 -25zM157 704q-22 0 -22 25v53q0 25 22 25t22 -25v-53q0 -25 -22 -25zM25 0v683h370v-48h-326v-256h289v-46h-289v-286h330v-47h-374z" />
<glyph unicode="&#xcc;" horiz-adv-x="94" d="M100 701q-19 -15 -33 6l-79 118q-4 7 -4 15q0 25 23 25q11 0 19 -12l79 -118q13 -21 -5 -34zM25 0v684h45v-684h-45z" />
<glyph unicode="&#xcd;" horiz-adv-x="94" d="M26 703q-8 -11 -19 -11q-23 0 -23 24q0 8 4 15l79 118q8 12 20 12q23 0 23 -24q0 -8 -5 -15zM25 0v684h45v-684h-45z" />
<glyph unicode="&#xce;" horiz-adv-x="94" d="M97 693l-51 96l-52 -96h-47l82 160h33l86 -160h-51zM25 0v684h45v-684h-45z" />
<glyph unicode="&#xcf;" horiz-adv-x="94" d="M87 711q-22 0 -22 26v53q0 24 22 24q21 0 23 -24v-53q0 -26 -23 -26zM7 711q-23 0 -23 26v53q0 24 23 24q20 0 22 -24v-53q0 -26 -22 -26zM25 0v683h45v-683h-45z" />
<glyph unicode="&#xd0;" horiz-adv-x="476" d="M405 109q-70 -109 -211 -109h-169v316h-26v48h26v314h195q135 0 196 -116q45 -86 45 -224q0 -140 -56 -229zM220 631h-150v-267h138v-48h-138v-269h126q119 0 175 92q45 75 45 199q0 293 -196 293z" />
<glyph unicode="&#xd1;" horiz-adv-x="476" d="M333 725q-19 -30 -47 -30q-14 0 -54 26.5t-42 26.5q-6 0 -12.5 -12.5t-9.5 -60.5l-40 39q0 29 16 53q18 28 47 28q13 0 53 -26.5t42 -26.5q6 0 13 13.5t7 55.5l42 -31q-1 -33 -15 -55zM405 0l-335 591v-591h-45v682h46q59 -109 167 -296q122 -208 168 -292v588h45v-682 h-46z" />
<glyph unicode="&#xd2;" horiz-adv-x="530" d="M321 701q-7 -7 -15 -7q-11 0 -19 11l-80 118q-5 7 -5 16q0 24 24 24q11 0 19 -12l79 -118q11 -18 -3 -32zM470 112q-68 -119 -205 -119q-134 0 -201 113q-55 93 -55 236q0 138 53 227q67 112 203 112q137 0 204 -112q53 -89 53 -227q0 -139 -52 -230zM265 634 q-113 0 -167 -96q-44 -76 -44 -196q0 -119 44 -200q56 -101 167 -101q113 0 168 100q44 79 44 201t-44 198q-54 94 -168 94z" />
<glyph unicode="&#xd3;" horiz-adv-x="530" d="M243 708q-10 -9 -18 -9q-14 0 -21 12q-4 14 3 26l79 118q8 12 19 12q24 0 24 -24q0 -8 -5 -16zM470 112q-68 -119 -205 -119q-134 0 -201 113q-55 93 -55 236q0 138 53 227q67 112 203 112q137 0 204 -112q53 -89 53 -227q0 -139 -52 -230zM265 634q-113 0 -167 -96 q-44 -76 -44 -196q0 -119 44 -200q56 -101 167 -101q113 0 168 100q44 79 44 201t-44 198q-54 94 -168 94z" />
<glyph unicode="&#xd4;" horiz-adv-x="530" d="M315 705l-51 95l-51 -95h-48l82 159h33l86 -159h-51zM470 112q-68 -119 -205 -119q-134 0 -201 113q-55 93 -55 236q0 138 53 227q67 112 203 112q137 0 204 -112q53 -89 53 -227q0 -139 -52 -230zM265 634q-113 0 -167 -96q-44 -76 -44 -196q0 -119 44 -200 q56 -101 167 -101q113 0 168 100q44 79 44 201t-44 198q-54 94 -168 94z" />
<glyph unicode="&#xd5;" horiz-adv-x="530" d="M361 745q-19 -29 -47 -29q-14 0 -53.5 26.5t-41.5 26.5q-18 0 -23 -73l-40 39q0 29 16 53q19 28 48 28q14 0 53 -26.5t41 -26.5q14 0 19 25q2 8 4 44l41 -33q-3 -33 -17 -54zM470 111q-68 -118 -205 -118q-134 0 -201 113q-55 92 -55 235q0 138 53 227q67 112 203 112 q137 0 204 -112q53 -89 53 -227q0 -139 -52 -230zM265 633q-113 0 -167 -96q-44 -75 -44 -196q0 -119 44 -199q56 -101 167 -101q113 0 168 100q44 79 44 200q0 123 -44 198q-54 94 -168 94z" />
<glyph unicode="&#xd6;" horiz-adv-x="530" d="M306 711q-23 0 -23 26v53q0 24 23 24q20 0 22 -24v-53q0 -26 -22 -26zM225 711q-22 0 -22 26v53q0 24 22 24t22 -24v-53q0 -26 -22 -26zM470 111q-68 -118 -205 -118q-134 0 -201 113q-55 92 -55 235q0 138 53 227q67 112 203 112q137 0 204 -112q53 -89 53 -227 q0 -139 -52 -230zM265 632q-113 0 -167 -95q-44 -76 -44 -196q0 -119 44 -199q56 -101 167 -101q113 0 168 99q44 79 44 201t-44 198q-54 93 -168 93z" />
<glyph unicode="&#xd7;" horiz-adv-x="343" d="M267 105l-96 111l-95 -109l-29 34l95 111l-94 109l30 35l93 -110l96 110l28 -36l-94 -108l95 -113z" />
<glyph unicode="&#xd8;" horiz-adv-x="530" d="M470 110q-68 -118 -205 -118q-50 0 -92 18l-14 -39h-46l21 60q-125 86 -125 308q0 137 53 225q67 112 203 112q50 0 91 -15l15 43h47l-22 -63q126 -84 126 -302q0 -138 -52 -229zM379 595l-190 -540q34 -16 76 -16q113 0 168 100q44 79 44 200q0 187 -98 256zM265 629 q-113 0 -167 -95q-44 -75 -44 -195q0 -130 56 -214q19 -29 40 -46l190 537q-33 13 -75 13z" />
<glyph unicode="&#xd9;" horiz-adv-x="465" d="M288 693q-7 -7 -15 -7q-10 0 -19 10l-80 120q-7 11 -1 25q6 15 18 15q14 0 38 -36l62 -94q11 -18 -3 -33zM401 75q-50 -82 -169 -82q-207 0 -207 265v426h45v-425q0 -218 162 -218t162 214v429h45v-428q0 -119 -38 -181z" />
<glyph unicode="&#xda;" horiz-adv-x="465" d="M211 698q-9 -10 -20 -10q-22 0 -22 24q0 8 5 16q29 45 72 109q16 21 28 21q8 0 15 -9q13 -14 2 -31zM401 75q-50 -82 -169 -82q-207 0 -207 265v426h45v-425q0 -218 162 -218t162 214v429h45v-428q0 -119 -38 -181z" />
<glyph unicode="&#xdb;" horiz-adv-x="465" d="M283 695l-52 96l-51 -96h-48l83 160h33l86 -160h-51zM401 75q-50 -82 -169 -82q-207 0 -207 265v426h45v-425q0 -218 162 -218t162 214v429h45v-428q0 -119 -38 -181z" />
<glyph unicode="&#xdc;" horiz-adv-x="465" d="M273 711q-23 0 -23 26v53q0 24 23 24q22 0 22 -24v-53q0 -26 -22 -26zM192 711q-22 0 -22 26v53q0 24 22 24t22 -24v-53q0 -26 -22 -26zM401 74q-50 -81 -169 -81q-207 0 -207 264v426h45v-425q0 -217 162 -217t162 213v429h45v-428q0 -118 -38 -181z" />
<glyph unicode="&#xdd;" horiz-adv-x="460" d="M210 703q-8 -11 -20 -11q-9 0 -16 7q-13 15 -2 32l80 118q8 12 19 12q23 0 23 -24q0 -8 -5 -15zM253 332v-332h-45v332l-224 352h53l193 -301l194 301h52z" />
<glyph unicode="&#xde;" horiz-adv-x="297" d="M164 168h-94v-168h-44v678h44v-147h95q109 0 109 -184q0 -179 -110 -179zM164 483h-94v-270l95 1q64 0 64 133q0 136 -65 136z" />
<glyph unicode="&#xdf;" horiz-adv-x="353" d="M304 41q-51 -71 -171 -71v47q88 0 129 45.5t41 141.5q0 79 -37 130q-42 56 -133 56v48q77 0 105 16q37 21 37 83q0 60 -24.5 83t-86.5 23q-94 0 -94 -134v-510h-44v391h-25v49h25q0 46 2 96q5 155 138 155q157 0 154 -148q-2 -99 -70 -129q37 -21 63 -72q35 -65 35 -137 q0 -102 -44 -163z" />
<glyph unicode="&#xe0;" horiz-adv-x="386" d="M233 512q-7 -6 -15 -6q-10 0 -19 10l-80 117q-11 17 2 32q7 8 14 8q14 0 39 -35l62 -94q11 -18 -3 -32zM320 0v73q-48 -84 -138 -84q-95 0 -142 92q-35 69 -35 166t36 168q48 92 144 92q90 0 135 -79v77h44v-505h-44zM291 390q-36 70 -110 70q-69 0 -104 -76 q-28 -59 -28 -137q0 -80 27 -137q35 -74 105 -74q69 0 107 72q32 60 32 139q0 84 -29 143z" />
<glyph unicode="&#xe1;" horiz-adv-x="386" d="M164 516q-8 -10 -19 -10q-22 0 -22 23q0 9 4 15q29 45 73 109q15 21 27 21q8 0 15 -9q13 -15 2 -32zM328 0v73q-48 -84 -138 -84q-92 0 -139 88q-37 70 -37 170q0 98 35 168q47 92 144 92q90 0 135 -78v76h45v-505h-45zM300 390q-36 70 -110 70q-70 0 -105 -76 q-27 -58 -27 -137q0 -81 26 -137q35 -74 106 -74t109 75q29 59 29 136q0 86 -28 143z" />
<glyph unicode="&#xe2;" horiz-adv-x="386" d="M235 517l-51 93l-51 -93h-48l82 157h33l86 -157h-51zM328 0v73q-48 -84 -138 -84q-92 0 -139 88q-37 70 -37 170q0 98 35 168q47 92 144 92q90 0 135 -78v76h45v-505h-45zM300 390q-36 70 -110 70q-70 0 -105 -76q-27 -58 -27 -137q0 -81 26 -137q35 -74 106 -74t109 75 q29 59 29 136q0 86 -28 143z" />
<glyph unicode="&#xe3;" horiz-adv-x="386" d="M281 555q-19 -28 -48 -28q-15 0 -53.5 26t-40.5 26q-19 0 -23 -72l-40 39q0 28 16 52q18 28 47 28q14 0 53 -26t41 -26q7 0 14 13t7 56l42 -33q-1 -33 -15 -55zM328 0v72q-48 -83 -138 -83q-92 0 -139 87q-37 70 -37 170q0 98 35 168q47 92 144 92q90 0 135 -78v76h45 v-504h-45zM300 389q-36 70 -110 70q-70 0 -105 -76q-27 -58 -27 -137q0 -81 26 -136q35 -74 106 -74t109 75q29 58 29 135q0 86 -28 143z" />
<glyph unicode="&#xe4;" horiz-adv-x="386" d="M234 522q-22 0 -22 25v53q0 24 22 24t22 -24v-53q0 -25 -22 -25zM153 522q-22 0 -22 25v53q0 24 22 24q23 0 23 -24v-53q0 -25 -23 -25zM328 -1v73q-48 -83 -138 -83q-93 0 -139 89q-37 69 -37 168q0 98 35 167q47 93 144 93q90 0 135 -78v76h45v-505h-45zM300 388 q-36 71 -110 71q-70 0 -105 -76q-27 -58 -27 -137q0 -81 26 -137q35 -73 106 -73t109 75q29 58 29 135q0 86 -28 142z" />
<glyph unicode="&#xe5;" horiz-adv-x="386" d="M189 531q-35 0 -54 28q-16 24 -16 56t17 56q19 29 53 29q33 0 53 -29q16 -25 16 -56q0 -32 -18.5 -58t-50.5 -26zM328 0v73q-48 -84 -138 -84q-92 0 -139 88q-37 70 -37 170q0 99 35 168q47 93 144 93q90 0 135 -78v76h45v-506h-45zM189 651q-24 0 -24 -36q0 -35 24 -35 q23 0 23 35q0 36 -23 36zM300 390q-36 71 -110 71q-70 0 -105 -76q-27 -58 -27 -138q0 -81 26 -137q35 -74 106 -74t109 75q29 59 29 136q0 87 -28 143z" />
<glyph unicode="&#xe6;" horiz-adv-x="689" d="M364 226v-9q0 -181 136 -181q47 0 82 31q31 28 46 88h47q-19 -82 -61 -122q-47 -44 -116 -44q-88 0 -134 69v-59h-44v73q-48 -83 -138 -83q-95 0 -142 91q-35 68 -35 163q0 96 36 166q48 91 144 91q90 0 135 -78v76h44v-80q52 82 137 82q95 0 144 -81q38 -64 38 -157v-35 zM605 389q-36 64 -104 64q-63 0 -102 -59q-35 -53 -35 -121v0h271q-3 67 -30 116zM291 384q-36 69 -110 69q-69 0 -104 -75q-28 -58 -28 -135q0 -78 27 -134q35 -73 105 -73q71 0 109 73q30 59 30 134q0 83 -29 141z" />
<glyph unicode="&#xe7;" d="M307 31q-46 -49 -115 -49q-97 0 -146 86q-38 67 -38 164q0 103 38 175q50 93 153 93q65 0 107 -46q37 -41 48 -107l-39 -29q-26 135 -117 135q-77 0 -115 -76q-30 -60 -30 -145q0 -80 29 -134q36 -69 109 -69q52 0 85 36q30 33 40 110l42 -26q-12 -76 -51 -118zM215 -22 q67 -2 67 -74q0 -78 -87 -78q-28 0 -82 22l18 45q43 -20 62 -20q42 0 42 34q0 23 -36 25q-10 1 -33 -17v35l6 80h45z" />
<glyph unicode="&#xe8;" d="M239 512q-20 -16 -34 4l-80 117q-7 11 -1 26q6 14 18 14q14 0 39 -35l62 -94q11 -18 -4 -32zM47 229q7 -193 136 -193q97 0 129 121h45q-17 -84 -58 -124q-47 -44 -117 -44q-100 0 -146 90q-33 66 -33 168q0 101 40 172q49 88 142 88q96 0 144 -81q38 -65 38 -160v-36z M290 395q-36 65 -105 65q-66 0 -103 -61q-29 -49 -34 -123h271q-3 70 -29 119z" />
<glyph unicode="&#xe9;" d="M243 636l-81 -119q-10 -9 -19 -9q-21 0 -21 21q0 10 5 17l78 117q8 11 19 11q9 0 16 -7.5t7 -15.5q0 -6 -4 -15zM47 229q7 -193 136 -193q97 0 129 121h45q-17 -84 -58 -124q-47 -44 -117 -44q-100 0 -146 90q-33 66 -33 168q0 101 40 172q49 88 142 88q96 0 144 -81 q38 -64 38 -160v-36zM290 395q-36 65 -105 65q-66 0 -103 -61q-29 -49 -34 -122h271q-3 69 -29 118z" />
<glyph unicode="&#xea;" d="M234 517l-51 93l-52 -93h-48l84 157h32l86 -157h-51zM47 229q7 -193 136 -193q97 0 129 121h45q-17 -84 -58 -124q-47 -44 -117 -44q-100 0 -146 90q-33 66 -33 168q0 101 40 172q49 88 142 88q96 0 144 -81q38 -64 38 -160v-36zM290 395q-36 65 -105 65q-66 0 -103 -61 q-29 -48 -34 -122h271q-3 69 -29 118z" />
<glyph unicode="&#xeb;" d="M225 522q-22 0 -22 25v53q0 24 22 24t22 -24v-53q0 -25 -22 -25zM144 522q-23 0 -23 25v53q0 24 23 24q22 0 22 -24v-53q0 -25 -22 -25zM47 229q7 -193 136 -193q97 0 129 120h45q-17 -83 -58 -123q-47 -44 -117 -44q-100 0 -146 90q-33 65 -33 167q0 101 40 172 q49 88 142 88q96 0 144 -82q38 -64 38 -159v-35zM290 394q-36 65 -105 65q-66 0 -103 -62q-29 -48 -34 -121h271q-3 69 -29 118z" />
<glyph unicode="&#xec;" horiz-adv-x="95" d="M102 512q-6 -6 -14 -6q-10 0 -19 10l-80 117q-12 18 3 32q7 9 14 9q13 0 37 -35q31 -48 63 -95q12 -18 -4 -32zM26 0v496h44v-496h-44z" />
<glyph unicode="&#xed;" horiz-adv-x="95" d="M27 513q-8 -11 -19 -11q-23 0 -23 24q0 7 4 14l80 118q8 11 19 11q22 0 22 -24q0 -8 -4 -15zM26 0v496h44v-496h-44z" />
<glyph unicode="&#xee;" horiz-adv-x="95" d="M95 517l-47 92l-48 -92h-48l80 157h32l81 -157h-50zM26 0v496h44v-496h-44z" />
<glyph unicode="&#xef;" horiz-adv-x="95" d="M90 522q-22 0 -22 26v52q0 24 22 24q23 0 23 -24v-52q0 -26 -23 -26zM10 522q-23 0 -23 26v52q0 24 23 24q22 0 22 -24v-52q0 -26 -22 -26zM26 0v494h44v-494h-44z" />
<glyph unicode="&#xf0;" horiz-adv-x="395" d="M320 0v73q-48 -84 -138 -84q-95 0 -142 92q-35 69 -35 166t36 168q48 92 144 92q90 0 135 -78v132h-233v48h233v69h44v-678h-44zM291 390q-36 70 -110 70q-69 0 -104 -76q-28 -59 -28 -137q0 -80 27 -137q35 -74 105 -74q69 0 107 72q32 61 32 139q0 84 -29 143z" />
<glyph unicode="&#xf1;" d="M268 540q-15 -13 -34 -13q-15 0 -54 26t-41 26q-7 0 -13.5 -12t-6.5 -60l-43 38q0 28 17.5 54.5t45.5 26.5q13 0 53 -26t42 -26q6 0 13 13t7 56l42 -33q-2 -47 -28 -70zM296 0v323q0 136 -104 136q-64 0 -96 -62q-26 -50 -26 -120v-277h-44v495h44v-54q43 65 122 65 q75 0 115 -55q33 -46 33 -119v-332h-44z" />
<glyph unicode="&#xf2;" horiz-adv-x="381" d="M247 512q-7 -6 -15 -6q-10 0 -19 10l-80 117q-11 17 2 32q7 8 14 8q14 0 39 -35l62 -94q11 -18 -3 -32zM190 -11q-97 0 -147 91q-38 70 -38 168q0 103 41 173q50 86 146 86q98 0 147 -91q38 -70 38 -168q0 -104 -41 -174q-50 -85 -146 -85zM302 389q-37 71 -111 71 q-75 0 -112 -73q-29 -57 -29 -139q0 -81 30 -139q38 -73 111 -73t111 73q30 58 30 139q0 84 -30 141z" />
<glyph unicode="&#xf3;" horiz-adv-x="381" d="M170 512q-8 -10 -19 -10q-23 0 -23 24q0 7 4 14q23 36 46 71q40 59 55 59q7 0 15 -9q13 -14 2 -31zM190 -11q-97 0 -147 91q-38 70 -38 168q0 103 41 173q50 86 146 86q98 0 147 -91q38 -70 38 -168q0 -104 -41 -174q-50 -85 -146 -85zM302 389q-37 71 -111 71 q-75 0 -112 -73q-29 -57 -29 -139q0 -81 30 -139q38 -73 111 -73t111 73q30 58 30 139q0 84 -30 141z" />
<glyph unicode="&#xf4;" horiz-adv-x="381" d="M242 517l-52 94l-52 -94h-48l84 157h32l86 -157h-50zM190 -11q-97 0 -147 91q-38 70 -38 168q0 103 41 173q50 86 146 86q98 0 147 -91q38 -70 38 -168q0 -104 -41 -174q-50 -85 -146 -85zM302 390q-37 70 -111 70q-75 0 -112 -73q-29 -57 -29 -139q0 -81 30 -139 q38 -73 111 -73t111 73q30 58 30 139q0 84 -30 142z" />
<glyph unicode="&#xf5;" horiz-adv-x="381" d="M239 527q-15 0 -54.5 26t-40.5 26q-19 0 -23 -72l-40 39q0 29 17 54.5t47 25.5q12 0 52 -26t42 -26q17 0 24 68l39 -33q-3 -28 -12 -45q-18 -37 -51 -37zM190 -11q-97 0 -147 90q-38 70 -38 168q0 103 41 173q50 86 146 86q98 0 147 -91q38 -70 38 -168q0 -103 -41 -173 q-50 -85 -146 -85zM302 388q-37 71 -111 71q-75 0 -112 -73q-29 -57 -29 -139q0 -81 30 -138q38 -73 111 -73t111 73q30 57 30 138q0 84 -30 141z" />
<glyph unicode="&#xf6;" horiz-adv-x="381" d="M232 522q-23 0 -23 25v53q0 24 23 24q22 0 22 -24v-53q0 -25 -22 -25zM150 522q-22 0 -22 25v53q0 24 22 24q23 0 23 -24v-53q0 -25 -23 -25zM190 -11q-97 0 -147 90q-38 70 -38 168q0 103 41 173q50 86 146 86q98 0 147 -91q38 -70 38 -168q0 -103 -41 -173 q-50 -85 -146 -85zM302 388q-37 71 -111 71q-75 0 -112 -73q-29 -57 -29 -139q0 -81 30 -138q38 -73 111 -73t111 73q30 57 30 138q0 84 -30 141z" />
<glyph unicode="&#xf7;" horiz-adv-x="414" d="M207 291q-22 0 -22 24v60q0 23 22 23q23 0 23 -23v-60q0 -24 -23 -24zM20 217v46h364v-46h-364zM207 74q-22 0 -22 24v59q0 25 22 25q23 0 23 -25v-59q0 -24 -23 -24z" />
<glyph unicode="&#xf8;" horiz-adv-x="381" d="M190 -13q-36 0 -66 13l-16 -47h-46l25 71q-82 69 -82 220q0 103 41 173q50 85 146 85q32 0 60 -10l20 57h47l-27 -81q21 -17 40 -46q45 -70 45 -178q0 -103 -41 -172q-50 -85 -146 -85zM295 393q-10 16 -21 28l-134 -376q23 -11 51 -11q73 0 111 73q30 57 30 137 q0 89 -37 149zM191 455q-75 0 -112 -72q-29 -56 -29 -139q0 -111 54 -171l132 374q-21 8 -45 8z" />
<glyph unicode="&#xf9;" d="M239 508q-20 -16 -34 4l-79 118q-11 17 2 31q7 8 14 8q14 0 39 -35l62 -94q11 -18 -4 -32zM296 0v54q-43 -65 -121 -65q-80 0 -118 59q-31 48 -31 126v322h44v-321q0 -59 23 -95q27 -44 82 -44q67 0 98 66q23 49 23 125v269h44v-496h-44z" />
<glyph unicode="&#xfa;" d="M163 516q-8 -11 -19 -11q-23 0 -23 23q0 8 5 16l79 117q8 12 20 12q8 0 16 -8q13 -15 2 -32zM296 0v54q-43 -65 -121 -65q-80 0 -118 59q-31 48 -31 126v322h44v-321q0 -59 23 -95q27 -44 82 -44q67 0 98 66q23 50 23 126v268h44v-496h-44z" />
<glyph unicode="&#xfb;" d="M234 517l-51 93l-52 -93h-48l84 157h32l86 -157h-51zM296 0v54q-43 -65 -121 -65q-80 0 -118 59q-31 48 -31 126v322h44v-321q0 -59 23 -95q27 -44 82 -44q67 0 98 66q23 50 23 126v268h44v-496h-44z" />
<glyph unicode="&#xfc;" d="M224 522q-22 0 -22 25v53q0 24 22 24q23 0 23 -24v-53q0 -25 -23 -25zM143 522q-22 0 -22 25v53q0 24 22 24t22 -24v-53q0 -25 -22 -25zM296 -1v55q-43 -65 -121 -65q-80 0 -118 59q-31 48 -31 125v321h44v-320q0 -58 23 -94q27 -44 82 -44q67 0 98 66q23 49 23 125v267 h44v-495h-44z" />
<glyph unicode="&#xfd;" horiz-adv-x="354" d="M236 636l-80 -119q-8 -10 -19 -10q-23 0 -23 23q0 9 6 16l78 117q8 11 19 11q9 0 16 -7.5t7 -15.5q0 -6 -4 -15zM169 -179q-152 0 -160 178h45q8 -130 116 -130q126 0 126 157v23q-43 -66 -121 -66q-80 0 -118 60q-31 48 -31 127v324h44v-323q0 -60 23 -96q27 -44 82 -44 q67 0 98 66q23 50 23 127v270h44v-469q0 -204 -171 -204z" />
<glyph unicode="&#xfe;" horiz-adv-x="395" d="M205 -16q-87 0 -135 81v-233h-44v846h44v-253q48 81 134 81q98 0 145 -91q34 -68 34 -169q0 -104 -36 -174q-46 -88 -142 -88zM311 386q-34 73 -102 73q-72 0 -109 -73q-30 -58 -30 -138q0 -87 26 -143q35 -74 112 -74q71 0 105 76q26 57 26 138q0 82 -28 141z" />
<glyph unicode="&#xff;" horiz-adv-x="357" d="M219 521q-22 0 -22 26v53q0 24 22 24q21 0 23 -23v-54q0 -26 -23 -26zM139 521q-23 0 -23 26v53q0 24 23 24q20 0 22 -23v-54q0 -26 -22 -26zM169 -179q-152 0 -160 178h45q8 -131 116 -131q126 0 126 157v23q-43 -65 -121 -65q-80 0 -118 60q-31 48 -31 126v324h44v-323 q0 -59 23 -96q27 -44 82 -44q67 0 98 67q23 49 23 126v270h44v-469q0 -203 -171 -203z" />
<glyph unicode="&#x131;" horiz-adv-x="95" d="M26 0v488h44v-488h-44z" />
<glyph unicode="&#x152;" horiz-adv-x="707" d="M331 0q-30 -8 -63 -8q-135 0 -203 118q-53 91 -53 227q0 138 52 229q67 117 204 117q24 0 48 -5h375v-47h-277q100 -85 109 -255h146v-46h-144q-2 -191 -107 -283h277v-47h-364zM358 614v-238h120q-4 75 -31 135q-32 72 -89 103zM358 330v-269q35 20 63 58q57 80 59 211 h-122zM314 631q-22 5 -46 5q-112 0 -168 -101q-44 -80 -44 -198q0 -120 44 -199q56 -100 168 -100q24 0 46 6v587z" />
<glyph unicode="&#x153;" horiz-adv-x="736" d="M395 226q7 -190 136 -190q97 0 129 119h45q-17 -83 -60 -122q-46 -44 -115 -44q-120 0 -160 122q-50 -122 -163 -122q-97 0 -147 89q-38 70 -38 166q0 102 41 172q50 84 146 84q118 0 164 -129q50 129 160 129q96 0 143 -81q38 -63 38 -157v-35zM637 389q-36 64 -104 64 q-65 0 -102 -60q-30 -48 -35 -120h270q-3 68 -29 116zM319 384q-37 69 -111 69q-75 0 -112 -71q-29 -56 -29 -138q0 -80 30 -137q38 -71 111 -71t111 72q30 56 30 136q0 83 -30 140z" />
<glyph unicode="&#x160;" horiz-adv-x="449" d="M239 714h-33l-83 160h48l51 -95l51 95h51zM231 -7q-109 0 -166 63q-55 60 -55 165v25h45v-21q0 -184 177 -184q71 0 112 34.5t41 101.5q0 47 -15 72q-16 29 -58 46q-18 7 -99 32q-51 16 -64 21q-37 14 -59 31q-64 48 -64 137q0 175 192 175q200 0 202 -219h-43 q-4 90 -38 129q-36 43 -121 43q-148 0 -148 -128q0 -61 37 -92q28 -23 99 -42q116 -30 157 -59q67 -49 67 -149q0 -85 -58 -135q-54 -46 -141 -46z" />
<glyph unicode="&#x161;" horiz-adv-x="340" d="M184 526h-33l-83 158h48l51 -94l51 94h52zM174 -13q-160 0 -160 203h46q0 -154 115 -154q98 0 98 95q0 62 -67 85q-4 1 -70 16q-108 23 -108 132q0 60 34 100q38 45 100 45q155 0 155 -181h-46q0 131 -105 131q-42 0 -67 -27t-25 -68q0 -62 66 -79q5 -1 75 -19 q104 -27 104 -135q0 -67 -38 -105.5t-107 -38.5z" />
<glyph unicode="&#x178;" horiz-adv-x="464" d="M276 711q-22 0 -22 26v53q0 24 22 24t22 -24v-53q0 -26 -22 -26zM195 711q-22 0 -22 26v53q0 24 22 24t22 -24v-53q0 -26 -22 -26zM255 332v-332h-45v331l-224 352h53l193 -301l194 301h52z" />
<glyph unicode="&#x192;" horiz-adv-x="409" d="M425 619q-138 0 -166 -146l-6 -30h76l-7 -48h-77l-64 -375q-32 -188 -219 -188l8 47q141 0 163 131l66 385h-51l10 48h50q3 16 6 35q34 188 217 188z" />
<glyph unicode="&#x2c6;" horiz-adv-x="181" d="M141 540l-51 79l-52 -79h-48l83 134h33l86 -134h-51z" />
<glyph unicode="&#x2c7;" horiz-adv-x="95" d="M60 549h-33l-83 135h49l51 -80l51 80h51z" />
<glyph unicode="&#x2da;" horiz-adv-x="95" d="M45 569q-33 0 -54 25q-17 21 -17 48t17 48q21 25 54 25t53 -25q16 -21 16 -48q0 -30 -19.5 -51.5t-49.5 -21.5zM45 672q-24 0 -24 -30t24 -30t24 30t-24 30z" />
<glyph unicode="&#x2dc;" horiz-adv-x="256" d="M175 551q-13 0 -52.5 19.5t-42.5 19.5q-18 0 -22 -54l-40 29q0 22 17.5 42t45.5 20q14 0 52.5 -19.5t41.5 -19.5q7 0 14 9.5t7 42.5l43 -26q-2 -12 -5 -21q-14 -42 -59 -42z" />
<glyph unicode="&#x3bc;" horiz-adv-x="409" />
<glyph unicode="&#x2013;" horiz-adv-x="346" d="M-15 254v20h375v-20h-375z" />
<glyph unicode="&#x2014;" horiz-adv-x="626" d="M-15 254v20h654v-20h-654z" />
<glyph unicode="&#x2018;" horiz-adv-x="122" d="M70 518q-4 -18 -22 -18q-10 0 -17 8t-5 20l30 132q4 17 22 17q28 0 22 -27z" />
<glyph unicode="&#x2019;" horiz-adv-x="122" d="M71 519q-4 -18 -23 -18q-28 0 -22 27q8 41 27 122q8 28 23 28q11 0 19 -7.5t5 -20.5z" />
<glyph unicode="&#x201a;" horiz-adv-x="204" d="M98 -73q-4 -18 -20 -18q-9 0 -17.5 6.5t-8.5 14.5q0 3 1 8l23 108q10 41 26 41q4 0 9 -2q20 -5 16 -26z" />
<glyph unicode="&#x201c;" horiz-adv-x="187" d="M144 518q-4 -18 -22 -18q-10 0 -17 8t-5 20l29 131q4 18 22 18q11 0 18 -7.5t5 -19.5zM70 518q-4 -18 -22 -18q-10 0 -17 8t-5 20l30 132q4 17 22 17q28 0 22 -27z" />
<glyph unicode="&#x201d;" horiz-adv-x="193" d="M144 519q-4 -18 -22 -18q-28 0 -22 27q8 42 28 124q7 26 21 26q4 0 9 -2q20 -5 16 -26zM71 519q-4 -18 -23 -18q-28 0 -22 27q8 41 27 122q8 28 23 28q11 0 19 -7.5t5 -20.5z" />
<glyph unicode="&#x201e;" horiz-adv-x="246" d="M171 -73q-4 -18 -21 -18q-24 0 -24 21v6q10 49 26 121q9 30 24 30q4 0 9 -2q19 -5 15 -26zM98 -73q-4 -18 -20 -18q-9 0 -17.5 6.5t-8.5 14.5q0 3 1 8l23 108q10 41 26 41q4 0 9 -2q20 -5 16 -26z" />
<glyph unicode="&#x2020;" horiz-adv-x="241" d="M137 449v-506h-44v506h-82v49h82v123h44v-123h83v-49h-83z" />
<glyph unicode="&#x2021;" horiz-adv-x="236" d="M141 41v-98h-45v98h-82v48h82v360h-82v49h82v123h45v-123h82v-49h-82v-360h82v-48h-82z" />
<glyph unicode="&#x2022;" horiz-adv-x="204" d="M85 250q-30 0 -46 7t-16 15v106q0 8 16 15t46 7q61 0 61 -22v-106q0 -22 -61 -22z" />
<glyph unicode="&#x2026;" horiz-adv-x="447" d="M367 -2q-23 0 -23 20v47q0 20 23 20q22 0 22 -20v-47q0 -20 -22 -20zM234 -2q-22 0 -22 20v47q0 20 22 20t22 -20v-47q0 -20 -22 -20zM102 -2q-23 0 -23 20v47q0 20 23 20q22 0 22 -20v-47q0 -20 -22 -20z" />
<glyph unicode="&#x2030;" horiz-adv-x="708" d="M592 -19q-108 0 -108 180q0 185 109 185t109 -185q0 -180 -110 -180zM120 294q-108 0 -108 180q0 184 109 184t109 -184q0 -180 -110 -180zM107 -1h-51l349 679h50zM379 -19q-108 0 -108 180q0 185 109 185q108 0 108 -185q0 -180 -109 -180zM592 299q-63 0 -63 -138 q0 -133 64 -133q63 0 63 133q0 138 -64 138zM120 611q-62 0 -62 -137q0 -133 63 -133t63 133q0 137 -64 137zM379 299q-63 0 -63 -138q0 -133 64 -133q63 0 63 133q0 138 -64 138z" />
<glyph unicode="&#x2039;" horiz-adv-x="206" d="M35 260v28l134 124v-58l-84 -80l84 -80v-56z" />
<glyph unicode="&#x203a;" horiz-adv-x="206" d="M35 138v56l83 80l-83 80v58l134 -124v-28z" />
<glyph unicode="&#x20ac;" horiz-adv-x="409" d="M107 242q1 -80 31 -136q38 -71 110 -71q62 0 113 73l29 -37q-57 -83 -141 -83q-97 0 -147 88q-38 68 -39 166h-54l6 47h48v74h-37l6 48h31v0q0 103 41 174q49 86 145 86q84 0 141 -83l-28 -38q-52 74 -114 74q-74 0 -111 -73q-30 -58 -30 -140v0h209l-8 -48h-201v-74h191 l-6 -47h-185z" />
<glyph unicode="&#x2122;" horiz-adv-x="552" d="M483 347v219l-84 -219h-37l-89 224q0 24 0 -57v-74.5v-92.5h-47v290h-53v-290h-47v290h-104v47h255l102 -255l101 255h51v-337h-48z" />
<glyph unicode="&#x2212;" horiz-adv-x="414" d="M20 231v19h364v-19h-364z" />
<glyph unicode="&#xe000;" horiz-adv-x="490" d="M0 490h490v-490h-490v490z" />
<glyph horiz-adv-x="248" />
<glyph horiz-adv-x="248" />
<glyph horiz-adv-x="248" />
<glyph horiz-adv-x="248" />
<glyph horiz-adv-x="248" />
<glyph horiz-adv-x="248" />
<glyph horiz-adv-x="204" />
<glyph horiz-adv-x="204" />
<glyph horiz-adv-x="204" />
<glyph horiz-adv-x="204" />
<glyph horiz-adv-x="204" />
<glyph horiz-adv-x="204" />
<glyph horiz-adv-x="204" />
<glyph horiz-adv-x="204" />
<glyph horiz-adv-x="204" />
<glyph horiz-adv-x="204" />
<glyph horiz-adv-x="204" />
<glyph horiz-adv-x="204" />
<glyph horiz-adv-x="204" />
<glyph horiz-adv-x="204" />
<glyph horiz-adv-x="204" />
<glyph horiz-adv-x="294" d="M369 435q0 50 -20 77t-56 27t-58 -30q-18 -26 -18 -63q0 -50 -30 -90q-35 -45 -90 -45q-56 0 -91 46q-29 38 -29 103h44q0 -51 20 -78t56 -27q37 0 58 29q18 26 18 62q0 69 49 110q32 27 71 27q58 0 91 -47q29 -39 29 -104z" />
<glyph horiz-adv-x="245" d="M180 382v-126h-47v126h-191l119 276h51l-100 -228h121v229l47 -3v-226h65v-48h-65z" />
</font>
</defs>
</svg>
