<?xml version="1.0" standalone="no"?>
<!DOCTYPE svg PUBLIC "-//W3C//DTD SVG 1.1//EN" "http://www.w3.org/Graphics/SVG/1.1/DTD/svg11.dtd" >
<svg xmlns="http://www.w3.org/2000/svg">
<metadata></metadata>
<defs>
<font id="walkway_semiboldregular" horiz-adv-x="525" >
<font-face units-per-em="1000" ascent="800" descent="-200" />
<missing-glyph horiz-adv-x="354" />
<glyph horiz-adv-x="0" />
<glyph unicode="&#xd;" horiz-adv-x="354" />
<glyph unicode=" "  horiz-adv-x="354" />
<glyph unicode="&#x09;" horiz-adv-x="354" />
<glyph unicode="&#xa0;" horiz-adv-x="354" />
<glyph unicode="!" horiz-adv-x="194" d="M80 169v509h36v-509h-36zM97 0q-18 0 -18 18v64q0 17 18 17t18 -17v-64q0 -18 -18 -18z" />
<glyph unicode="&#x22;" horiz-adv-x="292" d="M203 547q-18 0 -18 17v91q0 17 18 17t18 -17v-91q0 -17 -18 -17zM87 547q-17 0 -17 17v91q0 17 17 17q19 0 19 -17v-91q0 -17 -19 -17z" />
<glyph unicode="#" horiz-adv-x="531" d="M455 359h-90l-22 -89h89l-7 -33h-89l-19 -76h-36l19 76h-105l-19 -76h-36l19 76h-89l7 33h89l23 89h-91l9 33h89l19 76h36l-19 -76h105l18 76h36l-18 -76h89zM225 359l-23 -89h105l22 89h-104z" />
<glyph unicode="$" horiz-adv-x="642" d="M408 -10v-60h-36v55q-21 -2 -42 -2q-37 0 -69 5v-58h-36v62q-196 44 -196 224v17h36v-13q0 -156 160 -193v324q-81 19 -121 51q-53 42 -53 114q0 141 174 173v64h36v-59q23 1 50 1q33 0 61 -3v61h36v-66q176 -37 179 -209h-36q-9 143 -143 175v-304q97 -25 137 -54 q56 -42 56 -127q0 -74 -62 -123q-52 -42 -131 -55zM372 659q-28 3 -61 3q-27 0 -50 -3v-281l111 -21v302zM225 654q-138 -30 -138 -138q0 -56 43 -89q30 -23 95 -40v267zM541 251q-33 35 -133 62v-289q66 11 107 45q50 41 50 102q0 55 -24 80zM372 321l-111 22v-322 q32 -5 70 -5q21 0 41 3v302z" />
<glyph unicode="%" horiz-adv-x="750" d="M162 0h-43l487 678h42zM560 -19q-141 0 -141 177q0 181 142 181q141 0 141 -181q0 -177 -142 -177zM190 301q-140 0 -140 176q0 180 141 180q142 0 142 -180q0 -176 -143 -176zM560 306q-104 0 -104 -148q0 -144 105 -144q104 0 104 144q0 148 -105 148zM190 624 q-103 0 -103 -147q0 -144 104 -144q105 0 105 144q0 147 -106 147z" />
<glyph unicode="&#x26;" horiz-adv-x="603" d="M494 -19v141q-4 -7 -7 -14q-84 -124 -220 -124q-86 0 -152 40q-76 48 -76 129q0 77 72 142q45 39 141 89q-123 60 -123 164q0 62 50 98q45 32 110 32q69 0 112 -31q50 -35 50 -101q0 -93 -187 -194q-96 -52 -129 -81q-60 -55 -60 -118q0 -65 63 -103q54 -33 123 -33 q135 0 197 115q36 64 36 140h36v-291h-36zM291 645q-50 0 -86 -24q-40 -26 -40 -74q0 -93 122 -146q128 72 128 146q0 48 -40 75q-34 23 -84 23z" />
<glyph unicode="'" horiz-adv-x="175" d="M87 547q-17 0 -17 17v91q0 17 17 17q19 0 19 -17v-91q0 -17 -19 -17z" />
<glyph unicode="(" horiz-adv-x="233" d="M190 -168q-126 197 -126 451q0 255 126 451h39q-129 -196 -129 -451t129 -451h-39z" />
<glyph unicode=")" horiz-adv-x="233" d="M38 -168h-39q134 197 134 451t-134 451h39q131 -193 131 -451q0 -257 -131 -451z" />
<glyph unicode="*" horiz-adv-x="340" d="M68 620h1l74 -35v70q0 17 18 17t18 -17v-71l73 36q5 2 9 2q10 0 15 -7q9 -16 -8 -24l-70 -33l71 -35q10 -5 10 -15q0 -16 -18 -16q-5 0 -11 2l-71 36v-70q0 -17 -18 -17t-18 17v70l-72 -36q-6 -2 -11 -2q-18 0 -18 16q0 9 11 15l71 35l-71 34q-17 8 -8 23q5 7 14 7 q4 0 9 -2z" />
<glyph unicode="+" horiz-adv-x="560" d="M298 235v-168h-36v168h-191v33h191v165h36v-165h192v-33h-192z" />
<glyph unicode="," horiz-adv-x="262" d="M128 -78q-4 -13 -17 -13q-19 0 -19 15q0 2 1 7l43 143q5 16 21 12q18 -4 13 -21z" />
<glyph unicode="-" horiz-adv-x="350" d="M44 254v20h272v-20h-272z" />
<glyph unicode="." horiz-adv-x="209" d="M105 -2q-18 0 -18 16v55q0 16 18 16t18 -16v-55q0 -16 -18 -16z" />
<glyph unicode="/" horiz-adv-x="350" d="M28 0h-38l341 694h38z" />
<glyph unicode="0" horiz-adv-x="584" d="M293 -12q-117 0 -184.5 71t-67.5 186v168q0 116 68 187t184 71t183 -70.5t67 -187.5v-168q0 -117 -67 -187t-183 -70zM507 413q0 100 -58 162.5t-157 62.5q-100 0 -157.5 -62t-57.5 -163v-168q0 -100 58 -162t157 -62q101 0 159 64q56 60 56 160v168z" />
<glyph unicode="1" horiz-adv-x="413" d="M282 0v595l-144 -117h-56l204 168h32v-646h-36z" />
<glyph unicode="2" horiz-adv-x="584" d="M50 0q2 181 202 301q35 20 140 82q89 52 89 113q0 68 -58 101q-47 27 -120 27q-204 0 -204 -200h-36q0 116 61.5 174.5t172.5 58.5q93 0 150 -35q69 -42 69 -129q0 -83 -161 -173q-83 -47 -122 -71q-56 -43 -94 -96q-47 -64 -49 -120h457v-33h-497z" />
<glyph unicode="3" horiz-adv-x="584" d="M297 -11q-116 0 -186 52q-77 59 -77 170v17h36v-31q0 -87 70 -134q60 -41 153 -41q87 0 147 35q74 42 74 122q0 151 -202 151h-53v34h54q187 0 187 132q0 68 -67 102q-51 26 -127 26q-216 0 -216 -188h-36q0 116 71 172q65 49 178 49q95 0 156 -33q77 -41 77 -128 q0 -117 -122 -148q135 -33 135 -169q0 -95 -82 -147q-69 -43 -170 -43z" />
<glyph unicode="4" horiz-adv-x="584" d="M427 220v-220h-36v220h-370l215 427h38l-199 -394h316v394l36 -1v-393h129v-33h-129z" />
<glyph unicode="5" horiz-adv-x="584" d="M288 -11q-166 0 -226 100q-30 50 -30 128h36q0 -102 63 -150q57 -45 158 -45q97 0 155 49q62 51 62 144q0 94 -67 146q-60 48 -158 48q-128 0 -190 -96h-38l15 333h444v-33h-408l-11 -248q68 78 192 78q111 0 181 -58q76 -62 76 -169q0 -109 -74 -170q-69 -57 -180 -57z " />
<glyph unicode="6" horiz-adv-x="584" d="M495 436q0 90 -59 140q-55 47 -142 47q-89 0 -143 -46q-57 -48 -58 -134v-119q61 87 198 87q102 0 167 -53q68 -57 68 -156t-70 -155q-64 -53 -167 -53q-102 0 -166 53q-68 56 -68 155v10q0 7 1 8v226q0 99 71 155q65 52 168 52q102 0 166 -54q69 -57 69 -163h-35z M290 381q-88 0 -143 -45q-57 -49 -57 -134t56 -132t144 -47t144.5 47t56.5 132q0 86 -59 134q-54 45 -142 45z" />
<glyph unicode="7" horiz-adv-x="584" d="M217 0h-38l306 613h-426v33h480z" />
<glyph unicode="8" horiz-adv-x="601" d="M301 -11q-112 0 -182 41q-84 51 -84 155q0 69 43 114q40 42 110 57q-118 35 -118 132q0 91 73 134q60 35 158 35q97 0 157 -35q75 -44 75 -134q0 -96 -120 -132q154 -34 154 -173q0 -104 -86 -154q-69 -40 -180 -40zM301 624q-195 0 -195 -137q0 -60 71 -93 q56 -25 125 -25q72 0 127 27q68 33 68 93q0 135 -196 135zM302 336q-231 0 -231 -152q0 -87 75 -129q59 -33 155 -33t155 33q75 41 75 129q0 152 -229 152z" />
<glyph unicode="9" horiz-adv-x="584" d="M529 436v-245q0 -98 -72 -154q-66 -52 -168 -52t-166 53q-68 56 -68 162h35q0 -91 56 -138.5t144 -47.5q87 0 143.5 47.5t57.5 131.5v139q-61 -87 -198 -87q-102 0 -166 53q-68 56 -68 155q0 98 69 156q65 53 167 53t166 -54q69 -56 69 -155v-10q-1 -5 -1 -7zM294 633 q-88 0 -144 -47t-56 -133q0 -85 56 -131.5t144 -46.5t144.5 46.5t56.5 131.5q0 86 -59 135q-54 45 -142 45z" />
<glyph unicode=":" horiz-adv-x="244" d="M123 366q-18 0 -18 18v63q0 18 18 18q16 0 17 -18l1 -63q0 -18 -18 -18zM123 -2q-18 0 -18 18v63q0 18 18 18q16 0 17 -18l1 -63q0 -18 -18 -18z" />
<glyph unicode=";" horiz-adv-x="251" d="M143 366q-18 0 -18 18v63q0 18 18 18t18 -18v-63q0 -18 -18 -18zM122 -77q-4 -14 -17 -14q-19 0 -19 16q0 2 1 7l43 151q5 18 21 13q18 -4 13 -22z" />
<glyph unicode="&#x3c;" horiz-adv-x="535" d="M41 225v31l445 179v-35l-399 -160l399 -160v-35z" />
<glyph unicode="=" horiz-adv-x="630" d="M43 282v31h545v-31h-545zM43 167v31h545v-31h-545z" />
<glyph unicode="&#x3e;" horiz-adv-x="535" d="M41 45v35l398 160l-398 160v35l445 -179v-31z" />
<glyph unicode="?" d="M274 200v-31h-37v25q0 99 100 181q60 49 80 77q25 34 25 80q0 67 -58 101q-47 28 -120 28q-180 0 -199 -173l-33 19q13 95 78 142q60 45 155 45q85 0 144 -38q69 -44 69 -124q0 -86 -102 -169t-102 -163zM254 0q-17 0 -17 18v64q0 17 17 17q19 0 19 -17v-64 q0 -18 -19 -18z" />
<glyph unicode="@" horiz-adv-x="840" d="M722 217q-22 -29 -57 -51q-39 -25 -71 -25q-38 0 -38 42q0 6 5 45q-69 -100 -194 -101q-99 -1 -148 68q-33 47 -33 111q0 111 62 182q67 75 179 77q129 1 166 -96l13 96h34l-50 -373v-7q1 -8 11 -8q23 0 54 24q27 21 42 44q53 82 53 156q0 121 -97 195q-88 67 -213 67 q-148 0 -247 -87q-102 -90 -102 -236q0 -144 103 -233q99 -86 245 -86q85 0 168 38q90 40 132 110h41q-46 -87 -149 -135q-94 -45 -187 -45q-162 0 -274 95q-118 101 -118 261q0 157 115 256q110 94 269 94q142 0 241 -75q110 -83 110 -221q0 -97 -65 -182zM421 534 q-92 -1 -147.5 -66.5t-55.5 -158.5q0 -71 39.5 -112t111.5 -41q81 1 139 56t70 136q2 13 2 36q0 74 -42 112.5t-117 37.5z" />
<glyph unicode="A" horiz-adv-x="636" d="M603 0l-97 218h-372l-99 -218h-42l312 678h37l300 -678h-39zM324 628l-174 -377h342z" />
<glyph unicode="B" horiz-adv-x="642" d="M359 0h-317v678h330q93 0 152 -40q67 -46 67 -135q0 -106 -127 -148q149 -32 149 -170q0 -97 -83 -146q-66 -39 -171 -39zM370 645h-292v-275h291q76 0 126 31q60 36 60 107t-60 107q-49 30 -125 30zM367 337h-289v-304h293q84 0 140 33q67 40 67 118q0 82 -69 121 q-54 32 -142 32z" />
<glyph unicode="C" horiz-adv-x="719" d="M648 542q-74 110 -246 110q-147 0 -234.5 -85t-87.5 -229q0 -143 84 -227.5t227 -84.5q165 0 248 112l31 -20q-94 -125 -278 -125q-161 0 -254.5 92t-93.5 249q0 161 96.5 256t261.5 95q191 0 276 -123z" />
<glyph unicode="D" horiz-adv-x="680" d="M277 0h-227v678h265q164 0 248 -91q82 -87 82 -249q0 -166 -103 -254q-97 -84 -265 -84zM537 563q-75 82 -223 82h-228v-612h194q154 0 241.5 77.5t87.5 227.5q0 148 -72 225z" />
<glyph unicode="E" horiz-adv-x="564" d="M50 0v678h501v-33h-466v-275h413v-32h-413v-305h471v-33h-506z" />
<glyph unicode="F" horiz-adv-x="505" d="M85 645v-275h368v-32h-368v-338h-35v678h465v-33h-430z" />
<glyph unicode="G" horiz-adv-x="758" d="M607 56q-90 -63 -216 -63q-167 0 -264 88q-100 91 -100 256q0 161 96 254.5t261 93.5q123 0 204 -50q92 -57 117 -179h-37q-44 196 -283 196q-149 0 -235.5 -84t-86.5 -230q0 -149 87.5 -230.5t240.5 -81.5q117 0 198 60q91 66 91 179v26h-291v33h325q3 -28 3 -48 q0 -143 -110 -220z" />
<glyph unicode="H" horiz-adv-x="680" d="M595 0v338h-509v-338h-36v678h36v-308h509v308h36v-678h-36z" />
<glyph unicode="I" horiz-adv-x="134" d="M50 0v678h36v-678h-36z" />
<glyph unicode="J" horiz-adv-x="486" d="M223 -7q-195 0 -211 163h36q11 -130 171 -130q97 0 137 39.5t40 133.5v479h36v-485q0 -200 -209 -200z" />
<glyph unicode="K" horiz-adv-x="670" d="M619 0l-381 367l-152 -119v-248h-36v678h36v-387l508 387h57l-384 -291l401 -387h-49z" />
<glyph unicode="L" horiz-adv-x="505" d="M50 0v678h36v-645h428v-33h-464z" />
<glyph unicode="M" horiz-adv-x="819" d="M733 0v619l-307 -619h-33l-307 619v-619h-36v678h46l313 -631l314 631h46v-678h-36z" />
<glyph unicode="N" horiz-adv-x="680" d="M588 0l-502 629v-629h-36v678h42q84 -110 251 -314q173 -212 252 -313v627h36v-678h-43z" />
<glyph unicode="O" horiz-adv-x="757" d="M379 -7q-165 0 -258 92t-93 254q0 160 93.5 248t257.5 88t258.5 -88t94.5 -248q0 -163 -95 -254.5t-258 -91.5zM379 642q-148 0 -231.5 -79.5t-83.5 -223.5t84 -228.5t231 -84.5q149 0 233 83.5t84 229.5t-86 226q-83 77 -231 77z" />
<glyph unicode="P" horiz-adv-x="621" d="M346 302h-260v-302h-36v678h307q240 0 240 -190q0 -96 -82 -145q-66 -41 -169 -41zM363 645h-277v-309h278q79 0 133 35q63 41 63 116q0 158 -197 158z" />
<glyph unicode="Q" horiz-adv-x="757" d="M485 5q35 -38 94 -38h100v-33h-100q-83 0 -131 63q-33 -5 -69 -5q-165 0 -258 92t-93 254q0 161 93.5 249t257.5 88t258.5 -88t94.5 -249q0 -126 -62 -213q-65 -91 -185 -120zM379 642q-148 0 -231.5 -79.5t-83.5 -224.5q0 -142 83 -226q14 48 56.5 76t94.5 28 q64 0 111 -40t47 -102q0 -20 8 -40q114 25 174 109q58 79 58 195q0 147 -84.5 225.5t-232.5 78.5zM422 75q0 49 -36.5 79t-87.5 30q-46 0 -81 -25q-37 -28 -41 -71q82 -63 203 -63q27 0 52 4q-9 22 -9 46z" />
<glyph unicode="R" horiz-adv-x="642" d="M470 330q120 -36 120 -161v-169h-36v166q0 144 -194 144h-274v-310h-36v678h319q231 0 231 -175q0 -132 -130 -173zM371 645h-285v-301h269q87 0 142 34q67 41 67 122q0 145 -193 145z" />
<glyph unicode="S" horiz-adv-x="642" d="M330 -7q-129 0 -207 46q-94 57 -94 178v17h36v-13q0 -195 266 -195q91 0 152 28q82 38 82 118q0 55 -30 84q-25 25 -83 42q-30 9 -143 33q-127 27 -172 50q-86 46 -86 134q0 170 260 170q272 0 276 -208h-36q-6 104 -76 143q-55 32 -164 32q-224 0 -224 -137 q0 -68 63 -102q41 -22 140 -40q181 -33 241 -70q70 -42 70 -134q0 -93 -95 -140q-73 -36 -176 -36z" />
<glyph unicode="T" horiz-adv-x="545" d="M291 645v-645h-36v645h-260v33h555v-33h-259z" />
<glyph unicode="U" horiz-adv-x="664" d="M541 53q-68 -60 -209 -60q-142 0 -210 60q-72 63 -72 201v424h36v-423q0 -229 246 -229t246 225v427h36v-426q0 -136 -73 -199z" />
<glyph unicode="V" horiz-adv-x="628" d="M335 0h-33l-300 678h37l280 -630l271 630h37z" />
<glyph unicode="W" horiz-adv-x="970" d="M684 0h-33l-164 384l-160 -384h-33l-289 678h37l269 -630l156 381l-105 249h37l269 -630l260 630h37z" />
<glyph unicode="X" horiz-adv-x="604" d="M573 0l-269 322l-272 -322h-46l294 349l-279 329h48l255 -303l257 303h47l-279 -329l290 -349h-46z" />
<glyph unicode="Y" horiz-adv-x="626" d="M332 330v-330h-36v330l-313 348h46l284 -314l285 314h45z" />
<glyph unicode="Z" horiz-adv-x="626" d="M30 0v35l515 610h-486v33h531v-34l-516 -611h524v-33h-568z" />
<glyph unicode="[" horiz-adv-x="233" d="M94 -168v902h133v-33h-97v-836h97v-33h-133z" />
<glyph unicode="\" horiz-adv-x="350" d="M324 0l-344 694h38l344 -694h-38z" />
<glyph unicode="]" horiz-adv-x="233" d="M138 -168h-131v33h96l1 40l-1 796h-96v33h133z" />
<glyph unicode="^" horiz-adv-x="298" d="M208 511l-61 97l-61 -97h-38l84 135h29l88 -135h-41z" />
<glyph unicode="_" d="M-8 -119v48h541v-48h-541z" />
<glyph unicode="`" horiz-adv-x="193" d="M165 532q-11 -7 -25 3l-114 110q-14 14 2 24q13 10 27 -3l113 -111q12 -13 -3 -23z" />
<glyph unicode="a" horiz-adv-x="564" d="M471 0v110q-64 -121 -211 -121q-113 0 -177 74q-61 69 -61 180q0 113 61 183q66 74 181 74q147 0 207 -118v116h36v-498h-36zM259 467q-96 0 -151 -67q-51 -62 -51 -157q0 -96 50 -156q55 -65 152 -65q96 0 155 65q57 62 57 156q0 103 -55 163.5t-157 60.5z" />
<glyph unicode="b" horiz-adv-x="564" d="M292 -10q-66 0 -121 31.5t-84 87.5v-109h-36v678h36v-292q58 118 206 118q116 0 181 -75q60 -69 60 -185t-63.5 -185t-178.5 -69zM297 471q-105 0 -160 -65q-50 -59 -50 -164q0 -96 58 -157.5t153 -61.5q97 0 151 65q50 60 50 157q0 100 -50 160q-54 66 -152 66z" />
<glyph unicode="c" d="M414 26q-58 -37 -140 -37q-115 0 -181.5 67t-66.5 179q0 122 69 193.5t190 71.5q74 0 128 -34q60 -38 79 -111l-33 -17q-33 129 -176 129q-105 0 -165 -66q-56 -62 -56 -166q0 -97 56 -155t155 -58q70 0 121 33q55 36 69 108l35 -15q-19 -81 -84 -122z" />
<glyph unicode="d" horiz-adv-x="564" d="M471 0v110q-64 -121 -211 -121q-113 0 -177 74q-61 70 -61 182q0 114 61 184q66 75 181 75q147 0 207 -119v293h36v-678h-36zM259 471q-96 0 -151 -68q-51 -63 -51 -158q0 -97 50 -157q55 -66 152 -66q96 0 155 66q57 62 57 157q0 103 -55 164.5t-157 61.5z" />
<glyph unicode="e" d="M54 233q6 -211 208 -211q68 0 120.5 31t75.5 91h37q-26 -83 -92 -121q-60 -34 -143 -34q-120 0 -183 70q-58 66 -58 184q0 114 66.5 185.5t179.5 71.5q112 0 179 -64t67 -174v-28zM265 467q-92 0 -148 -54.5t-63 -146.5h415q-2 92 -57 146.5t-147 54.5z" />
<glyph unicode="f" horiz-adv-x="267" d="M131 481v-41h111v-34h-111v-407h-36v407h-72v34h72v41q0 185 239 185v-32q-203 0 -203 -153z" />
<glyph unicode="g" horiz-adv-x="545" d="M266 -179q-87 0 -143 34q-66 41 -71 131h36q11 -132 179 -132q194 0 194 167v90q-30 -51 -85.5 -79t-118.5 -28q-109 0 -171.5 68.5t-62.5 177.5q0 112 64 181t177 69q64 0 115 -29q55 -30 82 -83v100h36v-468q0 -199 -231 -199zM262 467q-93 0 -150 -63 q-53 -61 -53 -153q0 -93 49 -151q53 -63 147 -63q95 0 151 60q55 57 55 151q0 92 -54 155.5t-145 63.5z" />
<glyph unicode="h" d="M437 0v323q0 72 -44 110t-118 38q-87 0 -137.5 -54t-50.5 -141v-276h-36v678h36v-274q50 100 187 100q87 0 140 -42q59 -46 59 -129v-333h-36z" />
<glyph unicode="i" horiz-adv-x="136" d="M67 590q-11 0 -16 14v68q6 15 16 15q9 0 20 -14v-70q-10 -13 -20 -13zM51 0v492h36v-492h-36z" />
<glyph unicode="j" horiz-adv-x="136" d="M67 590q-11 0 -16 14v68q6 15 16 15q9 0 20 -14v-71q-10 -12 -20 -12zM-156 -179v32q204 0 204 169v469h36v-470q0 -200 -240 -200z" />
<glyph unicode="k" horiz-adv-x="532" d="M468 0l-261 280l-120 -87v-193h-36v678h36v-443l353 258l64 -1l-269 -190l281 -302h-48z" />
<glyph unicode="l" horiz-adv-x="136" d="M51 0v678h36v-678h-36z" />
<glyph unicode="m" horiz-adv-x="817" d="M730 0v321q0 146 -138 146q-75 0 -120 -43.5t-45 -116.5v-307h-36v321q0 146 -141 146q-79 0 -124 -60q-39 -53 -39 -133v-274h-36v488h36v-85q48 97 173 97q120 0 157 -99q44 99 173 99q176 0 176 -169v-331h-36z" />
<glyph unicode="n" d="M437 0v321q0 71 -44 108.5t-118 37.5q-87 0 -137.5 -53.5t-50.5 -139.5v-274h-36v488h36v-88q50 100 187 100q87 0 140 -42q59 -45 59 -127v-331h-36z" />
<glyph unicode="o" horiz-adv-x="545" d="M272 -11q-116 0 -184 72q-66 69 -66 183q0 116 68.5 186t183.5 70t183 -70t68 -186q0 -115 -69 -185t-184 -70zM273 467q-100 0 -157.5 -61t-57.5 -162q0 -100 58 -161t157 -61t157.5 61t58.5 161q0 102 -57.5 162.5t-158.5 60.5z" />
<glyph unicode="p" horiz-adv-x="564" d="M293 -14q-148 0 -206 117v-271h-36v656h36v-106q28 57 83 87.5t122 30.5q116 0 179 -70.5t63 -185.5q0 -117 -61 -186q-64 -72 -180 -72zM298 467q-97 0 -154 -61.5t-57 -159.5q0 -105 50 -164q55 -63 160 -63q98 0 152 66q50 61 50 158q0 98 -51 159q-54 65 -150 65z " />
<glyph unicode="q" horiz-adv-x="564" d="M470 -168v269q-56 -115 -212 -115q-109 0 -175 76q-61 72 -61 182q0 111 62 181q66 75 178 75q149 0 208 -118v106h36v-656h-36zM257 467q-96 0 -150 -67q-49 -61 -49 -157q0 -95 50 -157q55 -67 150 -67q104 0 160 62q53 59 53 162q0 98 -57.5 161t-156.5 63z" />
<glyph unicode="r" horiz-adv-x="318" d="M87 382q16 36 50 65q64 53 163 53v-33q-115 0 -169 -87q-44 -72 -44 -185v-195h-36v488h36v-106z" />
<glyph unicode="s" horiz-adv-x="486" d="M249 -13q-215 0 -215 190h38q0 -155 178 -155q62 0 102 21q53 27 53 82q0 69 -106 93q-7 2 -101 17q-143 22 -143 127q0 67 56 105q49 34 121 34q207 0 208 -168h-39q0 133 -164 133q-56 0 -97 -24q-47 -29 -47 -80q0 -68 103 -88q27 -5 106 -19q141 -25 141 -130 q0 -74 -64 -110q-50 -28 -130 -28z" />
<glyph unicode="t" horiz-adv-x="263" d="M149 430v-430h-34l-2 430h-99v34h99v150h36v-150h101v-34h-101z" />
<glyph unicode="u" d="M437 0v88q-52 -99 -187 -99q-91 0 -145 46t-54 134v319h36v-318q0 -73 43.5 -110.5t119.5 -37.5q93 0 142 57q45 53 45 144v265h36v-488h-36z" />
<glyph unicode="v" horiz-adv-x="471" d="M263 0h-36l-230 488h43l205 -447l190 447h39z" />
<glyph unicode="w" horiz-adv-x="771" d="M555 0h-37l-128 287l-119 -287h-36l-218 488h41l195 -446l117 291l-71 155h43l194 -446l180 446h39z" />
<glyph unicode="x" horiz-adv-x="467" d="M434 0l-201 227l-200 -227h-45l223 253l-203 235h47l178 -210l183 210h44l-203 -235l222 -253h-45z" />
<glyph unicode="y" d="M241 -179q-87 0 -142 34q-66 42 -71 131h36q11 -132 179 -132q194 0 194 167v64q-52 -100 -187 -100q-91 0 -145 46.5t-54 135.5v321h36v-320q0 -74 43.5 -111.5t119.5 -37.5q93 0 142 57q45 53 45 145v267h36v-468q0 -199 -232 -199z" />
<glyph unicode="z" horiz-adv-x="473" d="M21 0v33l369 422h-340v33h386v-32l-370 -423h387v-33h-432z" />
<glyph unicode="{" horiz-adv-x="350" d="M243 -168q-85 0 -85 101v225q0 59 -18 79q-10 12 -58 33v27q48 20 58 32q18 20 18 79v225q0 101 85 101h19v-33h-18q-35 0 -45 -31q-5 -16 -5 -61v-203q0 -65 -21 -92q-11 -14 -44 -31q34 -16 44 -30q21 -27 21 -93v-202q0 -46 5 -62q10 -31 45 -31h18v-33h-19z" />
<glyph unicode="|" horiz-adv-x="233" d="M99 -32v738h36v-738h-36z" />
<glyph unicode="}" horiz-adv-x="350" d="M203 237q-17 -20 -17 -79v-225q0 -101 -86 -101h-18v33h17q35 0 45 31q6 16 6 62v202q0 66 20 93q10 14 44 30q-33 17 -44 31q-20 27 -20 92v203q0 45 -6 61q-10 31 -45 31h-17v33h18q86 0 86 -101v-225q0 -59 17 -79q10 -12 59 -32v-27q-49 -21 -59 -33z" />
<glyph unicode="~" horiz-adv-x="548" d="M380 351q-31 0 -110.5 33t-101.5 33q-61 0 -73 -67h-47q8 47 42 75.5t80 28.5q29 0 108 -33.5t102 -33.5q62 0 74 69h47q-8 -49 -42 -77t-79 -28z" />
<glyph unicode="&#xa0;" />
<glyph unicode="&#xa1;" horiz-adv-x="194" d="M98 484q-18 0 -18 17v64q0 18 18 18t18 -18v-64q0 -17 -18 -17zM79 -95v509h36v-509h-36z" />
<glyph unicode="&#xa2;" d="M414 26q-58 -38 -140 -38q-65 0 -117 23l-23 -47h-38l32 64q-102 68 -102 208q0 121 69 193t190 72q38 0 71 -9l29 59h38l-35 -70q79 -36 104 -125l-33 -17q-21 81 -85 111l-201 -408q43 -20 100 -20q70 0 121 32q55 36 69 109l35 -15q-19 -81 -84 -122zM283 468 q-105 0 -165 -66q-56 -63 -56 -166q0 -118 81 -177l198 402q-27 7 -58 7z" />
<glyph unicode="&#xa4;" horiz-adv-x="584" d="M481 194l-100 86q-43 -30 -99 -30t-99 31l-101 -87l-25 21l101 88q-33 36 -33 84q0 49 34 86l-102 89l25 21l102 -88q43 29 97 29q56 0 98 -29l102 88l25 -21l-102 -89q36 -37 36 -85q0 -49 -34 -86l100 -87zM282 492q-50 0 -85 -27q-37 -30 -37 -77t36 -76.5t86 -29.5 t87 29t37 76q0 49 -39 78q-35 27 -85 27z" />
<glyph unicode="&#xa5;" horiz-adv-x="645" d="M342 330v-46h212v-34h-212v-91h212v-33h-212v-126h-36v126h-212v33h212v91h-212v34h212v46l-313 348h46l284 -314l285 314h45z" />
<glyph unicode="&#xa6;" horiz-adv-x="233" d="M99 372v324h36v-324h-36zM99 -23v324h36v-324h-36z" />
<glyph unicode="&#xa7;" horiz-adv-x="584" d="M382 143q94 -32 94 -111q0 -67 -57 -106q-49 -34 -120 -34q-205 0 -205 167h36q0 -134 164 -134q59 0 98 24q48 28 48 83q0 67 -86 85l-154 31q-47 15 -78 49q-34 38 -30 83q7 93 109 119q-94 32 -94 112q0 67 56 106q49 34 120 34q206 0 207 -168h-36q0 135 -165 135 q-58 0 -98 -24q-48 -29 -48 -83q0 -52 57 -74q22 -9 129 -30q53 -5 86 -24q78 -33 78 -110q0 -102 -111 -130zM281 375q-126 0 -151 -76v-15q0 -58 59 -90q48 -26 112 -26q62 0 103 21q52 27 52 83q-24 103 -175 103z" />
<glyph unicode="&#xa8;" horiz-adv-x="214" d="M165 547q-17 0 -17 16v46q0 15 17 15q19 0 19 -15v-46q0 -16 -19 -16zM50 547q-18 0 -18 16v46q0 15 18 15t18 -15v-46q0 -16 -18 -16z" />
<glyph unicode="&#xa9;" horiz-adv-x="560" d="M285 236q-103 0 -173 56q-76 61 -76 161q0 98 76 160q71 59 171 59t172 -58q78 -62 78 -160t-77 -160q-71 -58 -171 -58zM285 637q-85 0 -146 -48q-65 -52 -65 -135t64 -135q60 -49 145 -49t146 48q66 52 66 135t-65 135q-60 49 -145 49zM293 310q-68 0 -110.5 38 t-42.5 103q0 63 41.5 99.5t107.5 36.5q114 0 132 -106h-39q-15 71 -94 71q-49 0 -79.5 -27t-30.5 -74q0 -49 32 -77.5t83 -28.5q66 0 89 76h41q-33 -111 -130 -111z" />
<glyph unicode="&#xaa;" horiz-adv-x="378" d="M305 349v44q-41 -51 -118 -51q-71 0 -112 46q-39 43 -39 112q0 70 40.5 114t112.5 44q76 0 116 -49v48h38v-308h-38zM187 624q-55 0 -85 -37q-28 -33 -28 -87t27 -87q30 -37 86 -37q54 0 87 37q31 34 31 87q0 58 -30.5 91t-87.5 33z" />
<glyph unicode="&#xab;" horiz-adv-x="391" d="M180 261v25l164 113v-38l-124 -87l124 -88v-35zM64 261v25l164 113v-38l-124 -87l124 -88v-35z" />
<glyph unicode="&#xac;" horiz-adv-x="602" d="M512 134v137h-470v31h506v-168h-36z" />
<glyph unicode="&#xae;" horiz-adv-x="543" d="M274 236q-101 0 -172 57q-76 61 -76 160q0 98 76 160q71 59 171 59q101 0 172 -58q77 -61 77 -160q0 -100 -76 -161q-70 -57 -172 -57zM274 637q-86 0 -146 -48q-64 -51 -64 -135t62 -135q59 -49 147 -49q86 0 146 48q65 51 65 135q0 85 -64 136q-59 48 -146 48zM362 447 q27 -18 27 -56v-72h-39v71q0 39 -53 39h-80v-110h-38v264h121q92 0 92 -74q0 -41 -30 -62zM300 547h-83v-82h78q59 0 59 43q0 39 -54 39z" />
<glyph unicode="&#xaf;" horiz-adv-x="313" d="M28 597v19h259v-19h-259z" />
<glyph unicode="&#xb0;" horiz-adv-x="420" d="M210 385q-63 0 -110 38t-47 97t46.5 97t109.5 38q64 0 109 -36q49 -38 49 -98q0 -61 -47.5 -98.5t-109.5 -37.5zM210 624q-50 0 -86 -28.5t-36 -74.5t36 -75.5t86 -29.5t86.5 28.5t36.5 75.5q0 48 -36.5 76t-86.5 28z" />
<glyph unicode="&#xb1;" horiz-adv-x="630" d="M333 234v-169h-36v169h-191v33h191v166h36v-166h192v-33h-192zM107 -3v34h419v-34h-419z" />
<glyph unicode="&#xb2;" horiz-adv-x="392" d="M29 256q0 86 71 149q31 27 134 83q72 40 72 70q0 69 -108 69q-123 0 -123 -118h-39q0 153 158 153q150 0 150 -106q0 -48 -72 -88l-87 -48q-107 -59 -116 -130h295v-34h-335z" />
<glyph unicode="&#xb3;" horiz-adv-x="426" d="M218 252q-77 0 -124 31q-56 36 -56 107v18h40v-26q0 -49 45 -75q37 -20 91 -20q52 0 88 17q48 22 48 68q0 83 -123 83h-43v34h44q114 0 114 70q0 37 -44 55q-32 13 -75 13q-132 0 -132 -112h-39q0 147 170 147q62 0 104 -21q55 -27 55 -82q0 -63 -62 -87q70 -27 70 -100 q0 -62 -58 -94q-46 -26 -113 -26z" />
<glyph unicode="&#xb4;" horiz-adv-x="212" d="M64 535q-7 -6 -15 -6q-19 0 -19 15q0 6 5 11l113 111q7 7 16 7q18 0 18 -16q0 -6 -5 -12z" />
<glyph unicode="&#xb5;" d="M388 11q-17 -9 -17 -26q0 -42 81 -42v-36q-47 0 -80 17q-43 21 -43 58v8q-26 -5 -56 -5q-135 0 -186 100v-256h-36v659h36v-266q0 -93 44 -146q49 -57 142 -57q76 0 120 37.5t44 111.5v320h36v-321q0 -111 -85 -156z" />
<glyph unicode="&#xb6;" horiz-adv-x="496" d="M406 -133v778h-71v-778h-36v378q-100 -4 -172 57t-72 160q0 98 77 160q72 57 173 57q4 0 7 -1h130v-811h-36z" />
<glyph unicode="&#xb7;" horiz-adv-x="209" d="M119 280q-18 0 -18 17v54q0 16 18 16t18 -16v-54q0 -17 -18 -17z" />
<glyph unicode="&#xb8;" horiz-adv-x="259" d="M123 -174q-38 0 -101 17l16 30q50 -16 82 -16q74 0 74 41q0 25 -54 30q-29 2 -45 -6v17l7 70h36l-2 -50h8q90 0 90 -65q0 -68 -111 -68z" />
<glyph unicode="&#xb9;" horiz-adv-x="287" d="M176 260v342l-101 -63h-67l177 114h32v-393h-41z" />
<glyph unicode="&#xba;" horiz-adv-x="413" d="M205 350q-74 0 -120 41.5t-46 111.5q0 71 47 112t122 41q74 0 121 -41.5t47 -111.5q0 -72 -48.5 -112.5t-122.5 -40.5zM206 626q-59 0 -96 -33.5t-37 -89.5q0 -57 36.5 -90t96.5 -33q61 0 98.5 32.5t37.5 90.5q0 59 -40 92q-36 31 -96 31z" />
<glyph unicode="&#xbb;" horiz-adv-x="381" d="M180 151v35l123 88l-123 87v38l164 -113v-25zM64 151v35l123 88l-123 87v38l164 -113v-25z" />
<glyph unicode="&#xbc;" horiz-adv-x="816" d="M672 134v-134h-35v134h-269l161 270h38l-142 -240h212v241l35 -2v-239h92v-30h-92zM227 0h-38l340 694h38zM199 257v350l-104 -66h-59l169 111h30v-395h-36z" />
<glyph unicode="&#xbd;" horiz-adv-x="803" d="M430 0q3 119 133 192l89 49q56 37 56 64q0 73 -110 73q-125 0 -126 -122h-34q2 152 156 152q147 0 147 -105q0 -48 -65 -84q-41 -23 -90 -52q-112 -66 -119 -137h294v-30h-331zM216 0h-38l341 694h38zM188 257v350l-103 -66h-60l169 111h30v-395h-36z" />
<glyph unicode="&#xbe;" horiz-adv-x="906" d="M763 134v-134h-35v134h-269l162 270h38l-143 -240h212v241l35 -2v-239h92v-30h-92zM318 0h-38l341 694h38zM229 250q-177 0 -177 137v16h34v-25q0 -50 46 -77q39 -21 94 -21q52 0 90 18q49 24 49 71q0 86 -127 86h-40v31h41q117 0 117 72t-122 72q-134 0 -135 -113h-34 q3 144 168 144q62 0 103 -20q54 -27 54 -83q0 -63 -69 -89q78 -27 78 -100q0 -61 -58 -93q-46 -26 -112 -26z" />
<glyph unicode="&#xbf;" d="M256 500q-17 0 -17 17v64q0 18 17 18q19 0 19 -18v-64q0 -17 -19 -17zM246 -95q-86 0 -145 38q-68 44 -68 125q0 62 53 121q49 48 98 95q54 57 54 116v31h37v-26q0 -98 -102 -181q-60 -49 -80 -77q-24 -34 -24 -79q0 -67 57 -102q48 -28 121 -28q180 0 198 175l33 -21 q-13 -93 -76 -142q-60 -45 -156 -45z" />
<glyph unicode="&#xc0;" horiz-adv-x="676" d="M408 706q-13 -8 -25 3l-114 121q-13 14 2 24q12 12 26 -2l114 -121q13 -15 -3 -25zM623 0l-97 219h-372l-99 -219h-42l312 681h37l300 -681h-39zM344 631l-174 -378h342z" />
<glyph unicode="&#xc1;" horiz-adv-x="676" d="M298 711q-7 -7 -15 -7q-19 0 -19 17q0 6 5 12l114 121q7 7 15 7q18 0 18 -17q0 -6 -5 -12zM623 0l-97 219h-372l-99 -219h-42l312 681h37l300 -681h-39zM344 631l-174 -378h342z" />
<glyph unicode="&#xc2;" horiz-adv-x="676" d="M421 700l-82 109l-82 -109h-40l108 147h29l110 -147h-43zM623 0l-97 219h-372l-99 -219h-42l312 681h37l300 -681h-39zM344 631l-174 -378h342z" />
<glyph unicode="&#xc3;" horiz-adv-x="676" d="M415 714q-19 0 -71.5 27t-64.5 27q-16 0 -29 -15t-14 -46l-32 21q0 32 24 52.5t53 20.5q17 0 71 -28q51 -26 63 -26q17 0 30 15t14 45l32 -18q-3 -33 -25 -54t-51 -21zM623 0l-97 219h-372l-99 -219h-42l312 680h37l300 -680h-39zM344 630l-174 -378h342z" />
<glyph unicode="&#xc4;" horiz-adv-x="676" d="M398 709q-17 0 -17 18v54q0 18 17 18q19 0 19 -18v-54q0 -18 -19 -18zM283 709q-18 0 -18 18v54q0 18 18 18t18 -18v-54q0 -18 -18 -18zM623 0l-97 219h-372l-99 -219h-42l312 680h37l300 -680h-39zM344 630l-174 -378h342z" />
<glyph unicode="&#xc5;" horiz-adv-x="676" d="M339 715q-35 0 -60 22t-25 57q0 34 25 56.5t60 22.5q36 0 61 -22t25 -57t-25 -57t-61 -22zM623 0l-97 219h-372l-99 -219h-42l312 681h37l300 -681h-39zM339 838q-20 0 -33.5 -12.5t-13.5 -31.5q0 -20 13.5 -32t33.5 -12q49 0 49 44t-49 44zM344 631l-174 -378h342z" />
<glyph unicode="&#xc6;" horiz-adv-x="1077" d="M583 0v338h-265l-303 -338h-45l611 678h453v-33h-414v-274h46v-1h315v-32h-361v-305h419v-33h-456zM349 371h234l1 259z" />
<glyph unicode="&#xc7;" horiz-adv-x="719" d="M648 542q-74 110 -246 110q-147 0 -234.5 -85.5t-87.5 -229.5t83.5 -228.5t227.5 -84.5q165 0 248 111l31 -20q-94 -125 -278 -125q-161 0 -254.5 92.5t-93.5 250.5q0 161 96.5 256.5t261.5 95.5q191 0 276 -123zM374 -174q-38 0 -102 19l17 31q50 -17 82 -17q73 0 73 43 q0 28 -53 32q-29 3 -45 -5v17l7 75h36l-2 -54q3 1 8 1q90 0 90 -70q0 -72 -111 -72z" />
<glyph unicode="&#xc8;" horiz-adv-x="564" d="M351 697q-14 -10 -27 3l-113 120q-14 15 2 25q13 11 26 -2l114 -121q12 -14 -2 -25zM50 0v681h501v-33h-466v-277h413v-32h-413v-306h471v-33h-506z" />
<glyph unicode="&#xc9;" horiz-adv-x="564" d="M240 700q-7 -7 -15 -7q-19 0 -19 17q0 6 5 12l114 121q7 6 15 6q18 0 18 -17q0 -6 -5 -12zM50 0v681h501v-33h-466v-277h413v-32h-413v-306h471v-33h-506z" />
<glyph unicode="&#xca;" horiz-adv-x="564" d="M362 710l-82 109l-82 -109h-40l108 147h29l111 -147h-44zM50 0v681h501v-33h-466v-277h413v-32h-413v-306h471v-33h-506z" />
<glyph unicode="&#xcb;" horiz-adv-x="564" d="M340 717q-18 0 -18 18v54q0 18 18 18t18 -18v-54q0 -18 -18 -18zM224 717q-17 0 -17 18v54q0 18 17 18q19 0 19 -18v-54q0 -18 -19 -18zM50 0v680h501v-33h-466v-276h413v-32h-413v-306h471v-33h-506z" />
<glyph unicode="&#xcc;" horiz-adv-x="134" d="M135 712q-14 -10 -26 3l-113 120q-13 15 2 25q14 11 27 -2l113 -121q13 -14 -3 -25zM50 0v681h36v-681h-36z" />
<glyph unicode="&#xcd;" horiz-adv-x="134" d="M25 711q-7 -7 -15 -7q-19 0 -19 17q0 6 5 12l113 121q7 7 16 7q18 0 18 -17q0 -6 -5 -12zM50 0v681h36v-681h-36z" />
<glyph unicode="&#xce;" horiz-adv-x="134" d="M148 706l-82 109l-83 -109h-40l108 147h29l111 -147h-43zM50 0v681h36v-681h-36z" />
<glyph unicode="&#xcf;" horiz-adv-x="134" d="M125 724q-17 0 -17 19v54q0 17 17 17t18 -17l1 -54q0 -19 -19 -19zM10 724q-20 0 -20 19v54q0 17 20 17q16 0 17 -17l1 -54q0 -19 -18 -19zM50 0v680h36v-680h-36z" />
<glyph unicode="&#xd0;" horiz-adv-x="680" d="M277 0h-227v323h-37v34h37v321h265q164 0 248 -91q82 -87 82 -249q0 -166 -103 -254q-97 -84 -265 -84zM537 563q-75 82 -223 82h-228v-288h198v-34h-198v-290h194q154 0 241.5 77.5t87.5 227.5q0 148 -72 225z" />
<glyph unicode="&#xd1;" horiz-adv-x="680" d="M408 708q-19 0 -71.5 27t-64.5 27q-16 0 -29 -15t-14 -46l-32 21q0 31 24.5 52t51.5 21q18 0 72 -28q51 -26 63 -26q17 0 30 15t14 45l32 -17q-3 -33 -25 -54.5t-51 -21.5zM588 0l-502 631v-631h-36v680h42q84 -111 251 -315q173 -212 252 -314v629h36v-680h-43z" />
<glyph unicode="&#xd2;" horiz-adv-x="757" d="M447 710q-13 -9 -24 3l-115 120q-4 6 -4 12q0 18 18 18q8 0 15 -7l113 -121q13 -15 -3 -25zM379 -7q-165 0 -258 92.5t-93 254.5q0 161 93.5 249.5t257.5 88.5t258 -87q95 -90 95 -251q0 -162 -95 -254.5t-258 -92.5zM379 645q-148 0 -231.5 -80t-83.5 -225 q0 -144 84 -229t231 -85q149 0 233 84t84 230q0 147 -84.5 226t-232.5 79z" />
<glyph unicode="&#xd3;" horiz-adv-x="757" d="M335 717q-7 -6 -14 -6q-18 0 -18 15q0 7 5 13l113 121q12 12 27 3q15 -12 1 -26zM379 -7q-165 0 -258 92.5t-93 255.5q0 160 93.5 248.5t257.5 88.5t258 -87q95 -90 95 -250q0 -163 -95 -255.5t-258 -92.5zM379 645q-148 0 -231.5 -80t-83.5 -224q0 -145 84 -230t231 -85 q149 0 233 84t84 231q0 146 -84.5 225t-232.5 79z" />
<glyph unicode="&#xd4;" horiz-adv-x="757" d="M459 718l-82 108l-82 -108h-40l107 146h29l111 -146h-43zM379 -7q-165 0 -258 92.5t-93 255.5q0 160 93.5 248.5t257.5 88.5t258 -87q95 -90 95 -250q0 -163 -95 -255.5t-258 -92.5zM379 645q-148 0 -231.5 -80t-83.5 -224q0 -145 84 -230t231 -85q149 0 233 84t84 231 q0 146 -84.5 225t-232.5 79z" />
<glyph unicode="&#xd5;" horiz-adv-x="757" d="M448 729q-18 0 -70.5 27t-64.5 27q-19 0 -32 -18q-10 -14 -13 -43l-30 21q0 31 24.5 52t51.5 21q18 0 72 -28q51 -26 62 -26q18 0 31 15t14 45l32 -18q-4 -33 -26 -54t-51 -21zM379 -7q-165 0 -258 92.5t-93 254.5q0 161 93.5 249.5t257.5 88.5t258.5 -88.5t94.5 -249.5 q0 -163 -95 -255t-258 -92zM379 644q-148 0 -231.5 -79.5t-83.5 -224.5t84 -229.5t231 -84.5q149 0 233 84t84 230q0 147 -86 227q-83 77 -231 77z" />
<glyph unicode="&#xd6;" horiz-adv-x="757" d="M437 724q-18 0 -18 19v54q0 17 18 17q16 0 17 -17l1 -54q0 -19 -18 -19zM321 724q-17 0 -17 19v54q0 17 17 17t18 -17l1 -54q0 -19 -19 -19zM379 -7q-165 0 -258 92.5t-93 254.5q0 161 93.5 249t257.5 88t258.5 -88t94.5 -249q0 -163 -95 -255t-258 -92zM379 644 q-148 0 -231.5 -79.5t-83.5 -224.5t84 -229.5t231 -84.5q149 0 233 84t84 230q0 147 -86 227q-83 77 -231 77z" />
<glyph unicode="&#xd7;" horiz-adv-x="490" d="M381 112l-136 116l-136 -115l-25 22l135 117l-134 115l26 23l134 -116l135 116l26 -23l-135 -115l136 -119z" />
<glyph unicode="&#xd8;" horiz-adv-x="757" d="M379 -7q-78 0 -141 21l-21 -43h-38l28 57q-52 23 -91 65q-88 95 -88 246q0 160 93.5 248.5t257.5 88.5q77 0 139 -19l23 47h38l-29 -60q182 -82 182 -305q0 -163 -95 -254.5t-258 -91.5zM534 614l-280 -568q55 -20 125 -20q149 0 233 83.5t84 229.5q0 204 -162 275z M379 642q-148 0 -231.5 -79.5t-83.5 -223.5q0 -135 80 -221q35 -39 78 -58l280 566q-54 16 -123 16z" />
<glyph unicode="&#xd9;" horiz-adv-x="664" d="M401 702q-12 -8 -26 3l-114 121q-13 14 2 24q14 11 27 -2l113 -120q13 -15 -2 -26zM541 53q-68 -60 -209 -60q-142 0 -210 60q-72 64 -72 202v426h36v-425q0 -230 246 -230t246 226v429h36v-428q0 -137 -73 -200z" />
<glyph unicode="&#xda;" horiz-adv-x="664" d="M289 707q-7 -6 -15 -6q-18 0 -18 16q0 7 5 13l113 120q7 7 16 7q18 0 18 -17q0 -6 -5 -12zM541 53q-68 -60 -209 -60q-142 0 -210 60q-72 64 -72 202v426h36v-425q0 -230 246 -230t246 226v429h36v-428q0 -137 -73 -200z" />
<glyph unicode="&#xdb;" horiz-adv-x="664" d="M413 708l-83 109l-82 -109h-40l108 147h29l111 -147h-43zM541 53q-68 -60 -209 -60q-142 0 -210 60q-72 64 -72 202v426h36v-425q0 -230 246 -230t246 226v429h36v-428q0 -137 -73 -200z" />
<glyph unicode="&#xdc;" horiz-adv-x="664" d="M390 724q-18 0 -18 19v54q0 17 18 17t18 -17v-54q0 -19 -18 -19zM274 724q-17 0 -17 19v54q0 17 17 17q19 0 19 -17v-54q0 -19 -19 -19zM541 53q-68 -60 -209 -60q-142 0 -210 60q-72 64 -72 202v425h36v-424q0 -230 246 -230t246 226v428h36v-427q0 -137 -73 -200z" />
<glyph unicode="&#xdd;" horiz-adv-x="657" d="M287 711q-7 -7 -15 -7q-19 0 -19 17q0 6 5 12l114 121q7 7 16 7q18 0 18 -17q0 -6 -5 -12zM348 332v-332h-36v332l-313 349h46l284 -316l285 316h45z" />
<glyph unicode="&#xde;" horiz-adv-x="425" d="M235 171h-148v-171h-36v678h36v-151h149q142 0 142 -180q0 -176 -143 -176zM235 494h-148v-291h149q105 1 105 144q0 147 -106 147z" />
<glyph unicode="&#xdf;" horiz-adv-x="505" d="M405 23q-71 -53 -200 -53v33q243 0 243 199q0 95 -71 148q-65 49 -172 49v33q99 0 140 16q63 25 63 94t-50 95q-37 20 -123 20q-148 0 -148 -144v-514h-36v400h-35v34h35q0 49 3 106q7 151 183 151q211 0 206 -144q-3 -107 -114 -132q53 -15 96 -64q59 -66 59 -148 q0 -118 -79 -179z" />
<glyph unicode="&#xe0;" horiz-adv-x="552" d="M321 521q-12 -9 -25 2l-114 120q-14 15 2 25q13 12 27 -2l113 -121q13 -14 -3 -24zM471 0v110q-64 -121 -211 -121q-113 0 -177 74q-61 70 -61 182q0 114 61 184q66 75 181 75q147 0 207 -119v117h36v-502h-36zM259 470q-96 0 -151 -67q-51 -63 -51 -158q0 -97 50 -157 q55 -66 152 -66q96 0 155 66q57 62 57 157q0 103 -55 164t-157 61z" />
<glyph unicode="&#xe1;" horiz-adv-x="552" d="M221 523q-7 -6 -14 -6q-18 0 -18 16q0 6 5 12l113 121q7 7 16 7q18 0 18 -17q0 -6 -5 -13zM483 0v110q-64 -121 -211 -121q-113 0 -177 74q-61 70 -61 182q0 114 61 184q66 75 181 75q147 0 207 -119v117h36v-502h-36zM271 470q-96 0 -151 -67q-51 -63 -51 -158 q0 -97 50 -157q55 -66 152 -66q96 0 155 66q57 62 57 157q0 103 -55 164t-157 61z" />
<glyph unicode="&#xe2;" horiz-adv-x="552" d="M345 528l-82 108l-82 -108h-40l107 146h29l111 -146h-43zM483 0v110q-64 -121 -211 -121q-113 0 -177 74q-61 70 -61 182q0 114 61 184q66 75 181 75q147 0 207 -119v117h36v-502h-36zM271 470q-96 0 -151 -67q-51 -63 -51 -158q0 -97 50 -157q55 -66 152 -66 q96 0 155 66q57 62 57 157q0 103 -55 164t-157 61z" />
<glyph unicode="&#xe3;" horiz-adv-x="552" d="M333 539q-19 0 -71.5 27t-63.5 27q-19 0 -30.5 -15.5t-14.5 -45.5l-30 21q0 31 24.5 52t51.5 21q18 0 72 -28q51 -26 62 -26q18 0 31 15t14 45l32 -18q-4 -33 -26 -54t-51 -21zM483 0v110q-64 -121 -211 -121q-113 0 -177 74q-61 70 -61 181q0 114 61 185q66 74 181 74 q147 0 207 -118v116h36v-501h-36zM271 470q-96 0 -151 -68q-51 -62 -51 -158t50 -157q55 -65 152 -65q96 0 154 64t58 158q0 104 -54 163q-56 63 -158 63z" />
<glyph unicode="&#xe4;" horiz-adv-x="552" d="M335 534q-18 0 -18 19v54q0 17 18 17t18 -17v-54q0 -19 -18 -19zM219 534q-17 0 -17 19v54q0 17 17 17q19 0 19 -17v-54q0 -19 -19 -19zM483 0v110q-64 -121 -211 -121q-113 0 -177 74q-61 70 -61 181q0 114 61 184q66 75 181 75q147 0 207 -118v116h36v-501h-36z M271 470q-96 0 -151 -68q-51 -62 -51 -158t50 -157q55 -65 152 -65q96 0 154 64t58 158q0 104 -54 163q-56 63 -158 63z" />
<glyph unicode="&#xe5;" horiz-adv-x="552" d="M270 542q-36 0 -61 22t-25 57t25 57t61 22q35 0 60 -22t25 -57t-25 -57t-60 -22zM483 0v111q-64 -122 -211 -122q-113 0 -177 74q-61 70 -61 182q0 114 61 185q66 74 181 74q147 0 207 -118v116h36v-502h-36zM270 665q-20 0 -34 -12t-14 -32q0 -19 14 -31t34 -12t34 12 t14 31q0 20 -14 32t-34 12zM271 471q-96 0 -151 -68q-51 -62 -51 -158q0 -97 50 -157q55 -66 152 -66q96 0 155 66q57 62 57 157q0 104 -54 163q-56 63 -158 63z" />
<glyph unicode="&#xe6;" horiz-adv-x="984" d="M507 233v-17q0 -194 207 -194q68 0 120.5 31t75.5 91h37q-26 -81 -93 -120q-61 -35 -142 -35q-146 0 -205 102v-91h-36v110q-64 -121 -211 -121q-113 0 -177 74q-61 69 -61 180q0 113 61 183q66 74 181 74q147 0 207 -118v116h36v-114q13 22 33 43q70 73 176 73 q112 0 179 -64t67 -174v-28zM716 467q-86 0 -147.5 -54t-61.5 -139v-8h413q-2 92 -57 146.5t-147 54.5zM259 467q-96 0 -151 -67q-51 -62 -51 -157q0 -96 50 -156q55 -65 152 -65q96 0 155 65q57 62 57 156q0 103 -55 163.5t-157 60.5z" />
<glyph unicode="&#xe7;" d="M414 23q-58 -38 -140 -38q-115 0 -181.5 68t-66.5 180q0 122 69 194.5t190 72.5q74 0 128 -34q60 -38 79 -112l-33 -17q-33 130 -176 130q-105 0 -165 -66q-56 -63 -56 -168q0 -97 56 -155.5t155 -58.5q70 0 121 33q55 36 69 109l35 -15q-19 -82 -84 -123zM279 -174 q-37 0 -101 18l16 32q51 -17 82 -17q74 0 74 43q0 27 -54 32q-29 2 -45 -6v17l8 75h36l-2 -53h7q90 0 90 -69q0 -72 -111 -72z" />
<glyph unicode="&#xe8;" d="M331 520q-13 -7 -25 3l-115 120q-4 6 -4 12q0 18 18 18q8 0 15 -7l114 -121q13 -14 -3 -25zM54 235q6 -213 208 -213q68 0 120.5 31.5t75.5 92.5h37q-26 -85 -92 -123q-60 -34 -143 -34q-120 0 -183 71q-58 66 -58 185q0 114 66.5 186.5t179.5 72.5q112 0 179 -65 t67 -175v-28zM265 470q-92 0 -148 -55t-63 -147h415q-2 92 -57 147t-147 55z" />
<glyph unicode="&#xe9;" d="M334 646l-115 -121q-7 -6 -14 -6q-18 0 -18 16q0 6 5 12l113 121q12 12 28 2q6 -5 6 -12q0 -5 -5 -12zM54 235q6 -213 208 -213q68 0 120.5 31.5t75.5 92.5h37q-26 -85 -92 -123q-60 -34 -143 -34q-120 0 -183 71q-58 66 -58 185q0 114 66.5 186.5t179.5 72.5 q112 0 179 -65t67 -175v-28zM265 470q-92 0 -148 -55t-63 -147h415q-2 92 -57 147t-147 55z" />
<glyph unicode="&#xea;" d="M343 528l-82 108l-82 -108h-40l108 146h29l110 -146h-43zM54 235q6 -213 208 -213q68 0 120.5 31.5t75.5 92.5h37q-26 -85 -92 -123q-60 -34 -143 -34q-120 0 -183 71q-58 66 -58 185q0 114 66.5 186.5t179.5 72.5q112 0 179 -65t67 -175v-28zM265 470q-92 0 -148 -55 t-63 -147h415q-2 92 -57 147t-147 55z" />
<glyph unicode="&#xeb;" d="M321 534q-17 0 -17 19v54q0 17 17 17q19 0 19 -17v-54q0 -19 -19 -19zM206 534q-18 0 -18 19v54q0 17 18 17t18 -17v-54q0 -19 -18 -19zM54 234q6 -212 208 -212q68 0 120.5 31.5t75.5 91.5h37q-26 -84 -92 -122q-60 -34 -143 -34q-120 0 -183 71q-58 66 -58 184 q0 115 66.5 187t179.5 72q112 0 179 -64.5t67 -174.5v-29zM265 470q-92 0 -148 -55t-63 -148h415q-2 93 -57 148t-147 55z" />
<glyph unicode="&#xec;" horiz-adv-x="136" d="M136 521q-13 -8 -25 2l-114 120q-13 15 2 25q12 12 26 -2l114 -121q13 -14 -3 -24zM51 0v492h36v-492h-36z" />
<glyph unicode="&#xed;" horiz-adv-x="136" d="M26 520q-7 -7 -15 -7q-19 0 -19 17q0 6 5 11l114 121q7 7 15 7q18 0 18 -17q0 -6 -5 -12zM51 0v492h36v-492h-36z" />
<glyph unicode="&#xee;" horiz-adv-x="136" d="M145 528l-76 107l-78 -107h-39l102 146h29l104 -146h-42zM51 0v492h36v-492h-36z" />
<glyph unicode="&#xef;" horiz-adv-x="136" d="M129 534q-17 0 -17 19v54q0 17 17 17q19 0 19 -17v-54q0 -19 -19 -19zM14 534q-19 0 -19 19v54q0 17 19 17q18 0 18 -17v-54q0 -19 -18 -19zM51 0v491h36v-491h-36z" />
<glyph unicode="&#xf0;" horiz-adv-x="564" d="M471 0v110q-64 -121 -211 -121q-113 0 -177 74q-61 70 -61 182q0 114 61 184q66 75 181 75q147 0 207 -119v188h-332v35h332v70h36v-678h-36zM259 471q-96 0 -151 -68q-51 -63 -51 -158q0 -97 50 -157q55 -66 152 -66q96 0 155 66q57 62 57 157q0 103 -55 164.5 t-157 61.5z" />
<glyph unicode="&#xf1;" d="M334 539q-19 0 -71.5 27t-64.5 27q-16 0 -29 -15t-14 -46l-32 21q0 30 25 51.5t51 21.5q18 0 72 -28q51 -26 63 -26q17 0 30 15t14 45l32 -18q-3 -33 -25 -54t-51 -21zM437 0v323q0 71 -44 109t-118 38q-87 0 -137.5 -54t-50.5 -140v-276h-36v491h36v-88q50 100 187 100 q87 0 140 -42q59 -45 59 -128v-333h-36z" />
<glyph unicode="&#xf2;" horiz-adv-x="545" d="M341 521q-12 -9 -25 2l-114 120q-14 15 2 25q13 12 27 -2l113 -121q13 -14 -3 -24zM272 -11q-116 0 -183 71t-67 186q0 116 68 187t184 71q115 0 183 -71t68 -187t-68.5 -186.5t-184.5 -70.5zM273 470q-100 0 -157.5 -61.5t-57.5 -162.5q0 -100 58 -162t157 -62t157.5 62 t58.5 162q0 102 -57.5 163t-158.5 61z" />
<glyph unicode="&#xf3;" horiz-adv-x="545" d="M230 520q-7 -7 -15 -7q-18 0 -18 17q0 6 4 11l114 121q7 7 16 7q18 0 18 -17q0 -6 -5 -12zM272 -11q-116 0 -183 71t-67 186q0 116 68 187t184 71q115 0 183 -71t68 -187t-68.5 -186.5t-184.5 -70.5zM273 470q-100 0 -157.5 -61.5t-57.5 -162.5q0 -100 58 -162t157 -62 t157.5 62t58.5 162q0 102 -57.5 163t-158.5 61z" />
<glyph unicode="&#xf4;" horiz-adv-x="545" d="M354 528l-82 108l-83 -108h-40l108 146h29l111 -146h-43zM272 -11q-116 0 -183 71t-67 186q0 116 68 187t184 71q115 0 183 -71t68 -187t-68.5 -186.5t-184.5 -70.5zM273 470q-100 0 -157.5 -61.5t-57.5 -162.5q0 -100 58 -162t157 -62t157.5 62t58.5 162 q0 102 -57.5 163t-158.5 61z" />
<glyph unicode="&#xf5;" horiz-adv-x="545" d="M341 539q-19 0 -72 27t-63 27q-18 0 -30.5 -14.5t-13.5 -46.5l-32 21q0 32 24 52.5t53 20.5q17 0 71 -28q51 -26 63 -26q37 0 46 60l30 -18q-4 -33 -25.5 -54t-50.5 -21zM272 -11q-116 0 -183 71t-67 185q0 116 68.5 187t183.5 71t183 -71t68 -187q0 -115 -68.5 -185.5 t-184.5 -70.5zM273 470q-100 0 -157.5 -62t-57.5 -163q0 -100 57 -160q59 -63 158 -63t158 63q58 60 58 160q0 102 -57.5 163.5t-158.5 61.5z" />
<glyph unicode="&#xf6;" horiz-adv-x="545" d="M331 534q-18 0 -18 19v54q0 17 18 17t18 -17v-54q0 -19 -18 -19zM215 534q-17 0 -17 19v54q0 17 17 17q19 0 19 -17v-54q0 -19 -19 -19zM272 -11q-116 0 -183 71t-67 185q0 116 68.5 187t183.5 71t183 -71t68 -187q0 -115 -68.5 -185.5t-184.5 -70.5zM273 470 q-100 0 -157.5 -62t-57.5 -163q0 -100 57 -160q59 -63 158 -63t158 63q58 60 58 160q0 102 -57.5 163.5t-158.5 61.5z" />
<glyph unicode="&#xf7;" horiz-adv-x="592" d="M296 301q-17 0 -17 18v62q0 17 17 17q19 0 19 -17v-62q0 -18 -19 -18zM43 224v33h492v-33h-492zM296 74q-17 0 -17 18v62q0 17 17 17q19 0 19 -17v-62q0 -18 -19 -18z" />
<glyph unicode="&#xf8;" horiz-adv-x="545" d="M272 -12q-57 0 -102 18l-26 -53h-38l33 67q-117 69 -117 224q0 116 68.5 186.5t183.5 70.5q52 0 95 -15l31 63h38l-37 -77q34 -18 61 -48q63 -71 63 -180q0 -116 -69 -186t-184 -70zM434 399q-22 27 -50 42l-200 -404q39 -16 89 -16q99 0 157.5 61.5t58.5 161.5 q0 93 -55 155zM273 468q-100 0 -157.5 -61.5t-57.5 -162.5q0 -129 96 -192l200 404q-37 12 -81 12z" />
<glyph unicode="&#xf9;" d="M331 517q-13 -8 -25 2l-114 121q-13 14 2 24q12 12 26 -2l114 -121q13 -14 -3 -24zM437 0v89q-52 -100 -187 -100q-91 0 -145 46.5t-54 134.5v322h36v-321q0 -73 43.5 -111t119.5 -38q93 0 142 58q45 53 45 145v267h36v-492h-36z" />
<glyph unicode="&#xfa;" d="M221 524q-7 -7 -15 -7q-19 0 -19 17q0 6 5 11l113 121q7 7 16 7q18 0 18 -17q0 -7 -5 -13zM437 0v89q-52 -100 -187 -100q-91 0 -145 46.5t-54 135.5v321h36v-321q0 -73 43.5 -111t119.5 -38q93 0 142 58q45 53 45 145v267h36v-492h-36z" />
<glyph unicode="&#xfb;" d="M343 528l-82 108l-82 -108h-40l108 146h29l110 -146h-43zM437 0v89q-52 -100 -187 -100q-91 0 -145 46.5t-54 135.5v321h36v-320q0 -74 43.5 -112t119.5 -38q93 0 142 58q45 53 45 145v267h36v-492h-36z" />
<glyph unicode="&#xfc;" d="M320 534q-17 0 -17 19v54q0 17 17 17q19 0 19 -17v-54q0 -19 -19 -19zM205 534q-18 0 -18 19v54q0 17 18 17t18 -17v-54q0 -19 -18 -19zM437 0v88q-52 -99 -187 -99q-91 0 -145 46.5t-54 134.5v321h36v-320q0 -73 43.5 -111t119.5 -38q93 0 142 57q45 53 45 146v266h36 v-491h-36z" />
<glyph unicode="&#xfd;" horiz-adv-x="506" d="M325 645l-115 -120q-7 -6 -14 -6q-19 0 -19 16q0 7 6 12l113 121q12 12 28 2q6 -5 6 -12q0 -5 -5 -13zM241 -179q-87 0 -142 35q-66 41 -71 131h36q11 -133 179 -133q194 0 194 168v64q-52 -100 -187 -100q-91 0 -145 47t-54 135v323h36v-322q0 -73 43.5 -111.5 t119.5 -38.5q93 0 142 58q45 53 45 146v268h36v-470q0 -200 -232 -200z" />
<glyph unicode="&#xfe;" horiz-adv-x="564" d="M293 -14q-148 0 -206 119v-273h-36v846h36v-293q28 57 83 87.5t122 30.5q116 0 180 -73q62 -69 62 -184q0 -117 -61 -187q-64 -73 -180 -73zM298 470q-97 0 -154 -62t-57 -160q0 -105 50 -165q55 -63 160 -63q98 0 152 66q50 61 50 159t-51 159q-54 66 -150 66z" />
<glyph unicode="&#xff;" horiz-adv-x="510" d="M313 534q-17 0 -17 19v54q0 17 17 17t18 -17l1 -54q0 -19 -19 -19zM198 534q-18 0 -18 19v54q0 17 18 17q16 0 17 -17l1 -54q0 -19 -18 -19zM241 -179q-87 0 -142 35q-66 41 -71 131h36q11 -133 179 -133q194 0 194 168v64q-52 -100 -187 -100q-91 0 -145 46.5t-54 135.5 v322h36v-321q0 -74 43.5 -112t119.5 -38q93 0 142 58q45 53 45 146v267h36v-469q0 -200 -232 -200z" />
<glyph unicode="&#x131;" horiz-adv-x="136" d="M51 0v488h36v-488h-36z" />
<glyph unicode="&#x152;" horiz-adv-x="1010" d="M471 0q-42 -8 -88 -8q-163 0 -257.5 93t-94.5 252q0 161 94 253.5t258 92.5q33 0 66 -5h525v-33h-416q164 -83 176 -275h209v-33h-207q0 -214 -171 -304h415v-33h-509zM614 565q-49 48 -116 69v-264h200q-8 119 -84 195zM498 337v-295q67 21 116 69q86 85 86 226h-202z M463 642q-38 8 -80 8q-148 0 -232 -84t-84 -229t84 -229t232 -84q42 0 80 9v609z" />
<glyph unicode="&#x153;" horiz-adv-x="1052" d="M551 233q6 -211 208 -211q68 0 120.5 31t75.5 91h37q-26 -81 -93 -120q-61 -35 -142 -35q-180 0 -227 151q-28 -72 -90 -111.5t-144 -39.5q-116 0 -184 72q-66 69 -66 183q0 116 68.5 186t183.5 70q84 0 146 -40.5t88 -116.5q18 47 52 84q70 73 177 73q112 0 179 -64 t67 -174v-28zM761 467q-90 0 -147 -55.5t-63 -145.5h414q-2 92 -57 146.5t-147 54.5zM297 467q-100 0 -157.5 -61t-57.5 -162q0 -100 58 -161t157 -61t157.5 61t58.5 161q0 102 -57.5 162.5t-158.5 60.5z" />
<glyph unicode="&#x160;" horiz-adv-x="642" d="M332 727h-29l-108 147h40l82 -109l82 109h43zM330 -7q-129 0 -207 47q-94 57 -94 178v17h36v-13q0 -196 266 -196q91 0 152 29q82 37 82 117q0 56 -30 85q-25 25 -83 42q-26 8 -143 33q-69 16 -88 21q-53 14 -84 30q-86 47 -86 135q0 170 260 170q272 0 276 -208h-36 q-6 104 -76 143q-55 32 -164 32q-224 0 -224 -137q0 -69 63 -103q41 -22 140 -41q181 -33 241 -69q70 -43 70 -136t-95 -139q-73 -37 -176 -37z" />
<glyph unicode="&#x161;" horiz-adv-x="486" d="M254 537h-29l-108 147h40l82 -109l82 109h44zM249 -13q-215 0 -215 192h38q0 -157 178 -157q62 0 102 22q53 27 53 82q0 69 -106 94q-7 2 -101 17q-143 22 -143 127q0 68 56 107q49 34 121 34q207 0 208 -170h-39q0 135 -164 135q-56 0 -97 -25q-47 -28 -47 -81 q0 -68 103 -87q42 -8 106 -20q141 -26 141 -131q0 -74 -63 -110q-51 -29 -131 -29z" />
<glyph unicode="&#x178;" horiz-adv-x="663" d="M394 724q-17 0 -17 19v54q0 17 17 17t18 -17l1 -54q0 -19 -19 -19zM279 724q-18 0 -18 19v54q0 17 18 17q16 0 17 -17l1 -54q0 -19 -18 -19zM351 332v-332h-36v332l-314 348h47l284 -315l285 315h45z" />
<glyph unicode="&#x192;" horiz-adv-x="584" d="M594 634q-200 0 -239 -156l-9 -39h110l-9 -34h-110l-93 -389q-44 -184 -281 -184l7 32q201 0 235 142l96 399h-74l10 34h72l11 43q46 184 281 184z" />
<glyph unicode="&#x2c6;" horiz-adv-x="259" d="M210 540l-82 99l-82 -99h-40l107 134h29l111 -134h-43z" />
<glyph unicode="&#x2c7;" horiz-adv-x="136" d="M77 549h-29l-107 135h40l82 -100l82 100h43z" />
<glyph unicode="&#x2da;" horiz-adv-x="136" d="M64 569q-35 0 -61 20.5t-26 52.5t26 52.5t61 20.5t60.5 -20.5t25.5 -52.5q0 -33 -26 -53t-60 -20zM64 682q-20 0 -34 -11t-14 -29t14 -29t34 -11t34.5 11t14.5 29q0 19 -15 29.5t-34 10.5z" />
<glyph unicode="&#x2dc;" horiz-adv-x="366" d="M250 552q-18 0 -70.5 23t-64.5 23q-16 0 -29 -13t-14 -39l-32 18q0 25 25 43.5t51 18.5q18 0 72 -24q51 -22 62 -22q18 0 31 13t14 38l32 -15q-4 -28 -26 -46t-51 -18z" />
<glyph unicode="&#x3bc;" horiz-adv-x="584" />
<glyph unicode="&#x2013;" horiz-adv-x="495" d="M-8 254v20h509v-20h-509z" />
<glyph unicode="&#x2014;" horiz-adv-x="894" d="M-8 254v20h908v-20h-908z" />
<glyph unicode="&#x2018;" horiz-adv-x="175" d="M86 513q-5 -16 -22 -12t-12 21l42 143q4 12 18 12q24 0 17 -21z" />
<glyph unicode="&#x2019;" horiz-adv-x="175" d="M87 513q-4 -12 -18 -12q-24 0 -17 21l43 143q5 16 21 12q18 -4 13 -21z" />
<glyph unicode="&#x201a;" horiz-adv-x="292" d="M125 -78q-4 -13 -17 -13q-19 0 -19 15q0 2 1 7l43 143q5 16 21 12q18 -4 13 -21z" />
<glyph unicode="&#x201c;" horiz-adv-x="267" d="M191 513q-5 -16 -22 -12t-12 21l42 143q4 12 18 12q24 0 17 -21zM86 513q-5 -16 -22 -12t-12 21l42 143q4 12 18 12q24 0 17 -21z" />
<glyph unicode="&#x201d;" horiz-adv-x="276" d="M192 513q-4 -12 -18 -12q-24 0 -17 21l43 143q5 16 21 12q18 -4 13 -21zM87 513q-4 -12 -18 -12q-24 0 -17 21l43 143q5 16 21 12q18 -4 13 -21z" />
<glyph unicode="&#x201e;" horiz-adv-x="351" d="M230 -78q-4 -13 -17 -13q-19 0 -19 15q0 2 1 7l43 143q5 16 21 12q18 -4 13 -21zM125 -78q-4 -13 -17 -13q-19 0 -19 15q0 2 1 7l43 143q5 16 21 12q18 -4 13 -21z" />
<glyph unicode="&#x2020;" horiz-adv-x="345" d="M183 461v-518h-36v518h-117v34h117v126h36v-126h118v-34h-118z" />
<glyph unicode="&#x2021;" horiz-adv-x="337" d="M188 43v-100h-36v100h-118v34h118v384h-118v34h118v126h36v-126h117v-34h-117v-384h117v-34h-117z" />
<glyph unicode="&#x2022;" horiz-adv-x="292" d="M121 250q-73 0 -73 17v116q0 17 73 17q74 0 74 -17v-116q0 -17 -74 -17z" />
<glyph unicode="&#x2026;" horiz-adv-x="638" d="M524 -2q-18 0 -18 16v55q0 16 18 16t18 -16v-55q0 -16 -18 -16zM335 -2q-18 0 -18 16v55q0 16 18 16t18 -16v-55q0 -16 -18 -16zM146 -2q-18 0 -18 16v55q0 16 18 16t18 -16v-55q0 -16 -18 -16z" />
<glyph unicode="&#x2030;" horiz-adv-x="1012" d="M846 -19q-140 0 -140 177q0 181 141 181q142 0 142 -181q0 -177 -143 -177zM144 0h-43l487 678h42zM542 -19q-141 0 -141 177q0 181 142 181q141 0 141 -181q0 -177 -142 -177zM172 301q-140 0 -140 176q0 180 141 180q142 0 142 -180q0 -176 -143 -176zM846 306 q-103 0 -103 -148q0 -144 104 -144q105 0 105 144q0 148 -106 148zM542 306q-104 0 -104 -148q0 -144 105 -144q104 0 104 144q0 148 -105 148zM172 624q-103 0 -103 -147q0 -144 104 -144q105 0 105 144q0 147 -106 147z" />
<glyph unicode="&#x2039;" horiz-adv-x="294" d="M64 261v25l164 113v-38l-124 -87l124 -88v-35z" />
<glyph unicode="&#x203a;" horiz-adv-x="294" d="M64 151v35l123 88l-123 87v38l164 -113v-25z" />
<glyph unicode="&#x20ac;" horiz-adv-x="584" d="M356 -12q-117 0 -184.5 71t-67.5 186v2h-76l6 34h70v91h-52l7 33h45v8q0 116 68 187t184 71q112 0 187 -77l-26 -24q-65 68 -162 68q-100 0 -157.5 -62t-57.5 -163v-8h295l-7 -33h-288v-91h270l-6 -34h-264v-2q0 -100 58 -162t157 -62q97 0 162 67l26 -23 q-75 -77 -187 -77z" />
<glyph unicode="&#x2122;" horiz-adv-x="789" d="M704 347v275l-145 -275h-33l-151 279q1 -90 2 -279h-40v303h-103v-303h-40v303h-148v34h341l155 -285l153 285h50v-337h-41z" />
<glyph unicode="&#x2212;" horiz-adv-x="592" d="M43 231v19h492v-19h-492z" />
<glyph unicode="&#xe000;" horiz-adv-x="490" d="M0 490h490v-490h-490v490z" />
<glyph horiz-adv-x="354" />
<glyph horiz-adv-x="354" />
<glyph horiz-adv-x="354" />
<glyph horiz-adv-x="354" />
<glyph horiz-adv-x="292" />
<glyph horiz-adv-x="292" />
<glyph horiz-adv-x="292" />
<glyph horiz-adv-x="292" />
<glyph horiz-adv-x="292" />
<glyph horiz-adv-x="292" />
<glyph horiz-adv-x="292" />
<glyph horiz-adv-x="292" />
<glyph horiz-adv-x="292" />
<glyph horiz-adv-x="292" />
<glyph horiz-adv-x="292" />
<glyph horiz-adv-x="292" />
<glyph horiz-adv-x="292" />
<glyph horiz-adv-x="292" />
<glyph horiz-adv-x="292" />
<glyph horiz-adv-x="420" d="M542 441q0 54 -36 82.5t-87 28.5t-87 -29.5t-36 -76.5q0 -58 -47.5 -96.5t-109.5 -38.5t-109 37q-50 39 -50 105h36q0 -53 36.5 -82t86.5 -29t86.5 28.5t36.5 75.5q0 60 47 98.5t110 38.5q64 0 110 -38t47 -105z" />
<glyph horiz-adv-x="350" d="M244 387v-131h-40v131h-269l163 271h43l-142 -236h205v236l40 -1v-235h93v-35h-93z" />
</font>
</defs>
</svg>
