<?xml version="1.0" standalone="no"?>
<!DOCTYPE svg PUBLIC "-//W3C//DTD SVG 1.1//EN" "http://www.w3.org/Graphics/SVG/1.1/DTD/svg11.dtd" >
<svg xmlns="http://www.w3.org/2000/svg">
<metadata></metadata>
<defs>
<font id="walkway_ultracondensedregular" horiz-adv-x="257" >
<font-face units-per-em="1000" ascent="800" descent="-200" />
<missing-glyph horiz-adv-x="173" />
<glyph horiz-adv-x="0" />
<glyph unicode="&#xd;" horiz-adv-x="173" />
<glyph unicode=" "  horiz-adv-x="173" />
<glyph unicode="&#x09;" horiz-adv-x="173" />
<glyph unicode="&#xa0;" horiz-adv-x="173" />
<glyph unicode="!" horiz-adv-x="95" d="M53 173h-10v505h10v-505zM52 11q0 -11 -4 -11q-6 0 -6 11v65q0 10 6 10q4 0 4 -10v-65z" />
<glyph unicode="&#x22;" horiz-adv-x="143" d="M104 559q0 -12 -5 -12t-5 12v0v102q0 11 5 11t5 -11v0v-102zM48 559q0 -12 -5 -12t-5 12v0v102q0 11 5 11t5 -11v0v-102z" />
<glyph unicode="#" horiz-adv-x="260" d="M222 388l-2 -19h-44l-12 -109h43l-2 -19h-43l-10 -80h-10l9 80h-58l-10 -80h-10l9 80h-43l2 19h43l13 109h-44l2 19h44l9 80h11l-10 -80h59l9 80h10l-9 -80h44zM166 369h-59l-12 -109h58z" />
<glyph unicode="$" horiz-adv-x="315" d="M291 165q0 -58 -21 -104q-25 -56 -74 -71v-60h-10v57q-12 -3 -24 -3q-20 0 -38 6v-60h-10v62q-96 42 -96 222v10h10v-6q0 -170 86 -206v345q-86 41 -86 162q0 140 86 170v64h10v-61q13 2 28 2q19 0 34 -4v63h10v-66q87 -35 88 -199h-11q-4 149 -77 180v-325 q49 -25 69 -55q26 -40 26 -123zM186 348v323q-15 4 -34 4q-15 0 -28 -3v-299zM114 378v291q-75 -30 -75 -150q0 -102 75 -141zM280 168q0 59 -12 86q-18 39 -72 68v-313q44 14 66 65q18 41 18 94zM186 6v321l-62 25v-343q18 -6 38 -6q12 0 24 3z" />
<glyph unicode="%" horiz-adv-x="367" d="M311 678l-234 -678h-12l234 678h12zM340 154q0 -173 -66 -173q-65 0 -65 173q0 178 66 178q65 0 65 -178zM159 480q0 -172 -66 -172q-65 0 -65 172q0 177 66 177q65 0 65 -177zM329 154q0 159 -55 159q-54 0 -54 -159q0 -154 55 -154q54 0 54 154zM148 480q0 158 -55 158 q-54 0 -54 -158q0 -154 55 -154q54 0 54 154z" />
<glyph unicode="&#x26;" horiz-adv-x="295" d="M256 -19h-11v176q-4 -28 -10 -50q-39 -123 -104 -123q-54 0 -84 59q-24 47 -24 106q0 78 36 143q22 39 73 93q-65 61 -65 168q0 45 15 79q20 46 60 46q41 0 61 -46q14 -34 14 -81q0 -91 -90 -192q-47 -53 -63 -84q-31 -58 -31 -126q0 -51 21 -94q27 -52 74 -52 q68 0 100 121q17 67 17 139h11v-282zM207 552q0 39 -13 68q-17 39 -51 39q-35 0 -52 -39q-14 -30 -14 -68q0 -102 64 -158q66 77 66 158z" />
<glyph unicode="'" horiz-adv-x="86" d="M48 559q0 -12 -5 -12t-5 12v0v102q0 11 5 11t5 -11v0v-102z" />
<glyph unicode="(" horiz-adv-x="114" d="M105 -168h-10q-60 195 -60 451q0 257 60 451h10q-60 -190 -60 -451t60 -451z" />
<glyph unicode=")" horiz-adv-x="114" d="M79 283q0 -259 -62 -451h-11q63 190 63 451t-63 451h11q62 -191 62 -451z" />
<glyph unicode="*" horiz-adv-x="167" d="M132 500q-2 -9 -8 -3l-40 44v-87q0 -11 -5 -11q-6 0 -6 11v0v87l-40 -44q-5 -6 -8 3q-3 8 3 14l41 44l-42 43q-4 5 -2 14q1 4 4 4q2 0 3 -2h1l40 -43v87q0 11 6 11q5 0 5 -11v0v-87l41 43q2 2 3 2q3 0 4 -4q3 -10 -2 -15l-41 -42l41 -44q5 -5 2 -14z" />
<glyph unicode="+" horiz-adv-x="274" d="M236 242h-94v-175h-10v175h-94v19h94v172h10v-172h94v-19z" />
<glyph unicode="," horiz-adv-x="128" d="M80 73v0l-21 -155q-1 -11 -7 -8q-3 2 -3 8v5v0l21 155q2 11 6 8q5 -2 4 -13z" />
<glyph unicode="-" horiz-adv-x="171" d="M151 254h-126v20h126v-20z" />
<glyph unicode="." horiz-adv-x="102" d="M56 9q0 -11 -5 -11t-5 11v65q0 11 5 11t5 -11v-65z" />
<glyph unicode="/" horiz-adv-x="171" d="M175 694l-164 -694h-10l164 694h10z" />
<glyph unicode="0" horiz-adv-x="286" d="M262 243q0 -88 -20 -155q-30 -100 -98 -100t-100 100q-20 68 -20 155v172q0 87 20 155q32 101 100 101t98 -101q20 -67 20 -155v-172zM252 243v172q0 80 -19 143q-28 94 -90 94t-90 -94q-19 -62 -19 -143v-172q0 -80 19 -142q28 -94 90 -94t90 94q19 62 19 142z" />
<glyph unicode="1" horiz-adv-x="202" d="M152 0h-10v617l-76 -128h-16l92 157h10v-646z" />
<glyph unicode="2" horiz-adv-x="286" d="M264 0h-236q0 173 97 294q18 21 69 84q45 56 45 122q0 55 -18 91q-23 47 -73 47q-103 0 -103 -204h-11q0 223 112 223q103 0 103 -160q0 -80 -77 -171q-41 -48 -60 -73q-22 -36 -40 -82q-32 -81 -32 -152h224v-19z" />
<glyph unicode="3" horiz-adv-x="286" d="M265 176q0 -70 -25 -121q-32 -66 -94 -66q-71 0 -103 80q-23 56 -23 139v10h10v-24q0 -69 23 -119q30 -67 91 -67q58 0 88 58q23 46 23 110q0 162 -102 162h-23v19h23q95 0 95 143q0 55 -21 92q-26 46 -77 46q-110 0 -110 -192h-10q0 211 118 211q60 0 88 -51 q23 -41 23 -106q0 -132 -77 -152q83 -15 83 -172z" />
<glyph unicode="4" horiz-adv-x="286" d="M269 225h-64v-225h-10v225h-179l102 422h10l-97 -403h164v403l10 -1v-402h64v-19z" />
<glyph unicode="5" horiz-adv-x="286" d="M262 214q0 -81 -22 -140q-32 -85 -99 -85q-122 0 -122 218h10q0 -76 20 -126q28 -73 93 -73q61 0 90 77q19 54 19 128t-21 129q-30 77 -92 77q-65 0 -95 -99h-13l7 326h210v-19h-199l-6 -284q32 95 98 95q67 0 99 -84q23 -60 23 -140z" />
<glyph unicode="6" horiz-adv-x="286" d="M256 446h-10q0 66 -19 118q-28 73 -83 73q-57 0 -83 -72q-19 -51 -19 -119v-150q27 110 101 110q61 0 90 -78q21 -56 21 -129t-21 -128q-30 -77 -91 -77q-62 0 -91 77q-21 55 -21 128v10q1 7 1 9v231q0 73 21 128q30 76 93 76q61 0 90 -78q21 -56 21 -129zM244 199 q0 68 -19 119q-26 72 -83 72q-56 0 -83 -72q-19 -51 -19 -119q0 -67 19 -118q27 -72 83 -72t83 72q19 51 19 118z" />
<glyph unicode="7" horiz-adv-x="286" d="M258 646l-154 -646h-10l150 627h-212v19h226z" />
<glyph unicode="8" horiz-adv-x="294" d="M274 180q0 -78 -25 -127q-32 -64 -102 -64q-69 0 -102 65q-24 50 -24 128q0 61 17 105q24 59 74 68q-38 11 -58 55q-16 36 -16 82q0 165 109 165q110 0 110 -165q0 -45 -16 -81q-20 -43 -58 -56q91 -20 91 -175zM247 493q0 145 -100 145q-99 0 -99 -147q0 -50 24 -86 q28 -42 76 -42t75 43q24 36 24 87zM264 181q0 163 -116 163q-117 0 -117 -163q0 -70 23 -115q30 -58 93 -58q64 0 94 58q23 45 23 115z" />
<glyph unicode="9" horiz-adv-x="286" d="M256 456v-10q-1 -5 -1 -8v-250q0 -73 -21 -127q-30 -76 -92 -76t-91 77q-21 55 -21 128h10q0 -67 19 -118q27 -72 83 -72t83 72q19 52 19 118l1 170q-28 -109 -101 -109q-62 0 -91 77q-21 55 -21 128t22 128q29 78 91 78q61 0 90 -78q21 -55 21 -128zM246 456 q0 68 -19 119q-26 72 -83 72q-56 0 -83 -72q-19 -51 -19 -119q0 -67 19 -118q27 -72 83 -72t83 72q19 51 19 118z" />
<glyph unicode=":" horiz-adv-x="120" d="M65 389q0 -11 -5 -11t-5 11v0v65q0 11 5 11t5 -11v0v-65zM65 9q0 -11 -5 -11t-5 11v0v65q0 11 5 11t5 -11v0v-65z" />
<glyph unicode=";" horiz-adv-x="123" d="M75 389q0 -11 -5 -11t-5 11v0v65q0 11 5 11t5 -11v0v-65zM77 73v0l-21 -155q-1 -11 -7 -8q-3 2 -3 8v5v0l21 155q2 11 6 8q5 -2 4 -13z" />
<glyph unicode="&#x3c;" horiz-adv-x="262" d="M234 49l-210 180v23l210 179v-20l-201 -171l201 -171v-20z" />
<glyph unicode="=" horiz-adv-x="309" d="M284 294h-260v19h260v-19zM284 167h-260v19h260v-19z" />
<glyph unicode="&#x3e;" horiz-adv-x="262" d="M234 229l-210 -180v20l201 171l-201 171v20l210 -179v-23z" />
<glyph unicode="?" d="M130 11q0 -11 -6 -11q-4 0 -4 11v65q0 10 4 10q6 0 6 -10v-65zM20 514q11 180 110 180q52 0 79 -56q21 -43 21 -102q0 -85 -48 -166q-52 -88 -52 -173v-24h-10v18q0 97 48 179q28 49 39 79q13 38 13 87q0 54 -18 91q-24 48 -73 48q-91 0 -100 -172z" />
<glyph unicode="@" horiz-adv-x="412" d="M276 188l5 72q-33 -129 -101 -130q-47 -1 -70 66q-15 46 -15 109q0 23 1 39q4 76 25 132q30 85 88 86q71 2 83 -128l8 128h9l-24 -374q1 -3 0 -6q1 -16 9 -16q14 0 31 30q13 22 19 43q27 86 27 163q0 93 -32 171q-43 104 -123 104q-94 0 -141 -130q-34 -94 -34 -207 q0 -111 34 -204q48 -129 140 -129q52 0 96 52q37 43 53 99h12q-15 -61 -55 -110q-48 -59 -103 -59q-100 0 -151 137q-38 101 -38 219q0 116 37 215q51 135 148 135q88 0 133 -110q35 -83 35 -185q0 -96 -31 -181q-27 -75 -60 -75q-17 0 -15 44zM287 347q1 14 1 38 q0 163 -82 161q-56 -1 -84 -97q-19 -66 -19 -141q0 -57 13 -100q20 -64 65 -63q50 1 80 81q21 56 26 121z" />
<glyph unicode="A" horiz-adv-x="312" d="M309 0h-11l-48 223h-187l-48 -223h-13l150 678h13zM246 242l-87 411l-91 -411h178z" />
<glyph unicode="B" horiz-adv-x="315" d="M296 182q0 -72 -24 -120q-31 -62 -96 -62h-152v678h158q57 0 84 -61q20 -45 20 -110q0 -120 -76 -154q86 -21 86 -171zM275 512q0 57 -18 96q-25 51 -76 51h-147v-296h147q51 0 75 52q19 40 19 97zM287 181q0 65 -21 107q-28 56 -86 56h-146v-325h148q56 0 83 56 q22 44 22 106z" />
<glyph unicode="C" horiz-adv-x="352" d="M323 111q-43 -118 -131 -118q-95 0 -138 132q-29 89 -29 209q0 123 30 215q44 136 142 136q92 0 130 -116l-9 -12q-35 109 -121 109q-91 0 -133 -127q-29 -87 -29 -201q0 -113 27 -198q41 -128 130 -128q82 0 122 111z" />
<glyph unicode="D" horiz-adv-x="333" d="M312 338q0 -125 -30 -211q-44 -127 -146 -127h-108v678h126q158 0 158 -340zM302 338q0 321 -148 321h-116v-640h99q96 0 138 120q27 80 27 199z" />
<glyph unicode="E" horiz-adv-x="276" d="M269 0h-241v678h238v-19h-228v-296h202v-18h-202v-326h231v-19z" />
<glyph unicode="F" horiz-adv-x="247" d="M248 659h-210v-296h180v-18h-180v-345h-10v678h220v-19z" />
<glyph unicode="G" horiz-adv-x="371" d="M346 316q1 -21 1 -41q0 -100 -29 -176q-42 -106 -126 -106q-101 0 -146 131q-29 88 -29 213q0 123 29 213q44 135 142 135q131 0 153 -219h-11q-21 200 -141 200q-93 0 -134 -127q-28 -85 -28 -201q0 -118 28 -201q42 -125 137 -125q76 0 115 93q30 71 30 158v34h-143v19 h152z" />
<glyph unicode="H" horiz-adv-x="333" d="M305 0h-10v345h-257v-345h-10v678h10v-315h257v315h10v-678z" />
<glyph unicode="I" horiz-adv-x="66" d="M38 0h-10v678h10v-678z" />
<glyph unicode="J" horiz-adv-x="238" d="M208 190q0 -197 -99 -197q-92 0 -99 152h10q5 -133 87 -133q60 0 80 68q10 36 10 116v482h11v-488z" />
<glyph unicode="K" horiz-adv-x="328" d="M318 0h-13l-188 378l-79 -128v-250h-10v678h10v-403l255 403h15l-183 -289z" />
<glyph unicode="L" horiz-adv-x="247" d="M248 0h-220v678h10v-659h210v-19z" />
<glyph unicode="M" horiz-adv-x="401" d="M373 0h-10v658l-157 -658h-11l-157 658v-658h-10v678h17l155 -655l157 655h16v-678z" />
<glyph unicode="N" horiz-adv-x="333" d="M305 0h-15l-252 657v-657h-10v678h15q40 -110 126 -328t126 -328v656h10v-678z" />
<glyph unicode="O" horiz-adv-x="371" d="M355 339q0 -123 -29 -212q-43 -134 -140 -134q-98 0 -141 134q-28 88 -28 212q0 122 28 207q43 129 141 129t140 -128q29 -86 29 -208zM344 339q0 116 -26 196q-40 121 -132 121t-132 -122q-27 -80 -27 -195t28 -200q40 -127 131 -127t132 127q26 84 26 200z" />
<glyph unicode="P" horiz-adv-x="304" d="M289 491q0 -71 -24 -119q-32 -63 -95 -63h-132v-309h-10v678h147q114 0 114 -187zM278 490q0 169 -100 169h-140v-331h140q53 0 80 58q20 45 20 104z" />
<glyph unicode="Q" horiz-adv-x="371" d="M355 339q0 -107 -22 -188q-31 -116 -102 -148q19 -50 53 -50h45v-19h-45q-40 0 -63 65q-17 -6 -35 -6q-98 0 -141 134q-28 88 -28 212q0 122 28 207q43 129 141 129t140 -128q29 -86 29 -208zM344 339q0 116 -26 196q-40 121 -132 121t-132 -122q-27 -80 -27 -195 q0 -156 47 -245q4 39 19 70q21 43 53 43q38 0 58 -53q16 -40 16 -85q0 -25 5 -49q68 29 99 141q20 77 20 178zM217 17q-7 26 -7 53q0 40 -13 73q-17 46 -51 46q-31 0 -49 -41q-14 -31 -15 -68q42 -68 104 -68q16 0 31 5z" />
<glyph unicode="R" horiz-adv-x="315" d="M290 507q0 -143 -74 -177q69 -28 69 -165v-165h-10v162q0 155 -99 155h-138v-317h-10v678h153q109 0 109 -171zM280 504q0 155 -98 155h-144v-322h136q58 0 85 58q21 44 21 109z" />
<glyph unicode="S" horiz-adv-x="315" d="M291 165q0 -69 -30 -116q-34 -56 -99 -56q-144 0 -144 221v10h10v-6q0 -206 134 -206q61 0 92 49q26 42 26 107q0 101 -58 136q-15 9 -70 34q-62 28 -83 51q-41 44 -41 130q0 166 124 166q130 0 132 -197h-11q-2 80 -22 121q-29 57 -99 57q-113 0 -113 -147 q0 -74 33 -111q20 -23 70 -42q86 -33 116 -70q33 -42 33 -131z" />
<glyph unicode="T" horiz-adv-x="267" d="M266 659h-127v-659h-11v659h-127v19h265v-19z" />
<glyph unicode="U" horiz-adv-x="325" d="M297 250q0 -257 -134 -257q-135 0 -135 259v426h10v-425q0 -241 125 -241q124 0 124 237v429h10v-428z" />
<glyph unicode="V" horiz-adv-x="308" d="M302 678l-140 -678h-12l-144 678h11l139 -656l136 656h10z" />
<glyph unicode="W" horiz-adv-x="475" d="M467 678l-134 -678h-12l-82 405l-81 -405h-11l-139 678h10l134 -656l81 409l-50 247h10l134 -656l130 656h10z" />
<glyph unicode="X" horiz-adv-x="296" d="M295 0h-12l-134 333l-135 -333h-13l141 349l-134 329h14l127 -314l128 314h13l-134 -329z" />
<glyph unicode="Y" horiz-adv-x="307" d="M307 678l-148 -345v-333h-11v333l-148 345h13l140 -325l141 325h13z" />
<glyph unicode="Z" horiz-adv-x="307" d="M289 0h-271v26l257 633h-243v19h253v-25l-257 -634h261v-19z" />
<glyph unicode="[" horiz-adv-x="114" d="M107 -168h-58v902h58v-19h-47v-864h47v-19z" />
<glyph unicode="\" horiz-adv-x="171" d="M171 0h-10l-165 694h10z" />
<glyph unicode="]" horiz-adv-x="114" d="M65 734l-1 -902h-57v19h47v48v816h-47v19h58z" />
<glyph unicode="^" horiz-adv-x="146" d="M116 511h-12l-32 116l-32 -116h-10l37 135h10z" />
<glyph unicode="_" d="M257 -119h-257v48h257v-48z" />
<glyph unicode="`" horiz-adv-x="95" d="M79 545q4 -8 0 -14q-3 -5 -8 2l-55 122q-5 9 0 15q4 7 8 -2z" />
<glyph unicode="a" horiz-adv-x="276" d="M245 0h-11v141q-28 -152 -107 -152q-64 0 -94 102q-19 67 -19 152q0 87 20 154q29 103 95 103q82 0 105 -153v151h11v-498zM234 243q0 83 -17 144q-27 94 -90 94q-58 0 -85 -96q-18 -64 -18 -142q0 -79 17 -141q27 -94 86 -94t88 94q19 65 19 141z" />
<glyph unicode="b" horiz-adv-x="276" d="M258 242q0 -88 -19 -152q-29 -100 -96 -100q-44 0 -74 57q-21 40 -30 95v-142h-11v678h11v-331q8 57 29 97q29 56 76 56q66 0 95 -103q19 -66 19 -155zM248 243q0 81 -17 142q-26 96 -85 96q-64 0 -91 -96q-16 -59 -16 -145q0 -76 19 -139q29 -92 88 -92t85 94 q17 61 17 140z" />
<glyph unicode="c" d="M240 141q-7 -58 -28 -97q-29 -55 -78 -55q-67 0 -97 96q-21 65 -21 150q0 92 21 161q31 104 103 104q43 0 70 -50q20 -36 27 -88l-10 -10q-15 129 -88 129q-65 0 -94 -98q-19 -64 -19 -148q0 -79 19 -138q27 -89 89 -89q45 0 71 51q20 38 25 91z" />
<glyph unicode="d" horiz-adv-x="276" d="M245 0h-11v141q-28 -152 -107 -152q-64 0 -94 102q-19 67 -19 152q0 87 20 154q29 103 95 103q82 0 105 -153v331h11v-678zM234 243q0 83 -17 144q-27 94 -90 94q-58 0 -85 -96q-18 -64 -18 -142q0 -79 17 -141q27 -94 86 -94t88 94q19 65 19 141z" />
<glyph unicode="e" d="M246 241l-223 -1q1 -232 105 -232q42 0 69 44q21 34 30 82h11q-21 -145 -111 -145q-114 0 -114 254q0 86 20 155q31 102 97 102t96 -92q20 -62 20 -145v-22zM234 259q0 76 -18 134q-27 88 -86 88t-87 -88q-19 -57 -20 -134h211z" />
<glyph unicode="f" horiz-adv-x="131" d="M160 648q-100 0 -100 -164v-49h55v-20h-55v-416h-10v416h-35v20h35v49q0 182 110 182v-18z" />
<glyph unicode="g" horiz-adv-x="267" d="M240 17q0 -196 -110 -196q-97 0 -101 154h11q5 -135 91 -135q98 0 98 178v127q-9 -51 -30 -88q-30 -49 -73 -49q-63 0 -92 97q-19 65 -19 147q0 85 19 150q30 98 95 98q45 0 73 -56q20 -40 27 -94v138h11v-471zM229 250q0 74 -18 137q-27 94 -83 94q-57 0 -84 -91 q-19 -63 -19 -137q0 -76 17 -135q26 -91 83 -91q59 0 86 88q18 59 18 135z" />
<glyph unicode="h" d="M228 0h-10v323q0 58 -15 98q-21 60 -68 60q-54 0 -79 -82q-17 -54 -17 -124v-275h-11v678h11v-317q16 139 95 139q52 0 77 -62q17 -44 17 -105v-333z" />
<glyph unicode="i" horiz-adv-x="67" d="M39 611q-3 -8 -6 -8t-5 8v67q2 9 5 9q2 0 6 -9v-67zM39 0h-11v488h11v-488z" />
<glyph unicode="j" horiz-adv-x="67" d="M39 611q-3 -8 -6 -8t-5 8v67q2 9 5 9q2 0 6 -9v-67zM37 17q0 -196 -110 -196v18q100 0 100 179v470h10v-471z" />
<glyph unicode="k" horiz-adv-x="261" d="M245 0h-14l-129 289l-63 -95v-194h-11v678h11v-460l178 271l19 -1l-126 -186z" />
<glyph unicode="l" horiz-adv-x="67" d="M39 0h-11v678h11v-678z" />
<glyph unicode="m" horiz-adv-x="400" d="M371 0h-10v323q0 158 -71 158q-47 0 -70 -67q-15 -46 -15 -105v-309h-10v323q0 158 -73 158q-47 0 -69 -85q-14 -55 -14 -121v-275h-11v488h11v-127q5 50 22 87q25 52 66 52q63 0 77 -118q18 118 85 118q82 0 82 -167v-333z" />
<glyph unicode="n" d="M228 0h-10v323q0 58 -15 98q-21 60 -68 60q-54 0 -79 -82q-17 -54 -17 -124v-275h-11v488h11v-127q16 139 95 139q52 0 77 -62q17 -44 17 -105v-333z" />
<glyph unicode="o" horiz-adv-x="267" d="M253 244q0 -87 -21 -155q-31 -100 -99 -100q-67 0 -98 101q-21 67 -21 154t21 155q31 101 99 101t99 -101q20 -68 20 -155zM243 244q0 82 -18 143q-28 94 -91 94q-62 0 -91 -94q-19 -62 -19 -143q0 -80 20 -142q28 -94 90 -94q61 0 90 94q19 62 19 142z" />
<glyph unicode="p" horiz-adv-x="276" d="M258 246q0 -90 -19 -155q-28 -102 -95 -102q-83 0 -105 153v-310h-11v656h11v-142q8 57 28 97q30 57 76 57q67 0 96 -101q19 -65 19 -153zM248 245q0 79 -17 141q-26 95 -85 95q-60 0 -88 -93q-19 -62 -19 -140q0 -240 107 -240q59 0 85 95q17 62 17 142z" />
<glyph unicode="q" horiz-adv-x="276" d="M244 -168h-10v308q-22 -151 -108 -151q-62 0 -92 104q-20 69 -20 153t20 152q30 102 94 102q83 0 106 -154v142h10v-656zM234 245q0 79 -19 142q-28 94 -89 94q-58 0 -84 -95q-18 -62 -18 -141q0 -77 18 -141q27 -96 84 -96q64 0 91 94q17 59 17 143z" />
<glyph unicode="r" horiz-adv-x="156" d="M143 481q-63 0 -89 -120q-15 -72 -15 -168v-193h-11v488h11v-184q-1 65 20 121q29 75 84 75v-19z" />
<glyph unicode="s" horiz-adv-x="238" d="M213 122q0 -135 -91 -135q-102 0 -102 181h11q0 -160 91 -160q42 0 63 38q17 30 17 76q0 76 -55 103q-3 2 -49 17q-68 22 -68 123q0 49 18 87q22 49 66 49q98 0 98 -158h-12q0 137 -84 137q-38 0 -58 -41q-16 -32 -16 -74q0 -76 54 -97q12 -5 51 -20q66 -24 66 -126z" />
<glyph unicode="t" horiz-adv-x="129" d="M119 441h-50v-441h-9l-1 441h-49v19h49v154h10v-154h50v-19z" />
<glyph unicode="u" d="M228 0h-10v124q-18 -135 -96 -135q-54 0 -77 67q-17 45 -17 111v321h11v-320q0 -160 83 -160q57 0 81 85q15 54 15 130v265h10v-488z" />
<glyph unicode="v" horiz-adv-x="231" d="M227 488l-101 -488h-12l-110 488h13l103 -472l96 472h11z" />
<glyph unicode="w" horiz-adv-x="378" d="M365 488l-96 -488h-13l-65 308l-61 -308h-12l-104 488h12l98 -472l61 320l-33 152h13l98 -472l90 472h12z" />
<glyph unicode="x" horiz-adv-x="229" d="M227 0h-13l-100 238l-99 -238h-13l106 253l-96 235h13l89 -221l91 221h13l-97 -235z" />
<glyph unicode="y" d="M228 17q0 -196 -110 -196q-53 0 -79 53q-20 40 -21 101h10q5 -135 91 -135q99 0 99 178v106q-18 -135 -96 -135q-54 0 -77 67q-17 45 -17 111v321h11v-320q0 -160 83 -160q57 0 81 85q15 54 15 130v265h10v-471z" />
<glyph unicode="z" horiz-adv-x="232" d="M218 0h-204v24l185 445h-171v19h182v-23l-186 -446h194v-19z" />
<glyph unicode="{" horiz-adv-x="171" d="M124 -168h-5q-38 0 -38 95v229q0 72 -13 93q-8 11 -24 26v17q22 19 28 33q9 23 9 85v229q0 95 38 95h5v-19h-4q-20 0 -26 -36q-3 -18 -3 -65v-206q0 -63 -9 -89q-6 -16 -28 -36q22 -20 28 -35q9 -25 9 -90v-205q0 -48 3 -66q6 -36 26 -36h4v-19z" />
<glyph unicode="|" horiz-adv-x="114" d="M62 -32h-10v738h10v-738z" />
<glyph unicode="}" horiz-adv-x="171" d="M44 -168h5q38 0 38 95v229q0 72 14 93q7 11 23 26v17q-22 19 -27 33q-10 23 -10 85v229q0 95 -38 95h-5v-19h5q19 0 25 -36q3 -18 3 -65v-206q0 -63 9 -89q6 -16 28 -36q-22 -20 -28 -35q-9 -25 -9 -90v-205q0 -48 -3 -66q-6 -36 -25 -36h-5v-19z" />
<glyph unicode="~" horiz-adv-x="269" d="M203 355q-5 -4 -17 -4q-13 0 -53 38t-51 38q-33 0 -38 -77h-16q2 33 14 63q16 41 41 41q12 0 52 -38.5t51 -38.5q34 0 39 79h16q-2 -26 -10 -54q-12 -37 -28 -47z" />
<glyph unicode="&#xa0;" />
<glyph unicode="&#xa1;" horiz-adv-x="95" d="M42 410h10v-505h-10v505zM43 572q0 11 5 11t5 -11v-65q0 -10 -5 -10t-5 10v65z" />
<glyph unicode="&#xa2;" d="M72 43l100 428q-15 10 -33 10q-65 0 -94 -98q-19 -64 -19 -148q0 -130 46 -192zM201 551l-16 -68q40 -35 52 -121l-10 -10q-10 81 -46 113l-101 -432q23 -25 54 -25q45 0 71 51q20 38 25 91l10 -9q-7 -58 -28 -97q-29 -55 -78 -55q-33 0 -59 26l-12 -51h-10l15 61 q-52 67 -52 210q0 92 21 161q31 104 103 104q19 0 36 -11l15 62h10z" />
<glyph unicode="&#xa4;" horiz-adv-x="286" d="M243 208l-7 -12l-49 90q-21 -34 -49 -34t-48 35l-50 -91l-7 12l50 91q-18 37 -18 88q0 52 18 90l-50 92l7 12l50 -92q21 33 48 33q28 0 48 -33l50 92l7 -12l-50 -92q19 -38 19 -89q0 -52 -18 -90zM202 387q0 40 -13 73q-17 44 -51 44q-33 0 -50 -44q-14 -33 -14 -72 t14 -73q17 -45 50 -45t51 45q13 33 13 72z" />
<glyph unicode="&#xa5;" horiz-adv-x="316" d="M268 129h-104v-129h-11v129h-104v19h104v108h-104v19h104v58l-148 345h13l140 -325l141 325h13l-148 -345v-58h104v-19h-104v-108h104v-19z" />
<glyph unicode="&#xa6;" horiz-adv-x="114" d="M62 380h-10v316h10v-316zM62 -23h-10v316h10v-316z" />
<glyph unicode="&#xa7;" horiz-adv-x="286" d="M238 273q0 -111 -67 -131q58 -28 58 -115q0 -48 -17 -86q-22 -49 -65 -49q-98 0 -98 155h11q0 -136 84 -136q40 0 60 40q15 31 15 76q0 75 -45 94l-75 32q-26 17 -40 57q-12 34 -10 70q4 102 65 120q-58 28 -58 116q0 48 17 86q23 49 66 49q97 0 97 -156h-10 q0 137 -84 137q-40 0 -60 -41q-16 -32 -16 -75q0 -58 31 -83q11 -9 64 -31q25 -5 41 -23q36 -32 36 -106zM227 273q-12 112 -89 112q-40 0 -61 -32q-17 -28 -17 -69q0 -47 20 -83q24 -43 67 -43t64 38q16 31 16 77z" />
<glyph unicode="&#xa8;" horiz-adv-x="105" d="M86 559q0 -12 -5 -12t-5 12v55q0 10 5 10t5 -10v-55zM29 559q0 -12 -5 -12t-5 12v55q0 10 5 10t5 -10v-55z" />
<glyph unicode="&#xa9;" horiz-adv-x="274" d="M257 454q0 -72 -24 -134q-32 -84 -93 -84q-63 0 -95 82q-24 61 -24 135q0 72 24 135q33 84 94 84t94 -84q24 -62 24 -134zM246 453q0 65 -22 122q-29 76 -84 76q-56 0 -86 -75q-22 -57 -22 -122t22 -122q30 -76 85 -76t85 75q22 57 22 122zM202 412q-14 -99 -58 -99 q-40 0 -59 53q-13 37 -13 85q0 47 13 82q18 51 57 51q53 0 60 -95h-12q-7 74 -49 74q-32 0 -47 -43q-11 -30 -11 -69q0 -41 11 -72q16 -45 50 -45q35 0 46 78h12z" />
<glyph unicode="&#xaa;" horiz-adv-x="185" d="M164 349h-11v65q-19 -72 -61 -72q-41 0 -59 63q-12 42 -12 95q0 54 12 95q19 63 60 63q42 0 60 -70v69h11v-308zM153 500q0 137 -61 137q-34 0 -50 -55q-10 -36 -10 -82q0 -137 60 -137q34 0 50 55q11 38 11 82z" />
<glyph unicode="&#xab;" horiz-adv-x="192" d="M108 392v-22l-63 -96l63 -97v-19l-73 106v19zM165 392v-22l-63 -96l63 -97v-19l-73 106v19z" />
<glyph unicode="&#xac;" horiz-adv-x="295" d="M265 134h-11v149h-230v19h241v-168z" />
<glyph unicode="&#xae;" horiz-adv-x="266" d="M252 454q0 -74 -24 -135q-31 -83 -94 -83q-62 0 -94 83q-24 61 -24 134q0 72 24 135q33 84 94 84t94 -84q24 -62 24 -134zM241 453q0 67 -22 122q-28 76 -85 76q-56 0 -85 -75q-22 -56 -22 -122q0 -67 22 -122q29 -76 85 -76t85 75q22 56 22 122zM188 511q0 -46 -17 -64 q16 -16 16 -58v-67h-12v66q0 48 -29 48h-44v-114h-11v258h56q41 0 41 -69zM177 510q0 48 -30 48h-45v-100h43q32 0 32 52z" />
<glyph unicode="&#xaf;" horiz-adv-x="153" d="M137 597h-120v19h120v-19z" />
<glyph unicode="&#xb0;" horiz-adv-x="206" d="M176 521q0 -44 -15 -83q-21 -53 -58 -53q-38 0 -58 52q-16 39 -16 83t16 83q20 52 57 52q38 0 59 -51q15 -38 15 -83zM167 520q0 40 -13 72q-17 45 -51 45q-33 0 -51 -44q-13 -33 -13 -72t13 -73q18 -45 51 -45t51 45q13 33 13 72z" />
<glyph unicode="&#xb1;" horiz-adv-x="309" d="M253 242h-94v-175h-10v175h-94v19h94v172h10v-172h94v-19zM254 -3h-198v20h198v-20z" />
<glyph unicode="&#xb2;" horiz-adv-x="192" d="M174 256h-156q0 112 67 191l41 48q27 31 27 67q0 79 -56 79q-64 0 -64 -123h-12q0 144 74 144q70 0 70 -102q0 -46 -34 -85l-42 -50q-57 -67 -59 -149h144v-20z" />
<glyph unicode="&#xb3;" horiz-adv-x="209" d="M187 369q0 -45 -17 -77q-22 -40 -63 -40q-47 0 -69 48q-16 35 -16 88v11h12v-20q0 -40 15 -69q19 -37 56 -37q36 0 54 31q16 26 16 65q0 93 -64 93h-17v21h18q59 0 59 80q0 32 -15 53q-16 25 -47 25q-68 0 -68 -116h-12q0 137 80 137q38 0 57 -32q17 -26 17 -67 q0 -72 -39 -91q43 -21 43 -103z" />
<glyph unicode="&#xb4;" horiz-adv-x="104" d="M84 655l-56 -122q-3 -8 -7 -2q-5 6 -1 14l55 123q4 9 9 2q4 -6 0 -15z" />
<glyph unicode="&#xb5;" d="M218 -91q-25 0 -40 23q-13 20 -13 46q0 9 1 18q-15 -7 -32 -7q-78 0 -95 135v-295h-11v659h11v-265q0 -76 14 -130q24 -85 81 -85q84 0 84 160v320h10v-321q0 -109 -40 -153q-10 -11 -10 -33q0 -50 40 -50v-22z" />
<glyph unicode="&#xb6;" horiz-adv-x="243" d="M213 -133h-11v792h-42v-792h-10v385q-62 -8 -95 78q-25 63 -25 135t25 133q33 81 94 81q2 0 3 -1h61v-811z" />
<glyph unicode="&#xb7;" horiz-adv-x="102" d="M63 292q0 -12 -5 -12t-5 12v64q0 11 5 11t5 -11v-64z" />
<glyph unicode="&#xb8;" horiz-adv-x="127" d="M111 -108q0 -66 -51 -66q-18 0 -44 16l5 18q22 -15 38 -15q39 0 39 51q0 35 -29 40q-15 3 -19 -1v5l3 69h11l-1 -55q2 1 8 1q40 0 40 -63z" />
<glyph unicode="&#xb9;" horiz-adv-x="141" d="M102 260h-12v361l-54 -71h-20l76 103h10v-393z" />
<glyph unicode="&#xba;" horiz-adv-x="202" d="M100 350q-43 0 -63 59q-14 41 -14 94q0 54 14 95q21 58 65 58q43 0 64 -59q14 -41 14 -94q0 -54 -14 -95q-21 -58 -66 -58zM101 640q-38 0 -56 -53q-13 -37 -13 -84q0 -48 12 -84q18 -53 57 -53t57 53q13 36 13 84t-13 84q-18 53 -57 53z" />
<glyph unicode="&#xbb;" horiz-adv-x="187" d="M92 392v-22l62 -96l-62 -97v-19l73 106v19zM35 392v-22l63 -96l-63 -97v-19l73 106v19z" />
<glyph unicode="&#xbc;" horiz-adv-x="400" d="M370 137h-45v-137h-9v137h-129l74 261h10l-69 -245h114v245l9 -1v-244h45v-16zM272 694l-163 -694h-11l164 694h10zM111 263h-10v363l-55 -73h-16l71 98h10v-388z" />
<glyph unicode="&#xbd;" horiz-adv-x="393" d="M369 0h-154q1 110 63 182l43 51q29 40 29 71q0 82 -57 82q-65 0 -65 -124h-9q0 140 72 140q68 0 68 -100q0 -44 -30 -79q-20 -23 -44 -53q-59 -73 -60 -154h144v-16zM267 694l-164 -694h-10l164 694h10zM106 263h-10v363l-55 -73h-17l72 98h10v-388z" />
<glyph unicode="&#xbe;" horiz-adv-x="444" d="M415 137h-45v-137h-10v137h-129l75 261h11l-71 -245h114v245l10 -1v-244h45v-16zM317 694l-164 -694h-10l164 694h10zM192 369q0 -44 -18 -75q-21 -39 -62 -39q-83 0 -83 133v9h9v-18q0 -41 16 -71q19 -37 57 -37q36 0 55 32q16 27 16 66q0 96 -65 96h-17v16h17 q61 0 61 82q0 81 -63 81q-69 0 -70 -116h-9q1 132 78 132q73 0 73 -97q0 -70 -42 -91q47 -23 47 -103z" />
<glyph unicode="&#xbf;" d="M121 588q0 11 4 11q6 0 6 -11v-65q0 -10 -6 -10q-4 0 -4 10v65zM230 85q-12 -180 -109 -180q-54 0 -81 56q-20 44 -20 103q0 70 50 169.5t50 169.5v24h11v-19q0 -96 -49 -179q-28 -49 -39 -78q-13 -39 -13 -87q0 -54 18 -92q24 -48 73 -48q92 0 100 173z" />
<glyph unicode="&#xc0;" horiz-adv-x="331" d="M319 0h-11l-48 223h-187l-49 -223h-12l150 678h13zM256 242l-87 411l-92 -411h179zM198 731q4 -8 0 -14q-4 -5 -8 2l-55 123q-4 8 0 14q4 7 8 -2z" />
<glyph unicode="&#xc1;" horiz-adv-x="331" d="M319 0h-11l-48 223h-187l-49 -223h-12l150 678h13zM256 242l-87 411l-92 -411h179zM198 844l-55 -123q-4 -8 -8 -2t0 14l56 123q4 9 7 2q4 -6 0 -14z" />
<glyph unicode="&#xc2;" horiz-adv-x="331" d="M319 0h-11l-48 223h-187l-49 -223h-12l150 678h13zM256 242l-87 411l-92 -411h179zM220 712h-12l-42 116l-42 -116h-10l47 135h10z" />
<glyph unicode="&#xc3;" horiz-adv-x="331" d="M319 0h-11l-48 223h-187l-49 -223h-12l150 678h13zM256 242l-87 411l-92 -411h179zM237 792q-1 -20 -8 -39q-10 -26 -26 -26q-7 0 -33.5 27.5t-32.5 27.5q-12 0 -19 -23q-5 -17 -6 -33l-9 12q0 19 8 38q11 25 27 25q6 0 32.5 -27.5t32.5 -27.5q12 0 20 23q5 17 5 33z" />
<glyph unicode="&#xc4;" horiz-adv-x="331" d="M319 0h-11l-48 223h-187l-49 -223h-12l150 678h13zM256 242l-87 411l-92 -411h179zM200 733q0 -11 -5 -11t-5 11v55q0 11 5 11t5 -11v-55zM144 733q0 -11 -5 -11q-6 0 -6 11v55q0 11 6 11q5 0 5 -11v-55z" />
<glyph unicode="&#xc5;" horiz-adv-x="331" d="M319 0h-11l-48 223h-187l-49 -223h-12l150 678h13zM256 242l-87 411l-92 -411h179zM166 727q-20 0 -30 28q-8 21 -8 45t8 45q10 28 30 28t31 -28q7 -21 7 -45t-7 -45q-11 -28 -31 -28zM166 852q-27 0 -27 -52t27 -52q28 0 28 52t-28 52z" />
<glyph unicode="&#xc6;" horiz-adv-x="528" d="M300 364zM289 364l1 292l-127 -292h126zM289 0v345h-135l-148 -345h-12l292 678h217v-19h-203v-295h22v-1h155v-18h-177v-326h205v-19h-216z" />
<glyph unicode="&#xc7;" horiz-adv-x="352" d="M234 -108q0 -66 -51 -66q-18 0 -44 16l5 18q22 -15 38 -15q39 0 39 51q0 35 -29 40q-15 3 -19 -1v5l3 69h11l-1 -55q2 1 8 1q40 0 40 -63zM323 111q-43 -118 -131 -118q-95 0 -138 132q-29 89 -29 209q0 123 30 215q44 136 142 136q92 0 130 -116l-9 -12 q-35 109 -121 109q-91 0 -133 -127q-29 -87 -29 -201q0 -113 27 -198q41 -128 130 -128q82 0 122 111z" />
<glyph unicode="&#xc8;" horiz-adv-x="276" d="M269 0h-241v678h238v-19h-228v-296h202v-18h-202v-326h231v-19zM170 722q4 -8 0 -14q-5 -6 -8 2l-56 122q-4 9 1 14q3 7 7 -1z" />
<glyph unicode="&#xc9;" horiz-adv-x="276" d="M269 0h-241v678h238v-19h-228v-296h202v-18h-202v-326h231v-19zM170 832l-55 -122q-4 -8 -8 -2t-1 14l56 123q4 8 8 1q4 -6 0 -14z" />
<glyph unicode="&#xca;" horiz-adv-x="276" d="M269 0h-241v678h238v-19h-228v-296h202v-18h-202v-326h231v-19zM192 722h-13l-42 116l-42 -116h-10l47 135h11z" />
<glyph unicode="&#xcb;" horiz-adv-x="276" d="M269 0h-241v678h238v-19h-228v-296h202v-18h-202v-326h231v-19zM171 741q0 -11 -4 -11q-6 0 -6 11v0v55q0 11 6 11q4 0 4 -11v0v-55zM115 741q0 -11 -5 -11t-5 11v0v55q0 11 5 11t5 -11v0v-55z" />
<glyph unicode="&#xcc;" horiz-adv-x="66" d="M38 0h-10v678h10v-678zM65 737q3 -8 -1 -14t-8 2l-55 122q-4 9 0 15q4 7 8 -2z" />
<glyph unicode="&#xcd;" horiz-adv-x="66" d="M38 0h-10v678h10v-678zM65 844l-56 -123q-3 -8 -8 -2q-4 6 0 14l55 123q4 9 9 2q3 -6 0 -14z" />
<glyph unicode="&#xce;" horiz-adv-x="66" d="M38 0h-10v678h10v-678zM86 718h-12l-42 116l-42 -116h-11l48 135h10z" />
<glyph unicode="&#xcf;" horiz-adv-x="66" d="M38 0h-10v678h10v-678zM67 749q0 -12 -6 -12q-5 0 -5 12v0v55q0 10 5 10t6 -10v0v-55zM10 749q0 -12 -5 -12q-6 0 -6 12v0v55q0 10 6 10q4 0 5 -10v0v-55z" />
<glyph unicode="&#xd0;" horiz-adv-x="333" d="M28 330h-18v20h18v328h126q158 0 158 -340q0 -125 -30 -211q-44 -127 -146 -127h-108v330zM135 330h-97v-311h99q96 0 138 120q27 80 27 199q0 321 -148 321h-116v-309h97v-20z" />
<glyph unicode="&#xd1;" horiz-adv-x="333" d="M305 0h-15l-252 657v-657h-10v678h15q40 -110 126 -328t126 -328v656h10v-678zM233 787q-1 -20 -8 -39q-9 -27 -25 -27q-8 0 -34.5 27.5t-32.5 27.5q-12 0 -19 -23q-5 -17 -5 -33l-9 12q0 18 8 38q11 25 26 25q7 0 33.5 -27.5t32.5 -27.5q12 0 19 23q6 17 6 33z" />
<glyph unicode="&#xd2;" horiz-adv-x="371" d="M355 339q0 -123 -29 -212q-43 -134 -140 -134q-98 0 -141 134q-28 88 -28 212q0 122 28 207q43 129 141 129t140 -128q29 -86 29 -208zM344 339q0 116 -26 196q-40 121 -132 121t-132 -122q-27 -80 -27 -195t28 -200q40 -127 131 -127t132 127q26 84 26 200zM218 735 q3 -8 -1 -14q-4 -5 -7 2l-56 122q-3 9 0 15q4 7 8 -2z" />
<glyph unicode="&#xd3;" horiz-adv-x="371" d="M355 339q0 -123 -29 -212q-43 -134 -140 -134q-98 0 -141 134q-28 88 -28 212q0 122 28 207q43 129 141 129t140 -128q29 -86 29 -208zM344 339q0 116 -26 196q-40 121 -132 121t-132 -122q-27 -80 -27 -195t28 -200q40 -127 131 -127t132 127q26 84 26 200zM218 849 l-56 -122q-3 -4 -5 -4q-3 0 -4 4q-2 6 1 12l55 123q4 8 9 2q4 -6 0 -15z" />
<glyph unicode="&#xd4;" horiz-adv-x="371" d="M355 339q0 -123 -29 -212q-43 -134 -140 -134q-98 0 -141 134q-28 88 -28 212q0 122 28 207q43 129 141 129t140 -128q29 -86 29 -208zM344 339q0 116 -26 196q-40 121 -132 121t-132 -122q-27 -80 -27 -195t28 -200q40 -127 131 -127t132 127q26 84 26 200zM239 730h-12 l-42 115l-42 -115h-11l47 134h11z" />
<glyph unicode="&#xd5;" horiz-adv-x="371" d="M355 339q0 -123 -29 -212q-43 -134 -140 -134q-98 0 -141 134q-28 88 -28 212q0 122 28 207q43 129 141 129t140 -128q29 -86 29 -208zM344 339q0 116 -26 196q-40 121 -132 121t-132 -122q-27 -80 -27 -195t28 -200q40 -127 131 -127t132 127q26 84 26 200zM253 807 q-1 -20 -8 -39q-10 -26 -25 -26q-7 0 -34 27.5t-33 27.5q-22 0 -25 -56l-8 12q0 18 8 38q11 25 26 25q7 0 33.5 -27.5t32.5 -27.5q12 0 19 23q6 17 6 33z" />
<glyph unicode="&#xd6;" horiz-adv-x="371" d="M355 339q0 -123 -29 -212q-43 -134 -140 -134q-98 0 -141 134q-28 88 -28 212q0 122 28 207q43 129 141 129t140 -128q29 -86 29 -208zM344 339q0 116 -26 196q-40 121 -132 121t-132 -122q-27 -80 -27 -195t28 -200q40 -127 131 -127t132 127q26 84 26 200zM219 749 q0 -12 -5 -12t-5 12v0v55q0 10 5 10t5 -10v0v-55zM163 749q0 -12 -6 -12q-5 0 -5 12v0v55q0 10 5 10t6 -10v0v-55z" />
<glyph unicode="&#xd7;" horiz-adv-x="240" d="M194 127l-7 -13l-67 123l-67 -121l-6 13l66 123l-66 121l7 14l66 -122l66 122l8 -14l-67 -121z" />
<glyph unicode="&#xd8;" horiz-adv-x="371" d="M111 44l140 592q-29 20 -65 20q-92 0 -132 -122q-27 -80 -27 -195q0 -141 41 -231q19 -43 43 -64zM260 629l-140 -593q28 -24 66 -24q91 0 132 127q26 84 26 200q0 218 -84 290zM278 704l-13 -57q90 -80 90 -308q0 -123 -29 -212q-43 -134 -140 -134q-40 0 -71 24 l-11 -46h-10l12 54q-26 24 -46 68q-43 95 -43 246q0 122 28 207q43 129 141 129q39 0 70 -21l12 50h10z" />
<glyph unicode="&#xd9;" horiz-adv-x="325" d="M297 250q0 -257 -134 -257q-135 0 -135 259v426h10v-425q0 -241 125 -241q124 0 124 237v429h10v-428zM195 728q3 -8 -1 -15q-3 -5 -8 2l-55 123q-4 8 0 14q4 7 8 -2z" />
<glyph unicode="&#xda;" horiz-adv-x="325" d="M297 250q0 -257 -134 -257q-135 0 -135 259v426h10v-425q0 -241 125 -241q124 0 124 237v429h10v-428zM195 840l-56 -123q-4 -7 -8 -2q-4 6 0 15l55 122q4 9 9 2q3 -6 0 -14z" />
<glyph unicode="&#xdb;" horiz-adv-x="325" d="M297 250q0 -257 -134 -257q-135 0 -135 259v426h10v-425q0 -241 125 -241q124 0 124 237v429h10v-428zM216 720h-12l-42 116l-42 -116h-11l48 135h10z" />
<glyph unicode="&#xdc;" horiz-adv-x="325" d="M297 250q0 -257 -134 -257q-135 0 -135 259v426h10v-425q0 -241 125 -241q124 0 124 237v429h10v-428zM196 749q0 -12 -5 -12t-5 12v0v55q0 10 5 10t5 -10v0v-55zM140 749q0 -12 -6 -12q-5 0 -5 12v0v55q0 10 5 10q6 0 6 -10v0v-55z" />
<glyph unicode="&#xdd;" horiz-adv-x="322" d="M315 678l-148 -345v-333h-11v333l-148 345h13l140 -325l141 325h13zM194 844l-56 -123q-4 -8 -8 -2t-1 14l56 123q4 9 9 2q3 -6 0 -14z" />
<glyph unicode="&#xde;" horiz-adv-x="208" d="M39 192l77 1q55 1 55 154q0 158 -56 158h-76v-313zM181 347q0 -172 -66 -172h-76v-175h-11v678h11v-154h77q65 0 65 -177z" />
<glyph unicode="&#xdf;" horiz-adv-x="247" d="M28 408h-17v20h17q0 52 2 115q3 147 86 147q100 0 98 -139q-1 -56 -14 -85q-17 -40 -63 -50q48 -1 76 -90q20 -66 20 -127q0 -229 -129 -229v19q119 0 119 210q0 75 -23 132q-31 77 -96 77v19q46 0 67 17q32 27 32 102q0 60 -14 88q-20 37 -74 37q-76 0 -76 -154v-517 h-11v408z" />
<glyph unicode="&#xe0;" horiz-adv-x="270" d="M245 0h-11v141q-28 -152 -107 -152q-64 0 -94 102q-19 67 -19 152q0 87 20 154q29 103 95 103q82 0 105 -153v151h11v-498zM234 243q0 83 -17 144q-27 94 -90 94q-58 0 -85 -96q-18 -64 -18 -142q0 -79 17 -141q27 -94 86 -94t88 94q19 65 19 141zM156 545q3 -8 -1 -14 q-3 -5 -8 2l-55 122q-4 9 1 15q3 7 7 -2z" />
<glyph unicode="&#xe1;" horiz-adv-x="270" d="M250 0h-10v141q-28 -152 -107 -152q-64 0 -94 102q-19 67 -19 152q0 87 19 154q30 103 96 103q82 0 105 -153v151h10v-498zM240 243q0 83 -17 144q-27 94 -90 94q-58 0 -85 -96q-18 -64 -18 -142q0 -79 17 -141q27 -94 86 -94t87 94q20 65 20 141zM162 655l-56 -122 q-2 -4 -5 -4t-4 4q-2 6 1 12l55 123q4 9 9 2q3 -6 0 -15z" />
<glyph unicode="&#xe2;" horiz-adv-x="270" d="M250 0h-10v141q-28 -152 -107 -152q-64 0 -94 102q-19 67 -19 152q0 87 19 154q30 103 96 103q82 0 105 -153v151h10v-498zM240 243q0 83 -17 144q-27 94 -90 94q-58 0 -85 -96q-18 -64 -18 -142q0 -79 17 -141q27 -94 86 -94t87 94q20 65 20 141zM183 540h-12l-42 115 l-42 -115h-11l47 134h11z" />
<glyph unicode="&#xe3;" horiz-adv-x="270" d="M250 0h-10v141q-28 -152 -107 -152q-64 0 -94 102q-19 67 -19 152q0 87 19 154q30 103 96 103q82 0 105 -153v151h10v-498zM240 243q0 83 -17 144q-27 94 -90 94q-58 0 -85 -96q-18 -64 -18 -142q0 -79 17 -141q27 -94 86 -94t87 94q20 65 20 141zM197 617q-1 -20 -8 -39 q-10 -26 -26 -26q-7 0 -34 27.5t-32 27.5q-22 0 -25 -56l-8 12q0 18 8 38q10 25 26 25q7 0 33.5 -27.5t31.5 -27.5q12 0 20 23q5 17 6 33z" />
<glyph unicode="&#xe4;" horiz-adv-x="270" d="M250 0h-10v141q-28 -152 -107 -152q-64 0 -94 102q-19 67 -19 152q0 87 19 154q30 103 96 103q82 0 105 -153v151h10v-498zM240 243q0 83 -17 144q-27 94 -90 94q-58 0 -85 -96q-18 -64 -18 -142q0 -79 17 -141q27 -94 86 -94t87 94q20 65 20 141zM169 559q0 -12 -5 -12 t-5 12v0v55q0 10 5 10t5 -10v0v-55zM113 559q0 -12 -6 -12q-5 0 -5 12v0v55q0 10 5 10q6 0 6 -10v0v-55z" />
<glyph unicode="&#xe5;" horiz-adv-x="270" d="M250 0h-10v141q-28 -152 -107 -152q-64 0 -94 102q-19 67 -19 152q0 87 19 154q30 103 96 103q82 0 105 -153v151h10v-498zM240 243q0 83 -17 144q-27 94 -90 94q-58 0 -85 -96q-18 -64 -18 -142q0 -79 17 -141q27 -94 86 -94t87 94q20 65 20 141zM132 554q-20 0 -31 28 q-7 21 -7 45t7 45q11 28 31 28t30 -28q8 -21 8 -45t-8 -45q-10 -28 -30 -28zM132 679q-27 0 -27 -52t27 -52t27 52t-27 52z" />
<glyph unicode="&#xe6;" horiz-adv-x="482" d="M467 241l-222 -1v-25q0 -207 105 -207q41 0 69 44q21 34 29 82h11q-8 -56 -31 -94q-31 -51 -79 -51q-79 0 -104 131v-120h-11v141q-28 -152 -107 -152q-64 0 -94 102q-19 67 -19 152q0 87 20 154q29 103 95 103q82 0 105 -153v151h11v-143q7 39 22 72q33 73 84 73 q66 0 96 -92q20 -62 20 -145v-22zM455 259q0 76 -18 134q-27 88 -86 88q-56 0 -85 -80q-21 -59 -21 -126v-16h210zM234 243q0 83 -17 144q-27 94 -90 94q-58 0 -85 -96q-18 -64 -18 -142q0 -79 17 -141q27 -94 86 -94t88 94q19 65 19 141z" />
<glyph unicode="&#xe7;" d="M240 141q-7 -58 -28 -97q-29 -55 -78 -55q-67 0 -97 96q-21 65 -21 150q0 92 21 161q31 104 103 104q43 0 70 -50q20 -36 27 -88l-10 -10q-15 129 -88 129q-65 0 -94 -98q-19 -64 -19 -148q0 -79 19 -138q27 -89 89 -89q45 0 71 51q20 38 25 91zM187 -108q0 -66 -50 -66 q-18 0 -44 16l4 18q23 -15 38 -15q40 0 40 51q0 35 -29 40q-16 3 -20 -1v5l4 69h11l-1 -55q2 1 7 1q40 0 40 -63z" />
<glyph unicode="&#xe8;" d="M246 241l-223 -1q1 -232 105 -232q42 0 69 44q21 34 30 82h11q-21 -145 -111 -145q-114 0 -114 254q0 86 20 155q31 102 97 102t96 -92q20 -62 20 -145v-22zM234 259q0 76 -18 134q-27 88 -86 88t-87 -88q-19 -57 -20 -134h211zM161 545q4 -8 -1 -14q-4 -5 -8 2l-55 122 q-4 9 0 15q4 7 8 -2z" />
<glyph unicode="&#xe9;" d="M246 241l-223 -1q1 -232 105 -232q42 0 69 44q21 34 30 82h11q-21 -145 -111 -145q-114 0 -114 254q0 86 20 155q31 102 97 102t96 -92q20 -62 20 -145v-22zM234 259q0 76 -18 134q-27 88 -86 88t-87 -88q-19 -57 -20 -134h211zM161 657l-56 -122q-2 -4 -5 -4t-4 4 q-2 6 1 12l55 123q4 8 9 2q1 -3 1 -7q0 -3 -1 -8z" />
<glyph unicode="&#xea;" d="M246 241l-223 -1q1 -232 105 -232q42 0 69 44q21 34 30 82h11q-21 -145 -111 -145q-114 0 -114 254q0 86 20 155q31 102 97 102t96 -92q20 -62 20 -145v-22zM234 259q0 76 -18 134q-27 88 -86 88t-87 -88q-19 -57 -20 -134h211zM182 540h-12l-42 115l-42 -115h-11l48 134 h10z" />
<glyph unicode="&#xeb;" d="M246 241l-223 -1q1 -232 105 -232q42 0 69 44q21 34 30 82h11q-21 -145 -111 -145q-114 0 -114 254q0 86 20 155q31 102 97 102t96 -92q20 -62 20 -145v-22zM234 259q0 76 -18 134q-27 88 -86 88t-87 -88q-19 -57 -20 -134h211zM163 559q0 -12 -6 -12q-5 0 -5 12v0v55 q0 10 5 10q6 0 6 -10v0v-55zM106 559q0 -12 -5 -12t-5 12v0v55q0 10 5 10t5 -10v0v-55z" />
<glyph unicode="&#xec;" horiz-adv-x="67" d="M39 0h-11v488h11v-488zM65 545q4 -8 0 -14q-4 -5 -8 2l-56 122q-4 9 1 15q3 7 7 -2z" />
<glyph unicode="&#xed;" horiz-adv-x="67" d="M39 0h-11v488h11v-488zM65 652l-55 -123q-4 -8 -8 -2t-1 14l56 123q4 9 8 2q4 -6 0 -14z" />
<glyph unicode="&#xee;" horiz-adv-x="67" d="M39 0h-11v488h11v-488zM85 540h-12l-39 115l-40 -115h-11l45 134h11z" />
<glyph unicode="&#xef;" horiz-adv-x="67" d="M39 0h-11v488h11v-488zM69 559q0 -12 -6 -12q-5 0 -5 12v0v55q0 10 5 10q6 0 6 -10v0v-55zM12 559q0 -12 -5 -12q-6 0 -6 12v0v55q0 10 6 10q5 0 5 -10v0v-55z" />
<glyph unicode="&#xf0;" horiz-adv-x="276" d="M234 243q0 83 -17 144q-27 94 -90 94q-58 0 -85 -96q-18 -64 -18 -142q0 -79 17 -141q27 -94 86 -94t88 94q19 65 19 141zM234 586h-162v20h162v72h11v-678h-11v141q-28 -152 -107 -152q-64 0 -94 102q-19 67 -19 152q0 87 20 154q29 103 95 103q82 0 105 -153v239z" />
<glyph unicode="&#xf1;" d="M228 0h-10v323q0 58 -15 98q-21 60 -68 60q-54 0 -79 -82q-17 -54 -17 -124v-275h-11v488h11v-127q16 139 95 139q52 0 77 -62q17 -44 17 -105v-333zM197 617q-1 -20 -8 -39q-10 -26 -25 -26q-8 0 -34.5 27.5t-32.5 27.5q-12 0 -19 -23q-5 -17 -5 -33l-9 12q0 17 8 38 q11 25 26 25q7 0 33.5 -27.5t32.5 -27.5q12 0 19 23q5 17 6 33z" />
<glyph unicode="&#xf2;" horiz-adv-x="267" d="M253 244q0 -87 -21 -155q-31 -100 -99 -100q-67 0 -98 101q-21 67 -21 154t21 155q31 101 99 101t99 -101q20 -68 20 -155zM243 244q0 82 -18 143q-28 94 -91 94q-62 0 -91 -94q-19 -62 -19 -143q0 -80 20 -142q28 -94 90 -94q61 0 90 94q19 62 19 142zM166 545 q3 -8 -1 -14q-4 -5 -8 2l-55 122q-4 9 0 15q4 7 8 -2z" />
<glyph unicode="&#xf3;" horiz-adv-x="267" d="M253 244q0 -87 -21 -155q-31 -100 -99 -100q-67 0 -98 101q-21 67 -21 154t21 155q31 101 99 101t99 -101q20 -68 20 -155zM243 244q0 82 -18 143q-28 94 -91 94q-62 0 -91 -94q-19 -62 -19 -143q0 -80 20 -142q28 -94 90 -94q61 0 90 94q19 62 19 142zM166 652l-56 -123 q-4 -8 -8 -2t-1 14l56 123q4 9 9 2q3 -6 0 -14z" />
<glyph unicode="&#xf4;" horiz-adv-x="267" d="M253 244q0 -87 -21 -155q-31 -100 -99 -100q-67 0 -98 101q-21 67 -21 154t21 155q31 101 99 101t99 -101q20 -68 20 -155zM243 244q0 82 -18 143q-28 94 -91 94q-62 0 -91 -94q-19 -62 -19 -143q0 -80 20 -142q28 -94 90 -94q61 0 90 94q19 62 19 142zM187 540h-12 l-42 115l-42 -115h-11l48 134h10z" />
<glyph unicode="&#xf5;" horiz-adv-x="267" d="M253 244q0 -87 -21 -155q-31 -100 -99 -100q-67 0 -98 101q-21 67 -21 154t21 155q31 101 99 101t99 -101q20 -68 20 -155zM243 244q0 82 -18 143q-28 94 -91 94q-62 0 -91 -94q-19 -62 -19 -143q0 -80 20 -142q28 -94 90 -94q61 0 90 94q19 62 19 142zM200 617 q-1 -20 -8 -39q-9 -26 -25 -26q-7 0 -34 27.5t-32 27.5q-24 0 -25 -56l-9 12q0 19 8 38q10 25 26 25q7 0 33.5 -27.5t32.5 -27.5q22 0 26 56z" />
<glyph unicode="&#xf6;" horiz-adv-x="267" d="M253 244q0 -87 -21 -155q-31 -100 -99 -100q-67 0 -98 101q-21 67 -21 154t21 155q31 101 99 101t99 -101q20 -68 20 -155zM243 244q0 82 -18 143q-28 94 -91 94q-62 0 -91 -94q-19 -62 -19 -143q0 -80 20 -142q28 -94 90 -94q61 0 90 94q19 62 19 142zM167 559 q0 -12 -5 -12t-5 12v0v55q0 10 5 10t5 -10v0v-55zM111 559q0 -12 -6 -12q-5 0 -5 12v0v55q0 10 5 10q6 0 6 -10v0v-55z" />
<glyph unicode="&#xf7;" horiz-adv-x="290" d="M258 231h-234v19h234v-19zM150 85q0 -11 -5 -11t-5 11v65q0 11 5 11t5 -11v-65zM150 323q0 -11 -5 -11t-5 11v65q0 10 5 10t5 -10v-65z" />
<glyph unicode="&#xf8;" horiz-adv-x="267" d="M77 36l101 429q-20 16 -44 16q-62 0 -91 -94q-19 -62 -19 -143q0 -98 28 -164q11 -27 25 -44zM187 456l-102 -428q21 -20 49 -20q61 0 90 94q19 62 19 142q0 98 -27 164q-13 31 -29 48zM209 549l-17 -75q17 -18 31 -51q30 -70 30 -179q0 -87 -21 -155q-31 -100 -99 -100 q-29 0 -52 20l-13 -56h-10l15 64q-59 68 -59 227q0 87 21 155q31 101 99 101q27 0 49 -17l15 66h11z" />
<glyph unicode="&#xf9;" d="M228 0h-10v124q-18 -135 -96 -135q-54 0 -77 67q-17 45 -17 111v321h11v-320q0 -160 83 -160q57 0 81 85q15 54 15 130v265h10v-488zM161 541q4 -8 -1 -14q-4 -5 -8 2l-55 123q-4 8 1 14q3 7 7 -2z" />
<glyph unicode="&#xfa;" d="M228 0h-10v124q-18 -135 -96 -135q-54 0 -77 67q-17 45 -17 111v321h11v-320q0 -160 83 -160q57 0 81 85q15 54 15 130v265h10v-488zM161 655l-56 -122q-3 -8 -7 -2q-5 6 -1 14l55 123q4 9 9 2q4 -6 0 -15z" />
<glyph unicode="&#xfb;" d="M228 0h-10v124q-18 -135 -96 -135q-54 0 -77 67q-17 45 -17 111v321h11v-320q0 -160 83 -160q57 0 81 85q15 54 15 130v265h10v-488zM182 540h-12l-42 115l-42 -115h-11l48 134h10z" />
<glyph unicode="&#xfc;" d="M228 0h-10v124q-18 -135 -96 -135q-54 0 -77 67q-17 45 -17 111v321h11v-320q0 -160 83 -160q57 0 81 85q15 54 15 130v265h10v-488zM162 559q0 -12 -5 -12t-5 12v0v55q0 10 5 10t5 -10v0v-55zM105 559q0 -12 -5 -12t-5 12v0v55q0 10 5 10t5 -10v0v-55z" />
<glyph unicode="&#xfd;" horiz-adv-x="248" d="M228 17q0 -196 -110 -196q-53 0 -79 53q-20 40 -21 101h10q5 -135 91 -135q99 0 99 178v106q-18 -135 -96 -135q-54 0 -77 67q-17 45 -17 111v321h11v-320q0 -160 83 -160q57 0 81 85q15 54 15 130v265h10v-471zM156 657l-56 -122q-2 -4 -4 -4q-3 0 -5 5q-2 6 1 11 l56 123q4 8 8 2q2 -3 2 -7q0 -3 -2 -8z" />
<glyph unicode="&#xfe;" horiz-adv-x="276" d="M258 246q0 -90 -19 -155q-28 -102 -95 -102q-83 0 -105 153v-310h-11v846h11v-332q8 57 28 97q30 57 76 57q67 0 96 -101q19 -65 19 -153zM248 245q0 79 -17 141q-26 95 -85 95q-60 0 -88 -93q-19 -62 -19 -140q0 -240 107 -240q59 0 85 95q17 62 17 142z" />
<glyph unicode="&#xff;" horiz-adv-x="250" d="M228 17q0 -196 -110 -196q-53 0 -79 53q-20 40 -21 101h10q5 -135 91 -135q99 0 99 178v106q-18 -135 -96 -135q-54 0 -77 67q-17 45 -17 111v321h11v-320q0 -160 83 -160q57 0 81 85q15 54 15 130v265h10v-471zM159 559q0 -12 -6 -12q-5 0 -5 12v0v55q0 10 5 10t6 -10v0 v-55zM102 559q0 -12 -5 -12t-5 12v0v55q0 10 5 10q4 0 5 -10v0v-55z" />
<glyph unicode="&#x131;" horiz-adv-x="67" d="M39 0h-11v488h11v-488z" />
<glyph unicode="&#x152;" horiz-adv-x="495" d="M476 0h-246q-20 -8 -42 -8q-97 0 -140 134q-29 90 -29 211q0 123 28 212q44 134 141 134q16 0 32 -5h253v-19h-217q31 -24 54 -71q43 -87 46 -225h102v-18h-101v-8q0 -156 -47 -251q-21 -43 -49 -67h215v-19zM346 363q-3 130 -43 212q-26 54 -63 75v-287h106zM346 337v8 h-106v-320q37 22 63 76q43 89 43 236zM230 20v635q-20 9 -42 9q-91 0 -132 -127q-27 -85 -27 -200t27 -200q41 -127 132 -127q22 0 42 10z" />
<glyph unicode="&#x153;" horiz-adv-x="515" d="M255 244q0 82 -19 143q-28 94 -90 94q-63 0 -91 -94q-19 -62 -19 -143q0 -80 19 -142q29 -94 91 -94q61 0 90 94q19 62 19 142zM490 241l-224 -1q2 -232 106 -232q41 0 69 44q21 34 29 82h11q-8 -56 -31 -94q-31 -51 -79 -51q-92 0 -111 174q-9 -65 -31 -110 q-33 -64 -84 -64q-68 0 -98 101q-21 67 -21 154t21 155q31 101 99 101q93 0 115 -180q8 61 28 107q33 73 84 73q66 0 96 -92q21 -62 21 -145v-22zM477 259q0 76 -18 134q-27 88 -86 88q-58 0 -86 -88q-19 -59 -21 -134h211z" />
<glyph unicode="&#x160;" horiz-adv-x="315" d="M291 165q0 -69 -30 -116q-34 -56 -99 -56q-144 0 -144 221v10h10v-6q0 -206 134 -206q61 0 92 49q26 42 26 107q0 102 -58 136q-12 8 -70 34q-29 14 -43 21q-26 14 -40 30q-41 45 -41 130q0 166 124 166q130 0 132 -197h-11q-2 80 -22 121q-29 57 -99 57 q-113 0 -113 -147q0 -74 33 -111q20 -23 70 -42q86 -33 116 -70q33 -42 33 -131zM209 874l-48 -135h-11l-47 135h10l42 -116l42 116h12z" />
<glyph unicode="&#x161;" horiz-adv-x="238" d="M213 122q0 -135 -91 -135q-102 0 -102 181h11q0 -160 91 -160q42 0 63 38q17 30 17 76q0 76 -55 103q-3 2 -49 17q-68 22 -68 123q0 49 18 87q22 49 66 49q98 0 98 -158h-12q0 137 -84 137q-38 0 -58 -41q-16 -32 -16 -74q0 -76 54 -97q20 -8 51 -20q66 -25 66 -126z M171 684l-49 -135h-10l-47 135h10l42 -116l42 116h12z" />
<glyph unicode="&#x178;" horiz-adv-x="325" d="M316 678l-148 -345v-333h-10v333l-149 345h13l141 -325l141 325h12zM198 749q0 -12 -5 -12t-5 12v0v55q0 10 5 10t5 -10v0v-55zM142 749q0 -12 -5 -12q-6 0 -6 12v0v55q0 10 6 10q4 0 5 -10v0v-55z" />
<glyph unicode="&#x192;" horiz-adv-x="286" d="M-14 -168l2 18q94 0 116 149v0l48 416h-36l3 20h35q1 10 6 49q22 182 130 182l-2 -18q-98 0 -117 -164l-6 -49h54l-3 -20h-54l-46 -401q-21 -182 -130 -182z" />
<glyph unicode="&#x2c6;" horiz-adv-x="127" d="M117 540h-12l-42 115l-42 -115h-11l47 134h11z" />
<glyph unicode="&#x2c7;" horiz-adv-x="67" d="M85 684l-49 -135h-11l-47 135h11l42 -116l42 116h12z" />
<glyph unicode="&#x2da;" horiz-adv-x="67" d="M31 569q-20 0 -30 28q-8 21 -8 45t8 45q10 28 30 28t31 -28q8 -21 8 -45t-8 -45q-11 -28 -31 -28zM31 694q-27 0 -27 -52t27 -52q28 0 28 52t-28 52z" />
<glyph unicode="&#x2dc;" horiz-adv-x="179" d="M156 617q-1 -20 -8 -39q-10 -26 -26 -26q-7 0 -33.5 27.5t-32.5 27.5q-11 0 -19 -23q-5 -17 -5 -33l-9 12q0 17 9 38q10 25 25 25q7 0 33.5 -27.5t31.5 -27.5q13 0 20 23q6 17 6 33z" />
<glyph unicode="&#x3bc;" horiz-adv-x="286" />
<glyph unicode="&#x2013;" horiz-adv-x="243" d="M242 254h-242v20h242v-20z" />
<glyph unicode="&#x2014;" horiz-adv-x="438" d="M437 254h-437v20h437v-20z" />
<glyph unicode="&#x2018;" horiz-adv-x="86" d="M60 664l-21 -155q-2 -11 -7 -8q-5 2 -3 13l20 155q2 10 7 8t4 -13z" />
<glyph unicode="&#x2019;" horiz-adv-x="86" d="M60 664l-21 -155q-1 -10 -7 -8q-5 2 -3 13l21 155q1 11 6 8q5 -2 4 -13z" />
<glyph unicode="&#x201a;" horiz-adv-x="143" d="M78 73v0l-20 -155q-2 -11 -7 -8q-4 2 -4 8q0 2 1 5v0l21 155q1 11 5 8q6 -2 4 -13z" />
<glyph unicode="&#x201c;" horiz-adv-x="131" d="M111 664l-21 -155q-1 -11 -6 -8q-5 2 -4 13l21 155q1 10 6 8q6 -2 4 -13zM60 664l-21 -155q-2 -11 -7 -8q-5 2 -3 13l20 155q2 10 7 8t4 -13z" />
<glyph unicode="&#x201d;" horiz-adv-x="135" d="M111 664l-20 -155q-2 -10 -7 -8t-4 13l21 155q2 11 6 8q6 -2 4 -13zM60 664l-21 -155q-1 -10 -7 -8q-5 2 -3 13l21 155q1 11 6 8q5 -2 4 -13z" />
<glyph unicode="&#x201e;" horiz-adv-x="172" d="M78 73v0l-20 -155q-2 -11 -7 -8q-4 2 -4 8q0 2 1 5v0l21 155q1 11 5 8q6 -2 4 -13zM130 73v0l-21 -155q-1 -11 -7 -8q-4 2 -4 8q1 2 1 5v0l21 155q2 11 6 8q5 -2 4 -13z" />
<glyph unicode="&#x2020;" horiz-adv-x="169" d="M144 472h-58v-529h-11v529h-57v20h57v129h11v-129h58v-20z" />
<glyph unicode="&#x2021;" horiz-adv-x="165" d="M146 45h-58v-102h-10v102h-58v20h58v407h-58v20h58v129h10v-129h58v-20h-58v-407h58v-20z" />
<glyph unicode="&#x2022;" horiz-adv-x="143" d="M92 261q0 -11 -33 -11q-32 0 -32 11v128q0 11 32 11q33 0 33 -11v-128z" />
<glyph unicode="&#x2026;" horiz-adv-x="313" d="M76 9q0 -11 -4 -11q-6 0 -6 11v65q0 11 6 11q4 0 4 -11v-65zM169 9q0 -11 -5 -11t-5 11v65q0 11 5 11t5 -11v-65zM262 9q0 -11 -5 -11q-6 0 -6 11v65q0 11 6 11q5 0 5 -11v-65z" />
<glyph unicode="&#x2030;" horiz-adv-x="496" d="M481 154q0 -173 -66 -173t-66 173q0 178 66 178t66 -178zM302 678l-233 -678h-13l234 678h12zM331 154q0 -173 -65 -173q-66 0 -66 173q0 178 66 178q65 0 65 -178zM150 480q0 -172 -66 -172q-65 0 -65 172q0 177 66 177q65 0 65 -177zM470 154q0 159 -55 159t-55 -159 q0 -154 55 -154t55 154zM320 154q0 159 -54 159q-55 0 -55 -159q0 -154 55 -154q54 0 54 154zM140 480q0 158 -56 158q-54 0 -54 -158q0 -154 55 -154t55 154z" />
<glyph unicode="&#x2039;" horiz-adv-x="144" d="M108 392v-22l-63 -96l63 -97v-19l-73 106v19z" />
<glyph unicode="&#x203a;" horiz-adv-x="144" d="M35 392v-22l63 -96l-63 -97v-19l73 106v19z" />
<glyph unicode="&#x20ac;" horiz-adv-x="286" d="M195 253h-130v-10q0 -80 19 -142q28 -94 90 -94q49 0 79 65l8 -13q-33 -71 -87 -71q-68 0 -99 100q-21 68 -21 155v10h-36l2 19h34v108h-24l2 19h22v16q0 87 21 155q32 101 99 101q54 0 87 -71l-8 -14q-30 66 -79 66q-62 0 -91 -94q-18 -62 -18 -143v-16h144l-2 -19h-142 v-108h131z" />
<glyph unicode="&#x2122;" horiz-adv-x="387" d="M180 663q0 -36 1 -316h-12v316h-58v-316h-13v316h-72v21h161l79 -307l77 307h18v-337h-13v311l-77 -311h-11z" />
<glyph unicode="&#x2212;" horiz-adv-x="290" d="M258 231h-234v19h234v-19z" />
<glyph unicode="&#xe000;" horiz-adv-x="490" d="M0 490h490v-490h-490v490z" />
<glyph horiz-adv-x="173" />
<glyph horiz-adv-x="173" />
<glyph horiz-adv-x="173" />
<glyph horiz-adv-x="173" />
<glyph horiz-adv-x="143" />
<glyph horiz-adv-x="143" />
<glyph horiz-adv-x="143" />
<glyph horiz-adv-x="143" />
<glyph horiz-adv-x="143" />
<glyph horiz-adv-x="143" />
<glyph horiz-adv-x="143" />
<glyph horiz-adv-x="143" />
<glyph horiz-adv-x="143" />
<glyph horiz-adv-x="143" />
<glyph horiz-adv-x="143" />
<glyph horiz-adv-x="143" />
<glyph horiz-adv-x="143" />
<glyph horiz-adv-x="143" />
<glyph horiz-adv-x="143" />
<glyph horiz-adv-x="206" d="M278 447l-9 1q0 40 -13 72q-17 45 -51 45q-33 0 -51 -46q-13 -34 -13 -73q0 -43 -15 -83q-21 -52 -58 -52t-58 52q-16 39 -16 83h10q0 -39 13 -72q18 -45 51 -45t51 45q13 33 13 72q0 70 30 111q19 26 43 26q38 0 58 -52q15 -39 15 -84z" />
<glyph horiz-adv-x="171" d="M161 392h-45v-136h-13v136h-128l75 266h13l-70 -245h110v245l13 -1v-244h45v-21z" />
</font>
</defs>
</svg>
