<?xml version="1.0" standalone="no"?>
<!DOCTYPE svg PUBLIC "-//W3C//DTD SVG 1.1//EN" "http://www.w3.org/Graphics/SVG/1.1/DTD/svg11.dtd" >
<svg xmlns="http://www.w3.org/2000/svg">
<metadata></metadata>
<defs>
<font id="walkway_ultracondensed_semiRg" horiz-adv-x="257" >
<font-face units-per-em="1000" ascent="800" descent="-200" />
<missing-glyph horiz-adv-x="173" />
<glyph horiz-adv-x="0" />
<glyph unicode="&#xd;" horiz-adv-x="173" />
<glyph unicode=" "  horiz-adv-x="173" />
<glyph unicode="&#x09;" horiz-adv-x="173" />
<glyph unicode="&#xa0;" horiz-adv-x="173" />
<glyph unicode="!" horiz-adv-x="95" d="M36 169v509h25v-509h-25zM48 0q-13 0 -13 18v64q0 17 13 17q12 0 12 -17v-64q0 -18 -12 -18z" />
<glyph unicode="&#x22;" horiz-adv-x="143" d="M99 547q-12 0 -12 17v91q0 17 12 17q13 0 13 -17v-91q0 -17 -13 -17zM43 547q-12 0 -12 17v91q0 17 12 17q13 0 13 -17v-91q0 -17 -13 -17z" />
<glyph unicode="#" horiz-adv-x="260" d="M227 359h-44l-11 -89h43l-3 -33h-43l-10 -76h-25l9 76h-43l-10 -76h-25l9 76h-43l3 33h43l12 89h-44l3 33h44l9 76h26l-10 -76h44l9 76h25l-9 -76h44zM114 359l-11 -89h43l12 89h-44z" />
<glyph unicode="$" horiz-adv-x="315" d="M204 -9v-61h-25v54q-9 -1 -17 -1q-16 0 -30 4v-57h-25v64q-96 45 -96 222v17h25v-13q0 -151 71 -190v322q-86 43 -86 164q0 139 86 172v65h25v-59q9 1 20 1q14 0 27 -2v60h25v-67q86 -39 88 -208h-26q-4 137 -62 172v-303q47 -24 67 -54q28 -41 28 -125q0 -58 -22 -104 q-25 -56 -73 -73zM179 659q-12 3 -27 3q-11 0 -20 -2v-283l47 -18v300zM107 652q-60 -32 -60 -136q0 -88 60 -126v262zM261 253q-15 31 -57 57v-284q69 30 69 145q0 57 -12 82zM179 322l-47 19v-321q14 -4 30 -4q8 0 17 2v304z" />
<glyph unicode="%" horiz-adv-x="367" d="M93 301q-72 0 -72 176q0 180 73 180t73 -180q0 -176 -74 -176zM82 0h-28l240 678h28zM274 -19q-72 0 -72 177q0 181 73 181t73 -181q0 -177 -74 -177zM93 624q-46 0 -46 -147q0 -144 47 -144t47 144q0 147 -48 147zM274 306q-46 0 -46 -148q0 -144 47 -144t47 144 q0 148 -48 148z" />
<glyph unicode="&#x26;" horiz-adv-x="295" d="M238 96q-40 -112 -107 -112q-58 0 -90 60q-25 47 -25 109q0 70 28 127q23 46 77 104q-61 61 -61 164q0 48 16 83q22 47 66 47q45 0 67 -47q16 -35 16 -85q0 -91 -92 -193q-48 -52 -67 -90q-25 -50 -25 -110q0 -48 18 -87q24 -49 69 -49q63 0 93 113q16 63 17 142h26v-291 h-26v115zM187 611q-15 34 -44 34q-30 0 -46 -36q-12 -28 -12 -62q0 -92 55 -144q60 71 60 144q0 36 -13 64z" />
<glyph unicode="'" horiz-adv-x="86" d="M43 547q-12 0 -12 17v91q0 17 12 17q13 0 13 -17v-91q0 -17 -13 -17z" />
<glyph unicode="(" horiz-adv-x="114" d="M89 -168q-61 198 -61 451q0 254 61 451h26q-62 -195 -62 -451t62 -451h-26z" />
<glyph unicode=")" horiz-adv-x="114" d="M22 -168h-26q66 195 66 451t-66 451h26q65 -194 65 -451q0 -256 -65 -451z" />
<glyph unicode="*" horiz-adv-x="167" d="M35 620h1l30 -29v64q0 17 13 17t13 -17v-64l28 27q4 4 8 4q12 0 12 -15q0 -10 -5 -15l-36 -34l36 -37q8 -7 4 -19q-3 -11 -9 -11q-7 0 -38 33v-64q0 -17 -13 -17t-13 17v64q-7 -8 -14 -17q-15 -15 -24 -15q-7 0 -10 9q-4 12 5 20l36 37l-38 36q-5 6 -4 17q2 11 12 11 q4 0 6 -2z" />
<glyph unicode="+" horiz-adv-x="274" d="M150 235v-168h-25v168h-94v33h94v165h25v-165h94v-33h-94z" />
<glyph unicode="," horiz-adv-x="128" d="M66 -77q-2 -19 -18 -12q-6 4 -6 13v5l21 144q3 20 17 12q10 -4 7 -19z" />
<glyph unicode="-" horiz-adv-x="171" d="M18 254v20h141v-20h-141z" />
<glyph unicode="." horiz-adv-x="102" d="M51 -2q-12 0 -12 16v55q0 16 12 16q13 0 13 -16v-55q0 -16 -13 -16z" />
<glyph unicode="/" horiz-adv-x="171" d="M17 0h-25l167 694h25z" />
<glyph unicode="0" horiz-adv-x="286" d="M144 -12q-74 0 -106 100q-21 66 -21 157v168q0 91 21 158q32 100 106 100q72 0 104 -101q22 -66 22 -157v-168q0 -92 -22 -158q-32 -99 -104 -99zM245 413q0 75 -18 135q-26 90 -84 90t-84 -90q-17 -60 -17 -135v-168q0 -74 17 -134q27 -90 84 -90t84 90q18 60 18 134 v168z" />
<glyph unicode="1" horiz-adv-x="202" d="M135 0v584l-65 -106h-33l101 168h22v-646h-25z" />
<glyph unicode="2" horiz-adv-x="286" d="M21 0q0 180 98 299q18 21 69 82q44 53 44 115q0 128 -84 128q-95 0 -95 -200h-26q0 233 119 233q111 0 111 -164q0 -63 -48 -131q-46 -56 -91 -111q-68 -109 -70 -218h224v-33h-251z" />
<glyph unicode="3" horiz-adv-x="286" d="M146 -11q-75 0 -109 80q-24 58 -24 142v17h25v-31q0 -64 20 -111q29 -64 86 -64q55 0 83 55q21 42 21 102q0 151 -95 151h-30v34h30q88 0 88 132q0 51 -19 85q-24 43 -72 43q-102 0 -102 -188h-25q0 221 125 221q63 0 94 -53q25 -42 25 -108q0 -116 -62 -148 q68 -30 68 -169q0 -72 -27 -124q-35 -66 -100 -66z" />
<glyph unicode="4" horiz-adv-x="286" d="M213 220v-220h-25v220h-182l106 427h26l-97 -394h147v395l25 -3v-392h64v-33h-64z" />
<glyph unicode="5" horiz-adv-x="286" d="M141 -11q-129 0 -129 228h25q0 -195 105 -195q58 0 84 74q18 49 18 119q0 69 -20 121q-27 73 -86 73t-89 -96h-27l8 333h225v-33h-200l-5 -232q33 62 90 62q71 0 105 -85q25 -60 25 -142q0 -83 -25 -144q-33 -83 -104 -83z" />
<glyph unicode="6" horiz-adv-x="286" d="M239 436q0 66 -17 115q-25 72 -78 72t-77 -69q-17 -48 -17 -111v-101q31 69 93 69q65 0 96 -78q23 -56 23 -131t-23 -131q-31 -77 -97 -77t-97 77q-22 56 -22 131v10q0 7 1 8v226q0 76 22 131q32 76 99 76q66 0 97 -81q22 -56 22 -136h-25zM218 316q-25 65 -76 65 q-53 0 -77 -69q-17 -48 -17 -110t17 -110q25 -69 77 -69t77 69q18 48 18 110q0 64 -19 114z" />
<glyph unicode="7" horiz-adv-x="286" d="M110 0h-26l150 613h-209v33h242z" />
<glyph unicode="8" horiz-adv-x="294" d="M147 -11q-133 0 -133 196q0 139 76 171q-59 33 -59 132q0 169 116 169q118 0 118 -169q0 -97 -61 -132q78 -32 78 -173q0 -79 -27 -130q-35 -64 -108 -64zM147 624q-91 0 -91 -137q0 -46 21 -79q26 -39 71 -39q44 0 70 41q22 34 22 79q0 135 -93 135zM148 336 q-109 0 -109 -152q0 -162 108 -162q110 0 110 162q0 152 -109 152z" />
<glyph unicode="9" horiz-adv-x="286" d="M263 436v-245q0 -75 -23 -130q-32 -76 -98 -76q-68 0 -98 81q-21 55 -21 134h25q0 -72 18 -120q25 -66 76 -66q53 0 77 69q17 47 18 110v121q-31 -69 -93 -69q-66 0 -97 78q-22 55 -22 130q0 74 23 131q32 78 97 78t96 -78q23 -56 23 -131v-10q-1 -5 -1 -7zM220 567 q-25 66 -76 66q-53 0 -77 -69q-17 -48 -17 -111q0 -62 17 -110q25 -68 77 -68t77 68q18 48 18 110q0 64 -19 114z" />
<glyph unicode=":" horiz-adv-x="120" d="M60 366q-12 0 -12 18v63q0 18 12 18q13 0 13 -18v-63q0 -18 -13 -18zM60 -2q-12 0 -12 18v63q0 18 12 18q13 0 13 -18v-63q0 -18 -13 -18z" />
<glyph unicode=";" horiz-adv-x="123" d="M70 366q-12 0 -12 18v63q0 18 12 18q13 0 13 -18v-63q0 -18 -13 -18zM63 -76q-2 -20 -18 -13q-6 4 -6 14v5l21 152q3 22 17 13q10 -5 7 -20z" />
<glyph unicode="&#x3c;" horiz-adv-x="262" d="M17 226v29l225 184v-38l-197 -161l197 -161v-38z" />
<glyph unicode="=" horiz-adv-x="309" d="M17 282v31h275v-31h-275zM17 167v31h275v-31h-275z" />
<glyph unicode="&#x3e;" horiz-adv-x="262" d="M17 41v38l196 161l-196 161v38l225 -184v-29z" />
<glyph unicode="?" d="M138 200v-31h-25v25q0 97 49 179q28 48 38 76q13 36 13 83q0 50 -17 84q-21 45 -67 45q-84 0 -94 -181l-23 28q12 186 118 186q56 0 85 -57q23 -45 23 -105q0 -71 -50 -167.5t-50 -164.5zM124 0q-11 0 -11 18v64q0 17 11 17q14 0 14 -17v-64q0 -18 -14 -18z" />
<glyph unicode="@" horiz-adv-x="412" d="M358 219q-29 -78 -67 -78q-26 0 -22 63q-33 -76 -89 -77q-53 -1 -77 68q-15 47 -15 111q0 98 26 170q32 87 95 89q57 1 79 -72l5 72h24l-24 -373v-8q0 -7 1 -7q10 0 26 28q12 21 17 38q27 85 27 158q0 90 -32 164q-41 98 -116 98q-89 0 -134 -123q-33 -91 -33 -200 q0 -108 33 -197q46 -122 133 -122q50 0 93 51q34 41 50 97h28q-18 -70 -59 -120q-51 -60 -109 -60q-105 0 -158 139q-38 101 -38 217q0 115 37 213q53 137 155 137q92 0 140 -112q36 -84 36 -184q0 -95 -32 -180zM206 534q-51 -1 -77 -89q-18 -63 -18 -136q0 -53 11 -92 q18 -61 59 -61q46 1 74 78q20 52 25 113q1 13 1 37q0 152 -75 150z" />
<glyph unicode="A" horiz-adv-x="312" d="M292 0l-48 218h-175l-48 -218h-28l153 678h25l147 -678h-26zM159 612l-82 -361h160z" />
<glyph unicode="B" horiz-adv-x="315" d="M176 0h-159v678h165q61 0 90 -62q22 -46 22 -113q0 -109 -65 -149q75 -31 75 -169q0 -74 -27 -123q-33 -62 -101 -62zM181 645h-139v-275h139q47 0 70 49q17 37 17 89q0 137 -87 137zM180 337h-138v-304h140q52 0 78 54q20 41 20 97q0 61 -20 101q-26 52 -80 52z" />
<glyph unicode="C" horiz-adv-x="352" d="M315 537q-37 115 -118 115q-87 0 -127 -123q-27 -83 -27 -191q0 -107 25 -189q39 -123 124 -123q77 0 120 117l19 -26q-46 -124 -139 -124q-100 0 -144 131q-30 89 -30 210q0 124 31 216q46 135 148 135q97 0 138 -122z" />
<glyph unicode="D" horiz-adv-x="333" d="M136 0h-115v678h133q166 0 166 -340q0 -128 -32 -213q-47 -125 -152 -125zM154 645h-108v-612h91q93 0 132 116q26 75 26 189q0 307 -141 307z" />
<glyph unicode="E" horiz-adv-x="276" d="M21 0v678h253v-33h-228v-275h202v-32h-202v-305h231v-33h-256z" />
<glyph unicode="F" horiz-adv-x="247" d="M46 645v-275h180v-32h-180v-338h-25v678h235v-33h-210z" />
<glyph unicode="G" horiz-adv-x="371" d="M325 101q-43 -108 -133 -108q-106 0 -152 130q-30 87 -30 214q0 125 30 214q45 134 148 134q138 0 161 -229h-26q-21 196 -134 196q-89 0 -128 -123q-26 -81 -26 -191q0 -112 26 -191q40 -121 131 -121q72 0 110 90q28 66 28 149v26h-143v33h166q2 -28 2 -48 q0 -101 -30 -175z" />
<glyph unicode="H" horiz-adv-x="333" d="M288 0v338h-242v-338h-25v678h25v-308h242v308h25v-678h-25z" />
<glyph unicode="I" horiz-adv-x="66" d="M21 0v678h25v-678h-25z" />
<glyph unicode="J" horiz-adv-x="238" d="M109 -7q-99 0 -107 163h25q5 -130 80 -130q55 0 73 62q10 32 10 111v479h26v-485q0 -200 -107 -200z" />
<glyph unicode="K" horiz-adv-x="328" d="M300 0l-184 362l-70 -112v-250h-25v678h25v-376l243 376h33l-188 -291l196 -387h-30z" />
<glyph unicode="L" horiz-adv-x="247" d="M21 0v678h25v-645h210v-33h-235z" />
<glyph unicode="M" horiz-adv-x="401" d="M356 0v589l-144 -589h-23l-143 589v-589h-25v678h30l149 -616l151 616h30v-678h-25z" />
<glyph unicode="N" horiz-adv-x="333" d="M285 0l-239 610v-610h-25v678h27q81 -202 240 -608v608h25v-678h-28z" />
<glyph unicode="O" horiz-adv-x="371" d="M186 -7q-103 0 -147 133q-29 87 -29 213q0 123 29 208q44 128 147 128q102 0 147 -128q30 -86 30 -208q0 -125 -31 -215q-46 -131 -146 -131zM311 528q-38 114 -125 114q-88 0 -126 -118q-25 -77 -25 -185t26 -190q39 -123 125 -123q88 0 126 123q25 79 25 190 q0 113 -26 189z" />
<glyph unicode="P" horiz-adv-x="304" d="M170 302h-124v-302h-25v678h154q122 0 122 -190q0 -73 -27 -123q-33 -63 -100 -63zM178 645h-132v-309h132q50 0 74 54q19 41 19 97q0 158 -93 158z" />
<glyph unicode="Q" horiz-adv-x="371" d="M241 5q16 -38 43 -38h53v-33h-53q-43 0 -68 62q-14 -4 -30 -4q-103 0 -147 133q-29 88 -29 213q0 124 29 209q44 128 147 128q102 0 147 -128q30 -86 30 -209q0 -271 -122 -333zM311 528q-38 114 -125 114q-88 0 -126 -118q-25 -77 -25 -186q0 -133 35 -215q20 93 76 93 q42 0 64 -54q18 -41 18 -88q0 -19 3 -38q106 55 106 302q0 114 -26 190zM203 75q0 35 -12 66q-15 43 -45 43q-27 0 -43 -38q-12 -28 -13 -60q39 -61 96 -61q11 0 22 3q-5 23 -5 47z" />
<glyph unicode="R" horiz-adv-x="315" d="M232 330q61 -35 61 -161v-169h-25v166q0 144 -92 144h-130v-310h-25v678h160q117 0 117 -175q0 -132 -66 -173zM182 645h-136v-301h128q54 0 80 56q19 41 19 100q0 145 -91 145z" />
<glyph unicode="S" horiz-adv-x="315" d="M162 -7q-151 0 -151 224v17h25v-13q0 -195 126 -195q58 0 87 47q24 38 24 99q0 94 -55 126q-8 5 -81 39q-53 24 -74 46q-42 45 -42 132q0 170 131 170q137 0 140 -208h-26q-2 80 -19 117q-26 58 -95 58q-105 0 -105 -137q0 -69 31 -104q19 -21 67 -39q88 -33 119 -71 q35 -42 35 -132q0 -71 -33 -120q-37 -56 -104 -56z" />
<glyph unicode="T" horiz-adv-x="267" d="M147 645v-645h-26v645h-128v33h281v-33h-127z" />
<glyph unicode="U" horiz-adv-x="325" d="M163 -7q-142 0 -142 261v424h25v-423q0 -229 117 -229t117 225v427h25v-426q0 -259 -142 -259z" />
<glyph unicode="V" horiz-adv-x="308" d="M168 0h-24l-147 678h26l133 -613l130 613h25z" />
<glyph unicode="W" horiz-adv-x="475" d="M339 0h-24l-76 366l-75 -366h-23l-142 678h25l128 -612l73 363l-51 249h25l128 -612l124 612h25z" />
<glyph unicode="X" horiz-adv-x="296" d="M278 0l-129 314l-130 -314h-29l144 349l-137 329h30l122 -295l123 295h29l-137 -329l142 -349h-28z" />
<glyph unicode="Y" horiz-adv-x="307" d="M167 332v-332h-26v332l-152 346h29l135 -307l136 307h29z" />
<glyph unicode="Z" horiz-adv-x="307" d="M11 0v34l253 611h-239v33h268v-33l-254 -612h258v-33h-286z" />
<glyph unicode="[" horiz-adv-x="114" d="M42 -168v902h73v-33h-47v-836h47v-33h-73z" />
<glyph unicode="\" horiz-adv-x="171" d="M155 0l-168 694h25l168 -694h-25z" />
<glyph unicode="]" horiz-adv-x="114" d="M71 -168h-72v33h48v836h-48v33h74z" />
<glyph unicode="^" horiz-adv-x="146" d="M98 511l-26 86l-26 -86h-26l41 135h22l43 -135h-28z" />
<glyph unicode="_" d="M-8 -119v48h273v-48h-273z" />
<glyph unicode="`" horiz-adv-x="95" d="M64 536l-55 111q-6 12 1 20q4 6 9 6q7 0 12 -9l55 -111q2 -4 2 -9q0 -15 -12 -15q-6 0 -12 7z" />
<glyph unicode="a" horiz-adv-x="276" d="M227 0v84q-33 -95 -100 -95q-69 0 -100 100q-20 67 -20 154q0 88 21 155q31 102 101 102q68 0 98 -90v88h26v-498h-26zM210 381q-25 86 -83 86q-54 0 -79 -92q-16 -60 -16 -132q0 -76 16 -134q24 -87 79 -87q54 0 81 86q19 60 19 135q0 81 -17 138z" />
<glyph unicode="b" horiz-adv-x="276" d="M143 -10q-63 0 -96 96v-86h-26v678h26v-267q32 93 97 93q70 0 101 -103q21 -67 21 -157q0 -91 -21 -156q-32 -98 -102 -98zM224 382q-25 89 -78 89q-99 0 -99 -229q0 -75 18 -134q27 -85 81 -85t78 88q17 58 17 134q0 77 -17 137z" />
<glyph unicode="c" d="M219 46q-32 -57 -85 -57q-71 0 -103 95q-22 65 -22 151q0 94 22 162q33 103 109 103q47 0 76 -52q21 -37 29 -92l-24 -23q-16 134 -82 134q-61 0 -88 -93q-17 -60 -17 -139q0 -72 17 -128q26 -85 83 -85q76 0 90 146l24 -21q-8 -61 -29 -101z" />
<glyph unicode="d" horiz-adv-x="276" d="M227 0v85q-33 -96 -100 -96q-69 0 -100 101q-20 67 -20 155t21 156q31 103 101 103q68 0 98 -91v265h26v-678h-26zM210 384q-25 87 -83 87q-54 0 -79 -93q-16 -60 -16 -133q0 -77 16 -135q24 -88 79 -88q54 0 81 87q19 61 19 136q0 81 -17 139z" />
<glyph unicode="e" d="M31 233q2 -211 97 -211q69 0 93 122h26q-24 -155 -120 -155q-121 0 -121 254q0 89 21 156q32 101 103 101t102 -91q22 -62 22 -147v-28zM209 387q-26 80 -79 80t-80 -80q-18 -53 -19 -121h195q0 68 -17 121z" />
<glyph unicode="f" horiz-adv-x="131" d="M68 481v-41h55v-34h-55v-407h-25v407h-35v34h35v41q0 185 125 185v-32q-100 0 -100 -153z" />
<glyph unicode="g" horiz-adv-x="267" d="M130 -179q-104 0 -109 165h26q5 -132 84 -132q91 0 91 167v68q-33 -85 -96 -85q-68 0 -98 97q-20 64 -20 149q0 88 20 152q31 98 101 98q61 0 93 -89v77h26v-468q0 -199 -118 -199zM204 380q-26 87 -76 87q-53 0 -78 -88q-17 -59 -17 -128q0 -70 15 -127q24 -87 77 -87 q55 0 80 85q17 55 17 126q0 72 -18 132z" />
<glyph unicode="h" d="M211 0v323q0 53 -14 92q-20 56 -62 56q-50 0 -73 -78q-15 -53 -15 -117v-276h-26v678h26v-248q26 74 87 74q57 0 83 -62q19 -45 19 -109v-333h-25z" />
<glyph unicode="i" horiz-adv-x="67" d="M33 590q-9 0 -12 14v68q3 15 12 15q7 0 14 -15v-68q-6 -14 -14 -14zM21 0v492h26v-492h-26z" />
<glyph unicode="j" horiz-adv-x="67" d="M33 590q-9 0 -12 14v68q3 15 12 15q7 0 14 -15v-68q-6 -14 -14 -14zM-81 -179v32q101 0 101 169v469h25v-470q0 -200 -126 -200z" />
<glyph unicode="k" horiz-adv-x="261" d="M226 0l-125 275l-54 -80v-195h-26v678h26v-433l166 248l37 -2l-131 -189l138 -302h-31z" />
<glyph unicode="l" horiz-adv-x="67" d="M21 0v678h26v-678h-26z" />
<glyph unicode="m" horiz-adv-x="400" d="M354 0v321q0 146 -64 146q-43 0 -63 -61q-14 -42 -14 -99v-307h-25v321q0 146 -66 146q-42 0 -62 -77q-13 -53 -13 -116v-274h-26v488h26v-61q26 73 80 73q58 0 78 -83q23 83 84 83q90 0 90 -169v-331h-25z" />
<glyph unicode="n" d="M211 0v321q0 53 -14 91q-20 55 -62 55q-50 0 -73 -77q-15 -52 -15 -116v-274h-26v488h26v-61q26 73 87 73q57 0 83 -62q19 -44 19 -107v-331h-25z" />
<glyph unicode="o" horiz-adv-x="267" d="M133 -11q-71 0 -104 100q-22 67 -22 155q0 89 22 156q33 100 105 100q73 0 105 -100q22 -66 22 -156t-23 -158q-33 -97 -105 -97zM218 381q-26 86 -84 86t-85 -89q-17 -59 -17 -134q0 -72 18 -133q27 -89 84 -89q56 0 83 86q19 59 19 136q0 79 -18 137z" />
<glyph unicode="p" horiz-adv-x="276" d="M144 -14q-68 0 -97 89v-243h-26v656h26v-80q31 92 96 92q71 0 102 -100q21 -66 21 -156q0 -92 -21 -158q-31 -100 -101 -100zM224 379q-25 88 -78 88q-56 0 -82 -89q-17 -60 -17 -132q0 -227 99 -227q54 0 78 89q17 58 17 135q0 76 -17 136z" />
<glyph unicode="q" horiz-adv-x="276" d="M227 -168v243q-31 -89 -101 -89q-67 0 -98 103q-21 70 -21 155q0 87 21 155q31 101 100 101q68 0 99 -92v80h25v-656h-25zM208 380q-27 87 -82 87q-53 0 -78 -92q-16 -60 -16 -132q0 -71 16 -132q25 -92 78 -92q60 0 85 89q16 56 16 135q0 76 -19 137z" />
<glyph unicode="r" horiz-adv-x="156" d="M47 407q30 93 104 93v-33q-65 0 -90 -111q-14 -67 -14 -161v-195h-26v488h26v-81z" />
<glyph unicode="s" horiz-adv-x="238" d="M122 -13q-109 0 -109 190h26q0 -155 83 -155q39 0 58 35q15 28 15 68q0 70 -52 94q-3 2 -47 16q-73 23 -73 127q0 50 19 89q25 50 72 50q105 0 106 -168h-27q0 133 -77 133q-34 0 -53 -38q-13 -29 -13 -66q0 -69 49 -88q12 -5 51 -19q71 -26 71 -130q0 -138 -99 -138z " />
<glyph unicode="t" horiz-adv-x="129" d="M77 430v-430h-24l-1 430h-49v34h49v150h25v-150h50v-34h-50z" />
<glyph unicode="u" d="M211 0v62q-27 -73 -89 -73q-57 0 -83 67q-18 47 -18 113v319h26v-318q0 -148 75 -148q89 0 89 201v265h25v-488h-25z" />
<glyph unicode="v" horiz-adv-x="231" d="M132 0h-24l-113 488h28l97 -430l90 430h26z" />
<glyph unicode="w" horiz-adv-x="378" d="M275 0h-25l-59 270l-55 -270h-24l-107 488h27l92 -428l53 273l-34 155h28l92 -428l84 428h27z" />
<glyph unicode="x" horiz-adv-x="229" d="M209 0l-95 219l-94 -219h-29l109 253l-99 235h29l84 -202l86 202h29l-100 -235l109 -253h-29z" />
<glyph unicode="y" d="M118 -179q-105 0 -108 165h25q5 -132 84 -132q92 0 92 167v38q-27 -74 -89 -74q-57 0 -83 68q-18 47 -18 114v321h26v-320q0 -149 75 -149q89 0 89 202v267h25v-468q0 -199 -118 -199z" />
<glyph unicode="z" horiz-adv-x="232" d="M7 0v32l181 423h-167v33h197v-31l-183 -424h191v-33h-219z" />
<glyph unicode="{" horiz-adv-x="171" d="M119 -168q-45 0 -45 101v225q0 70 -12 88q-6 8 -25 26v23q11 11 28 32q9 21 9 81v225q0 101 45 101h13v-33h-12q-21 0 -21 -92v-203q0 -64 -10 -90q-5 -15 -24 -33q19 -18 24 -32q10 -25 10 -91v-202q0 -93 21 -93h12v-33h-13z" />
<glyph unicode="|" horiz-adv-x="114" d="M45 -32v738h25v-738h-25z" />
<glyph unicode="}" horiz-adv-x="171" d="M107 246q-12 -20 -12 -88v-225q0 -101 -46 -101h-12v33h12q21 0 21 93v202q0 66 9 91q5 14 24 32q-19 18 -24 33q-9 26 -9 90v203q0 92 -21 92h-12v33h12q46 0 46 -101v-225q0 -64 10 -84q7 -12 27 -29v-23q-18 -16 -25 -26z" />
<glyph unicode="~" horiz-adv-x="269" d="M238 400q-17 -49 -52 -49q-14 0 -56 33t-48 33q-26 0 -31 -67h-31q3 37 16 66q17 38 47 38q14 0 55.5 -33.5t47.5 -33.5q27 0 32 69h31q-3 -33 -11 -56z" />
<glyph unicode="&#xa0;" />
<glyph unicode="&#xa1;" horiz-adv-x="95" d="M48 484q-12 0 -12 17v64q0 18 12 18q13 0 13 -18v-64q0 -17 -13 -17zM35 -95v509h25v-509h-25z" />
<glyph unicode="&#xa2;" d="M219 46q-32 -58 -85 -58q-30 0 -55 19l-10 -43h-26l17 65q-51 68 -51 207q0 94 22 162q33 103 109 103q16 0 31 -7l14 57h25l-17 -71q40 -37 52 -123l-24 -23q-10 80 -36 111l-97 -404q20 -19 46 -19q76 0 90 146l24 -21q-8 -61 -29 -101zM139 468q-61 0 -88 -93 q-17 -61 -17 -139q0 -111 35 -169l94 395q-11 6 -24 6z" />
<glyph unicode="&#xa4;" horiz-adv-x="286" d="M236 189l-50 87q-21 -26 -48 -26t-47 27l-51 -88l-16 26l51 88q-17 36 -17 84q0 49 17 86l-51 89l16 26l51 -89q21 25 47 25q27 0 47 -25l51 89l16 -26l-51 -89q19 -36 19 -85t-18 -86l50 -87zM182 455q-15 37 -44 37t-45 -40q-11 -31 -11 -64t11 -64q16 -42 45 -42 q30 0 45 41q12 30 12 64q0 37 -13 68z" />
<glyph unicode="&#xa5;" horiz-adv-x="316" d="M172 332v-48h104v-34h-104v-91h104v-33h-104v-126h-26v126h-104v33h104v91h-104v34h104v48l-152 346h29l135 -307l136 307h29z" />
<glyph unicode="&#xa6;" horiz-adv-x="114" d="M45 372v324h25v-324h-25zM45 -23v324h25v-324h-25z" />
<glyph unicode="&#xa7;" horiz-adv-x="286" d="M188 143q49 -32 49 -111q0 -51 -19 -90q-24 -50 -71 -50q-105 0 -105 167h26q0 -134 76 -134q68 0 68 107q0 57 -32 79q-5 5 -85 38q-58 37 -53 131q4 93 55 119q-48 32 -48 112q0 52 18 90q25 50 72 50q104 0 105 -168h-25q0 135 -77 135q-36 0 -54 -38q-14 -29 -14 -69 q0 -53 28 -75q10 -9 61 -29q27 -6 44 -25q39 -33 39 -109q0 -102 -58 -130zM138 375q-70 0 -70 -91q0 -43 17 -76q22 -40 62 -40q72 0 72 105q-11 102 -81 102z" />
<glyph unicode="&#xa8;" horiz-adv-x="105" d="M81 547q-12 0 -12 16v46q0 15 12 15q13 0 13 -15v-46q0 -16 -13 -16zM24 547q-12 0 -12 16v46q0 15 12 15q13 0 13 -15v-46q0 -16 -13 -16z" />
<glyph unicode="&#xa9;" horiz-adv-x="274" d="M140 236q-67 0 -101 81q-25 61 -25 136q0 76 26 138q34 81 99 81t99 -81q27 -62 27 -137t-27 -137q-34 -81 -98 -81zM217 568q-27 69 -77 69q-51 0 -79 -68q-21 -52 -21 -115q0 -62 21 -115q28 -69 78 -69t78 68q22 52 22 115q0 61 -22 115zM144 310q-44 0 -65 53 q-14 37 -14 88q0 49 14 85q20 51 63 51q60 0 68 -106h-27q-7 71 -42 71q-27 0 -41 -38q-9 -28 -9 -63q0 -37 9 -66q15 -40 44 -40q28 0 39 76h28q-16 -111 -67 -111z" />
<glyph unicode="&#xaa;" horiz-adv-x="185" d="M146 349v29q-21 -36 -54 -36q-44 0 -65 60q-13 41 -13 98t14 99q20 59 65 59q33 0 53 -34v33h26v-308h-26zM92 624q-30 0 -44 -51q-8 -33 -8 -73q0 -124 52 -124q29 0 43 49q11 34 11 75q0 124 -54 124z" />
<glyph unicode="&#xab;" horiz-adv-x="192" d="M85 262v23l88 123v-46l-62 -88l62 -89v-43zM28 262v23l88 123v-46l-62 -88l62 -89v-43z" />
<glyph unicode="&#xac;" horiz-adv-x="295" d="M247 134v137h-230v31h256v-168h-26z" />
<glyph unicode="&#xae;" horiz-adv-x="266" d="M235 321q-34 -85 -101 -85q-66 0 -100 82q-25 61 -25 135q0 76 26 138q34 81 99 81t99 -81q27 -62 27 -137q0 -71 -25 -133zM212 568q-27 69 -78 69q-52 0 -80 -71q-19 -52 -19 -112q0 -62 21 -115q28 -69 78 -69q52 0 80 71q20 52 20 112q0 61 -22 115zM181 447 q14 -18 14 -56v-72h-27v71q0 39 -22 39h-36v-110h-26v264h63q49 0 49 -74q0 -42 -15 -62zM147 547h-37v-82h35q25 0 25 43q0 39 -23 39z" />
<glyph unicode="&#xaf;" horiz-adv-x="153" d="M10 597v19h135v-19h-135z" />
<glyph unicode="&#xb0;" horiz-adv-x="206" d="M103 385q-41 0 -64 51q-17 39 -17 84q0 44 17 84q22 51 63 51q43 0 65 -50q17 -38 17 -84q0 -47 -18 -86q-22 -50 -63 -50zM147 586q-16 38 -44 38q-30 0 -45 -40q-11 -29 -11 -63t11 -64q15 -41 45 -41t45 41q12 29 12 63q0 35 -13 66z" />
<glyph unicode="&#xb1;" horiz-adv-x="309" d="M167 234v-169h-25v169h-94v33h94v166h25v-166h94v-33h-94zM49 -3v34h213v-34h-213z" />
<glyph unicode="&#xb2;" horiz-adv-x="192" d="M11 256q0 118 68 196l41 46q26 29 26 60q0 69 -49 69q-56 0 -56 -118h-27q0 153 81 153q78 0 78 -106q0 -40 -34 -83q-31 -38 -63 -76q-35 -50 -38 -107h144v-34h-171z" />
<glyph unicode="&#xb3;" horiz-adv-x="209" d="M107 252q-51 0 -75 48q-17 36 -17 90v18h27v-26q0 -36 13 -62q17 -33 50 -33q32 0 49 28q14 23 14 57q0 83 -57 83h-24v34h25q52 0 52 70q0 27 -14 47.5t-41 20.5q-60 0 -60 -112h-27q0 147 87 147q41 0 63 -33q19 -29 19 -70q0 -64 -33 -87q37 -27 37 -100 q0 -48 -20 -80q-23 -40 -68 -40z" />
<glyph unicode="&#xb4;" horiz-adv-x="104" d="M35 537q-4 -8 -11 -8q-8 0 -11 8q-4 9 0 16l55 111q4 9 12 9q13 0 13 -16q0 -5 -2 -10z" />
<glyph unicode="&#xb5;" d="M194 12q-8 -8 -8 -27q0 -42 40 -42v-36q-37 0 -54 26q-14 21 -14 49v7q-12 -4 -24 -4q-61 0 -87 73v-229h-26v659h26v-266q0 -203 87 -203q77 0 77 149v320h25v-321q0 -110 -42 -155z" />
<glyph unicode="&#xb6;" horiz-adv-x="243" d="M195 -133v778h-27v-778h-25v377q-62 -2 -95 82q-25 63 -25 136q0 75 26 136q35 81 100 81q3 0 5 -1h67v-811h-26z" />
<glyph unicode="&#xb7;" horiz-adv-x="102" d="M58 280q-12 0 -12 17v54q0 16 12 16q13 0 13 -16v-54q0 -17 -13 -17z" />
<glyph unicode="&#xb8;" horiz-adv-x="127" d="M60 -174q-20 0 -53 19l10 31q28 -19 42 -19q32 0 32 41q0 26 -23 30q-12 2 -25 -11v21l3 71h26l-1 -50q48 0 48 -65q0 -68 -59 -68z" />
<glyph unicode="&#xb9;" horiz-adv-x="141" d="M83 260v334l-43 -55h-39l87 114h22v-393h-27z" />
<glyph unicode="&#xba;" horiz-adv-x="202" d="M100 350q-47 0 -69 58q-15 41 -15 95q0 56 15 96q22 57 71 57q48 0 70 -58q16 -40 16 -95q0 -58 -17 -97q-22 -56 -71 -56zM151 581q-17 45 -50 45t-50 -47q-11 -34 -11 -76q0 -44 11 -77q16 -46 50 -46t51 46q12 34 12 77t-13 78z" />
<glyph unicode="&#xbb;" horiz-adv-x="187" d="M85 142v43l60 89l-60 88v46l88 -123v-23zM28 142v43l61 89l-61 88v46l88 -123v-23z" />
<glyph unicode="&#xbc;" horiz-adv-x="400" d="M115 0h-26l167 694h25zM94 257v341l-44 -57h-35l82 111h22v-395h-25zM333 134v-134h-24v134h-132l78 270h26l-69 -240h97v241l24 -2v-239h45v-30h-45z" />
<glyph unicode="&#xbd;" horiz-adv-x="393" d="M109 0h-25l167 694h25zM89 257v341l-44 -57h-36l83 111h22v-395h-25zM207 0q2 116 65 190q23 26 45 52q26 34 26 63q0 73 -50 73q-57 0 -57 -122h-24q0 152 79 152q76 0 76 -105q0 -46 -32 -82q-50 -57 -69 -87q-31 -50 -33 -104h144v-30h-170z" />
<glyph unicode="&#xbe;" horiz-adv-x="444" d="M159 0h-25l167 694h25zM112 250q-90 0 -90 137v16h24v-25q0 -36 13 -63q18 -35 52 -35q33 0 50 30q14 24 14 59q0 86 -58 86h-24v31h24q54 0 54 72t-56 72q-62 0 -63 -113h-24q2 144 86 144q81 0 81 -103q0 -63 -36 -89q41 -27 41 -100q0 -47 -21 -80q-24 -39 -67 -39z M378 134v-134h-25v134h-132l79 270h27l-71 -240h97v241l25 -2v-239h45v-30h-45z" />
<glyph unicode="&#xbf;" d="M125 500q-11 0 -11 17v64q0 18 11 18q14 0 14 -18v-64q0 -17 -14 -17zM121 -95q-58 0 -87 57q-21 43 -21 106q0 61 50 167.5t50 164.5v31h26v-26q0 -95 -51 -179q-28 -48 -38 -75q-12 -36 -12 -83q0 -130 83 -130q85 0 93 183l24 -30q-13 -186 -117 -186z" />
<glyph unicode="&#xc0;" horiz-adv-x="331" d="M183 711l-55 121q-2 5 -2 10q0 17 13 17q7 0 11 -9l55 -121q2 -6 2 -11q0 -15 -12 -15q-7 0 -12 8zM302 0l-48 219h-175l-49 -219h-27l153 681h25l147 -681h-26zM169 614l-83 -361h161z" />
<glyph unicode="&#xc1;" horiz-adv-x="331" d="M150 713q-4 -9 -11 -9q-13 0 -13 16q0 5 2 11l56 121q6 12 11 12t10 -10q5 -9 0 -20zM302 0l-48 219h-175l-49 -219h-27l153 681h25l147 -681h-26zM169 614l-83 -361h161z" />
<glyph unicode="&#xc2;" horiz-adv-x="331" d="M203 700l-37 99l-37 -99h-26l53 147h20l55 -147h-28zM302 0l-48 219h-175l-49 -219h-27l153 681h25l147 -681h-26zM169 614l-83 -361h161z" />
<glyph unicode="&#xc3;" horiz-adv-x="331" d="M236 744q-12 -30 -33 -30q-9 0 -36.5 27t-29.5 27q-14 0 -19 -68l-22 29q0 24 9 45q12 27 33 27q8 0 35.5 -27t29.5 -27q7 0 13 18q4 14 5 49l24 -27q-2 -24 -9 -43zM302 0l-48 219h-175l-49 -219h-27l153 680h25l147 -680h-26zM169 614l-83 -362h161z" />
<glyph unicode="&#xc4;" horiz-adv-x="331" d="M195 709q-12 0 -12 18v54q0 18 12 18q13 0 13 -18v-54q0 -18 -13 -18zM139 709q-13 0 -13 18v54q0 18 13 18t13 -18v-54q0 -18 -13 -18zM302 0l-48 219h-175l-49 -219h-27l153 680h25l147 -680h-26zM169 614l-83 -362h161z" />
<glyph unicode="&#xc5;" horiz-adv-x="331" d="M166 715q-24 0 -36 29q-9 23 -9 50t9 49q12 30 36 30q46 0 46 -79t-46 -79zM302 0l-48 219h-175l-49 -219h-27l153 681h25l147 -681h-26zM166 838q-19 0 -19 -44t19 -44q21 0 21 44t-21 44zM169 615l-83 -362h161z" />
<glyph unicode="&#xc6;" horiz-adv-x="528" d="M282 0v338h-123l-148 -338h-28l298 678h230v-33h-203v-274h22v-1h155v-32h-177v-305h205v-33h-231zM174 371h108v243z" />
<glyph unicode="&#xc7;" horiz-adv-x="352" d="M315 536q-37 116 -118 116q-87 0 -127 -124q-27 -83 -27 -191t25 -190q39 -123 124 -123q77 0 120 117l19 -26q-46 -125 -139 -125q-100 0 -144 132q-30 89 -30 211q0 125 31 216q46 136 148 136q97 0 138 -123zM183 -174q-20 0 -53 20l10 33q28 -20 42 -20q32 0 32 43 q0 28 -23 32q-12 2 -25 -11v23l3 75h26l-1 -53q48 0 48 -70q0 -72 -59 -72z" />
<glyph unicode="&#xc8;" horiz-adv-x="276" d="M155 702l-56 120q-6 12 2 21q3 6 8 6q8 0 12 -8l56 -121q5 -12 -1 -21q-12 -15 -21 3zM21 0v681h253v-33h-228v-277h202v-32h-202v-306h231v-33h-256z" />
<glyph unicode="&#xc9;" horiz-adv-x="276" d="M122 702q-4 -9 -11 -9q-14 0 -14 18q0 4 2 9l56 121q4 8 11 8q13 0 13 -17q0 -5 -2 -10zM21 0v681h253v-33h-228v-277h202v-32h-202v-306h231v-33h-256z" />
<glyph unicode="&#xca;" horiz-adv-x="276" d="M174 710l-37 99l-37 -99h-26l53 147h21l55 -147h-29zM21 0v681h253v-33h-228v-277h202v-32h-202v-306h231v-33h-256z" />
<glyph unicode="&#xcb;" horiz-adv-x="276" d="M167 717q-13 0 -13 18v54q0 18 13 18q12 0 12 -18v-54q0 -18 -12 -18zM110 717q-12 0 -12 18v54q0 18 12 18q13 0 13 -18v-54q0 -18 -13 -18zM21 0v680h253v-33h-228v-276h202v-32h-202v-306h231v-33h-256z" />
<glyph unicode="&#xcc;" horiz-adv-x="66" d="M61 708q-8 0 -12 9l-55 120q-2 5 -2 11q0 17 13 17q7 0 11 -9l56 -121q3 -8 0 -17q-3 -10 -11 -10zM21 0v681h25v-681h-25z" />
<glyph unicode="&#xcd;" horiz-adv-x="66" d="M16 713q-9 -18 -21 -3q-6 9 -1 21l55 121q4 9 12 9q6 0 10 -7q6 -10 1 -20zM21 0v681h25v-681h-25z" />
<glyph unicode="&#xce;" horiz-adv-x="66" d="M69 706l-37 99l-37 -99h-27l54 147h20l55 -147h-28zM21 0v681h25v-681h-25z" />
<glyph unicode="&#xcf;" horiz-adv-x="66" d="M61 724q-12 0 -12 19v54q0 17 12 17t13 -17l1 -54q0 -19 -14 -19zM5 724q-14 0 -14 19v54q0 17 14 17q11 0 12 -17l1 -54q0 -19 -13 -19zM21 0v680h25v-680h-25z" />
<glyph unicode="&#xd0;" horiz-adv-x="333" d="M136 0h-115v323h-18v34h18v321h133q166 0 166 -340q0 -128 -32 -213q-47 -125 -152 -125zM154 645h-108v-288h97v-34h-97v-290h91q93 0 132 116q26 75 26 189q0 307 -141 307z" />
<glyph unicode="&#xd1;" horiz-adv-x="333" d="M232 739q-11 -31 -32 -31q-10 0 -37.5 27t-29.5 27q-7 0 -11.5 -16.5t-4.5 -53.5l-24 31q0 23 9 45q12 27 32 27q9 0 36.5 -27t29.5 -27q6 0 12 17.5t6 49.5l23 -26q-1 -22 -9 -43zM285 0l-239 612v-612h-25v680h27q81 -203 240 -610v610h25v-680h-28z" />
<glyph unicode="&#xd2;" horiz-adv-x="371" d="M214 706q-7 0 -11 9l-56 120q-2 6 -2 11q0 17 12 17q7 0 12 -9l56 -121q3 -8 0 -17q-3 -10 -11 -10zM186 -7q-103 0 -147 133q-29 88 -29 214q0 125 29 210q44 128 147 128q102 0 147 -128q30 -86 30 -210q0 -125 -31 -215q-46 -132 -146 -132zM311 531q-38 114 -125 114 q-88 0 -126 -118q-25 -78 -25 -187q0 -108 26 -190q39 -124 125 -124q88 0 126 123q25 80 25 191q0 114 -26 191z" />
<glyph unicode="&#xd3;" horiz-adv-x="371" d="M168 718q-5 -7 -11 -7q-9 0 -11 10q-2 8 1 16l55 121q9 19 22 3q7 -10 1 -22zM186 -7q-103 0 -147 133q-29 88 -29 215q0 124 29 209q44 128 147 128q102 0 147 -128q30 -86 30 -209q0 -126 -31 -216q-46 -132 -146 -132zM311 531q-38 114 -125 114q-88 0 -126 -118 q-25 -78 -25 -186q0 -109 26 -191q39 -124 125 -124q88 0 126 123q25 80 25 192q0 113 -26 190z" />
<glyph unicode="&#xd4;" horiz-adv-x="371" d="M222 718l-37 98l-37 -98h-27l53 146h21l55 -146h-28zM186 -7q-103 0 -147 133q-29 88 -29 215q0 124 29 209q44 128 147 128q102 0 147 -128q30 -86 30 -209q0 -126 -31 -216q-46 -132 -146 -132zM311 531q-38 114 -125 114q-88 0 -126 -118q-25 -78 -25 -186 q0 -109 26 -191q39 -124 125 -124q88 0 126 123q25 80 25 192q0 113 -26 190z" />
<glyph unicode="&#xd5;" horiz-adv-x="371" d="M252 759q-12 -30 -32 -30q-9 0 -37 27t-30 27q-15 0 -19 -71l-21 33q0 22 9 44q12 27 32 27q9 0 36.5 -27t29.5 -27q6 0 12 17.5t6 51.5l23 -29q-2 -24 -9 -43zM186 -7q-103 0 -147 133q-29 88 -29 214q0 124 29 209q44 129 147 129q102 0 147 -129q30 -86 30 -209 q0 -125 -31 -215q-46 -132 -146 -132zM311 530q-38 114 -125 114q-88 0 -126 -118q-25 -77 -25 -186q0 -108 26 -190q39 -124 125 -124q88 0 126 123q25 80 25 191q0 114 -26 190z" />
<glyph unicode="&#xd6;" horiz-adv-x="371" d="M214 724q-12 0 -12 19v54q0 17 12 17q13 0 13 -17v-54q0 -19 -13 -19zM157 724q-12 0 -12 19v54q0 17 12 17t13 -17l1 -54q0 -19 -14 -19zM186 -7q-103 0 -147 133q-29 88 -29 214q0 124 29 209q44 128 147 128q102 0 147 -128q30 -86 30 -209q0 -125 -31 -215 q-46 -132 -146 -132zM311 530q-38 114 -125 114q-88 0 -126 -118q-25 -77 -25 -186q0 -108 26 -190q39 -124 125 -124q88 0 126 123q25 80 25 191q0 114 -26 190z" />
<glyph unicode="&#xd7;" horiz-adv-x="240" d="M187 106l-67 117l-68 -116l-13 29l65 116l-65 114l15 29l66 -116l66 116l17 -28l-67 -115l67 -119z" />
<glyph unicode="&#xd8;" horiz-adv-x="371" d="M333 129q-45 -136 -147 -136q-37 0 -66 18l-10 -40h-25l13 58q-26 24 -45 66q-43 94 -43 244q0 124 29 209q44 128 147 128q36 0 65 -17l11 45h25l-14 -61q90 -81 90 -304q0 -121 -30 -210zM264 609l-136 -564q25 -19 58 -19q88 0 126 122q25 80 25 191q0 198 -73 270z M186 642q-88 0 -126 -117q-25 -78 -25 -186q0 -136 40 -223q15 -33 32 -52l135 563q-25 15 -56 15z" />
<glyph unicode="&#xd9;" horiz-adv-x="325" d="M200 704q-8 -15 -21 2l-55 122q-2 5 -2 10q0 17 13 17q7 0 11 -9l56 -120q5 -11 -2 -22zM163 -7q-142 0 -142 262v426h25v-425q0 -230 117 -230t117 226v429h25v-428q0 -260 -142 -260z" />
<glyph unicode="&#xda;" horiz-adv-x="325" d="M146 709q-5 -8 -12 -8q-12 0 -12 16q0 5 2 11l55 120q4 9 12 9q6 0 10 -7q6 -10 1 -20zM163 -7q-142 0 -142 262v426h25v-425q0 -230 117 -230t117 226v429h25v-428q0 -260 -142 -260z" />
<glyph unicode="&#xdb;" horiz-adv-x="325" d="M199 708l-37 99l-37 -99h-27l54 147h20l55 -147h-28zM163 -7q-142 0 -142 262v426h25v-425q0 -230 117 -230t117 226v429h25v-428q0 -260 -142 -260z" />
<glyph unicode="&#xdc;" horiz-adv-x="325" d="M191 724q-12 0 -12 19v54q0 17 12 17q13 0 13 -17v-54q0 -19 -13 -19zM134 724q-12 0 -12 19v54q0 17 12 17q14 0 14 -17v-54q0 -19 -14 -19zM163 -7q-142 0 -142 262v425h25v-424q0 -230 117 -230t117 226v428h25v-427q0 -260 -142 -260z" />
<glyph unicode="&#xdd;" horiz-adv-x="322" d="M145 713q-4 -9 -11 -9q-14 0 -14 18q0 4 2 9l56 121q4 9 12 9q6 0 10 -7q6 -10 1 -20zM175 333v-333h-26v333l-152 348h29l135 -308l136 308h29z" />
<glyph unicode="&#xde;" horiz-adv-x="208" d="M115 171h-68v-171h-26v678h26v-151h69q73 0 73 -180q0 -176 -74 -176zM115 494h-68v-291h69q48 1 48 144q0 147 -49 147z" />
<glyph unicode="&#xdf;" horiz-adv-x="247" d="M97 -30v33q119 0 119 199q0 72 -23 126q-29 71 -96 71v33q51 0 69 15q30 24 30 95q0 58 -14 82q-17 33 -67 33q-68 0 -68 -144v-514h-26v400h-17v34h17q0 29 2 106q3 151 93 151q108 0 105 -144q-1 -104 -58 -131q38 -20 60 -97q18 -59 18 -116q0 -232 -144 -232z" />
<glyph unicode="&#xe0;" horiz-adv-x="270" d="M153 517q-7 0 -13 8l-55 120q-5 12 2 21q4 10 9 10t11 -12l56 -121q3 -7 0 -16q-2 -10 -10 -10zM227 0v85q-33 -96 -100 -96q-69 0 -100 101q-20 67 -20 155t21 156q31 103 101 103q68 0 98 -91v89h26v-502h-26zM210 384q-25 86 -83 86q-54 0 -79 -92q-16 -61 -16 -133 q0 -77 16 -135q24 -88 79 -88q54 0 81 87q19 61 19 136q0 81 -17 139z" />
<glyph unicode="&#xe1;" horiz-adv-x="270" d="M113 526q-4 -9 -12 -9q-9 0 -11 10q-2 9 1 16l55 121q4 9 12 9q6 0 10.5 -8t0.5 -20zM233 0v85q-33 -96 -100 -96q-69 0 -100 101q-20 67 -20 155q0 90 20 157q31 102 102 102q68 0 98 -91v89h25v-502h-25zM216 384q-25 86 -83 86q-54 0 -79 -92q-16 -61 -16 -133 q0 -77 16 -135q24 -88 79 -88q54 0 81 90q19 62 19 133q0 81 -17 139z" />
<glyph unicode="&#xe2;" horiz-adv-x="270" d="M166 528l-37 99l-37 -99h-27l53 146h21l55 -146h-28zM233 0v85q-33 -96 -100 -96q-69 0 -100 101q-20 67 -20 155q0 90 20 157q31 102 102 102q68 0 98 -91v89h25v-502h-25zM216 384q-25 86 -83 86q-54 0 -79 -92q-16 -60 -16 -133q0 -77 16 -135q24 -88 79 -88 q54 0 81 90q19 62 19 133q0 81 -17 139z" />
<glyph unicode="&#xe3;" horiz-adv-x="270" d="M196 569q-12 -30 -33 -30q-9 0 -37 27t-29 27q-15 0 -19 -70l-21 32q0 23 9 44q12 27 32 27q9 0 36.5 -27t28.5 -27q7 0 13 18q4 13 7 49l22 -27q-2 -24 -9 -43zM233 0v85q-33 -96 -100 -96q-69 0 -100 101q-20 67 -20 154q0 90 20 157q31 102 102 102q68 0 98 -91v89h25 v-501h-25zM216 383q-25 87 -83 87q-54 0 -79 -92q-16 -61 -16 -134q0 -76 16 -134q24 -88 79 -88q54 0 81 90q19 62 19 132q0 82 -17 139z" />
<glyph unicode="&#xe4;" horiz-adv-x="270" d="M164 534q-12 0 -12 19v54q0 17 12 17q13 0 13 -17v-54q0 -19 -13 -19zM107 534q-12 0 -12 19v54q0 17 12 17q14 0 14 -17v-54q0 -19 -14 -19zM233 0v85q-33 -96 -100 -96q-69 0 -100 101q-20 67 -20 154q0 90 20 157q31 102 102 102q68 0 98 -91v89h25v-501h-25zM216 383 q-25 87 -83 87q-54 0 -79 -92q-16 -61 -16 -134q0 -76 16 -134q24 -88 79 -88q54 0 81 90q19 62 19 132q0 82 -17 139z" />
<glyph unicode="&#xe5;" horiz-adv-x="270" d="M132 542q-45 0 -45 79t45 79q24 0 36 -29q10 -23 10 -50t-10 -49q-12 -30 -36 -30zM233 0v85q-33 -96 -100 -96q-69 0 -100 101q-20 67 -20 155q0 90 20 157q31 102 102 102q68 0 98 -91v89h25v-502h-25zM132 665q-19 0 -19 -44q0 -43 19 -43q20 0 20 43q0 44 -20 44z M216 384q-25 87 -83 87q-54 0 -79 -92q-16 -61 -16 -134q0 -77 16 -135q24 -88 79 -88q54 0 81 91q19 62 19 132q0 81 -17 139z" />
<glyph unicode="&#xe6;" horiz-adv-x="482" d="M253 233v-17q0 -194 97 -194q71 0 92 122h26q-10 -64 -34 -102q-33 -53 -85 -53q-66 0 -96 80v-69h-26v84q-33 -95 -100 -95q-69 0 -100 100q-20 67 -20 154q0 88 21 155q31 102 101 102q68 0 98 -90v88h26v-91q35 93 98 93q71 0 102 -91q22 -62 22 -147v-28zM430 387 q-26 80 -79 80q-52 0 -79 -76q-19 -54 -19 -117v-8h194q0 68 -17 121zM210 381q-25 86 -83 86q-54 0 -79 -92q-16 -60 -16 -132q0 -76 16 -134q24 -87 79 -87q54 0 81 86q19 60 19 135q0 81 -17 138z" />
<glyph unicode="&#xe7;" d="M219 43q-32 -58 -85 -58q-71 0 -103 97q-22 65 -22 151q0 95 22 163q33 104 109 104q47 0 76 -52q21 -38 29 -93l-24 -23q-16 135 -82 135q-61 0 -88 -94q-17 -61 -17 -140q0 -72 17 -129q26 -85 83 -85q76 0 90 146l24 -21q-8 -61 -29 -101zM148 -33q47 -1 47 -69 q0 -72 -58 -72q-20 0 -52 19l7 34q30 -20 43 -20q33 0 33 43q0 28 -23 32q-13 2 -26 -12v23l4 75h26z" />
<glyph unicode="&#xe8;" d="M166 522q-11 -13 -21 3l-55 120q-2 5 -2 11q0 17 13 17q7 0 11 -9l56 -121q5 -12 -2 -21zM31 235q2 -213 97 -213q69 0 93 124h26q-24 -157 -120 -157q-121 0 -121 256q0 89 21 157q32 102 103 102t102 -92q22 -62 22 -148v-28zM209 389q-26 81 -79 81t-80 -80 q-18 -54 -19 -122h195q0 68 -17 121z" />
<glyph unicode="&#xe9;" d="M168 648l-56 -120q-4 -9 -12 -9q-9 0 -11 10q-2 9 1 16l55 121q9 19 23 2q2 -5 2 -10q0 -4 -2 -10zM31 235q2 -213 97 -213q69 0 93 124h26q-24 -157 -120 -157q-121 0 -121 256q0 89 21 157q32 102 103 102t102 -92q22 -62 22 -148v-28zM209 389q-26 81 -79 81t-80 -80 q-18 -54 -19 -122h195q0 68 -17 121z" />
<glyph unicode="&#xea;" d="M165 528l-37 99l-37 -99h-27l54 146h20l55 -146h-28zM31 235q2 -213 97 -213q69 0 93 124h26q-24 -157 -120 -157q-121 0 -121 256q0 89 21 157q32 102 103 102t102 -92q22 -62 22 -148v-28zM209 390q-26 80 -79 80t-80 -80q-18 -53 -19 -122h195q0 68 -17 122z" />
<glyph unicode="&#xeb;" d="M157 534q-12 0 -12 19v54q0 17 12 17q14 0 14 -17v-54q0 -19 -14 -19zM101 534q-12 0 -12 19v54q0 17 12 17q13 0 13 -17v-54q0 -19 -13 -19zM31 234q2 -212 97 -212q69 0 93 123h26q-24 -156 -120 -156q-121 0 -121 255q0 90 21 157q32 102 103 102t102 -92 q22 -62 22 -147v-29zM209 389q-26 81 -79 81t-80 -80q-18 -54 -19 -123h195q0 69 -17 122z" />
<glyph unicode="&#xec;" horiz-adv-x="67" d="M50 525l-56 120q-6 12 2 21q4 10 9 10t11 -12l56 -121q2 -5 2 -10q0 -16 -12 -16q-7 0 -12 8zM21 0v492h26v-492h-26z" />
<glyph unicode="&#xed;" horiz-adv-x="67" d="M17 522q-4 -9 -11 -9q-14 0 -14 17q0 5 2 9l56 121q4 9 11 9q13 0 13 -17q0 -5 -2 -10zM21 0v492h26v-492h-26z" />
<glyph unicode="&#xee;" horiz-adv-x="67" d="M68 528l-34 97l-35 -97h-26l50 146h21l52 -146h-28zM21 0v492h26v-492h-26z" />
<glyph unicode="&#xef;" horiz-adv-x="67" d="M63 534q-12 0 -12 19v54q0 17 12 17q14 0 14 -17v-54q0 -19 -14 -19zM7 534q-14 0 -14 19v54q0 17 14 17q13 0 13 -17v-54q0 -19 -13 -19zM21 0v491h26v-491h-26z" />
<glyph unicode="&#xf0;" horiz-adv-x="276" d="M227 0v85q-33 -96 -100 -96q-69 0 -100 101q-20 67 -20 155t21 156q31 103 101 103q68 0 98 -91v160h-162v35h162v70h26v-678h-26zM210 384q-25 87 -83 87q-54 0 -79 -93q-16 -60 -16 -133q0 -77 16 -135q24 -88 79 -88q54 0 81 87q19 61 19 136q0 81 -17 139z" />
<glyph unicode="&#xf1;" d="M196 569q-12 -30 -32 -30q-10 0 -37.5 27t-29.5 27q-7 0 -11.5 -16.5t-4.5 -53.5l-24 32q0 23 9 44q12 27 32 27q9 0 36.5 -27t29.5 -27q14 0 19 67l22 -27q-2 -24 -9 -43zM211 0v323q0 53 -14 92q-20 55 -62 55q-50 0 -73 -78q-15 -52 -15 -116v-276h-26v491h26v-61 q26 73 87 73q57 0 83 -62q19 -45 19 -108v-333h-25z" />
<glyph unicode="&#xf2;" horiz-adv-x="267" d="M162 517q-7 0 -12 8l-55 120q-2 5 -2 11q0 17 13 17q7 0 11 -9l56 -121q3 -7 1 -16q-3 -10 -12 -10zM133 -11q-71 0 -104 101q-22 68 -22 156q0 89 22 157q33 101 105 101q73 0 105 -101q22 -66 22 -157t-23 -159q-33 -98 -105 -98zM218 384q-26 86 -84 86t-85 -90 q-17 -59 -17 -134q0 -73 18 -134q27 -90 84 -90q56 0 83 87q19 59 19 137q0 79 -18 138z" />
<glyph unicode="&#xf3;" horiz-adv-x="267" d="M117 522q-4 -9 -11 -9q-14 0 -14 17q0 5 2 9l56 121q4 9 12 9q6 0 10 -7q6 -10 1 -20zM133 -11q-71 0 -104 100q-22 69 -22 157q0 89 22 157q33 101 105 101q73 0 105 -101q22 -66 22 -157t-23 -159q-33 -98 -105 -98zM218 384q-26 86 -84 86t-85 -90q-17 -59 -17 -134 q0 -73 18 -134q27 -90 84 -90q56 0 83 87q19 59 19 137q0 79 -18 138z" />
<glyph unicode="&#xf4;" horiz-adv-x="267" d="M170 528l-37 99l-37 -99h-27l54 146h20l55 -146h-28zM133 -11q-71 0 -104 101q-22 68 -22 156q0 89 22 157q33 101 105 101q73 0 105 -101q22 -66 22 -157t-23 -159q-33 -98 -105 -98zM218 384q-26 86 -84 86t-85 -89q-17 -60 -17 -135q0 -73 18 -134q27 -90 84 -90 q56 0 83 87q19 59 19 137q0 79 -18 138z" />
<glyph unicode="&#xf5;" horiz-adv-x="267" d="M199 569q-11 -30 -32 -30q-9 0 -37 27t-29 27q-17 0 -18 -69l-23 31q0 23 9 44q12 27 32 27q9 0 36.5 -27t29.5 -27q15 0 20 69l21 -29q-2 -22 -9 -43zM133 -11q-71 0 -104 100q-22 68 -22 156q0 90 22 157q33 101 105 101q73 0 105 -100q22 -67 22 -158q0 -90 -23 -158 q-33 -98 -105 -98zM218 383q-26 87 -84 87t-85 -90q-17 -59 -17 -135q0 -72 18 -133q27 -90 84 -90q56 0 83 87q19 59 19 136q0 80 -18 138z" />
<glyph unicode="&#xf6;" horiz-adv-x="267" d="M162 534q-12 0 -12 19v54q0 17 12 17q13 0 13 -17v-54q0 -19 -13 -19zM105 534q-12 0 -12 19v54q0 17 12 17q14 0 14 -17v-54q0 -19 -14 -19zM133 -11q-71 0 -104 100q-22 68 -22 156q0 90 22 157q33 101 105 101q73 0 105 -101q22 -66 22 -157q0 -90 -23 -158 q-33 -98 -105 -98zM218 383q-26 87 -84 87t-85 -90q-17 -59 -17 -135q0 -72 18 -133q27 -90 84 -90q56 0 83 87q19 59 19 136q0 80 -18 138z" />
<glyph unicode="&#xf7;" horiz-adv-x="290" d="M145 301q-12 0 -12 18v62q0 17 12 17q13 0 13 -17v-62q0 -18 -13 -18zM17 224v33h249v-33h-249zM145 74q-12 0 -12 18v62q0 17 12 17q13 0 13 -17v-62q0 -18 -13 -18z" />
<glyph unicode="&#xf8;" horiz-adv-x="267" d="M133 -12q-26 0 -47 14l-12 -49h-25l16 68q-58 69 -58 223q0 89 22 157q33 100 105 100q24 0 44 -12l14 60h26l-18 -78q61 -68 61 -227q0 -91 -23 -158q-33 -98 -105 -98zM209 401q-8 20 -18 34l-98 -399q18 -15 41 -15q56 0 83 87q19 59 19 136q0 95 -27 157zM134 468 q-58 0 -85 -90q-17 -59 -17 -134q0 -119 42 -185l96 398q-17 11 -36 11z" />
<glyph unicode="&#xf9;" d="M166 518q-11 -13 -21 3l-55 121q-5 12 2 20q4 10 9 10t11 -12l56 -121q5 -12 -2 -21zM211 0v63q-27 -74 -89 -74q-57 0 -83 68q-18 47 -18 113v322h26v-321q0 -149 75 -149q89 0 89 203v267h25v-492h-25z" />
<glyph unicode="&#xfa;" d="M112 526q-4 -9 -11 -9q-8 0 -11 9t0 17l55 121q4 9 12 9q13 0 13 -17q0 -6 -2 -11zM211 0v63q-27 -74 -89 -74q-57 0 -83 68q-18 47 -18 114v321h26v-321q0 -149 75 -149q89 0 89 203v267h25v-492h-25z" />
<glyph unicode="&#xfb;" d="M165 528l-37 99l-37 -99h-27l54 146h20l55 -146h-28zM211 0v63q-27 -74 -89 -74q-57 0 -83 68q-18 47 -18 114v321h26v-320q0 -150 75 -150q89 0 89 203v267h25v-492h-25z" />
<glyph unicode="&#xfc;" d="M157 534q-12 0 -12 19v54q0 17 12 17q13 0 13 -17v-54q0 -19 -13 -19zM100 534q-12 0 -12 19v54q0 17 12 17q13 0 13 -17v-54q0 -19 -13 -19zM211 0v63q-27 -74 -89 -74q-57 0 -83 68q-18 47 -18 113v321h26v-320q0 -149 75 -149q89 0 89 203v266h25v-491h-25z" />
<glyph unicode="&#xfd;" horiz-adv-x="248" d="M163 647l-56 -120q-4 -8 -11 -8q-9 0 -12 10q-3 9 1 16l56 121q4 9 11 9q14 0 14 -17q0 -5 -3 -11zM118 -179q-105 0 -108 166h25q5 -133 84 -133q92 0 92 168v38q-27 -74 -89 -74q-57 0 -83 68q-18 48 -18 114v323h26v-322q0 -150 75 -150q89 0 89 204v268h25v-470 q0 -200 -118 -200z" />
<glyph unicode="&#xfe;" horiz-adv-x="276" d="M144 -14q-68 0 -97 91v-245h-26v846h26v-267q31 92 96 92q71 0 102 -101q21 -65 21 -156q0 -92 -21 -159q-31 -101 -101 -101zM224 382q-25 88 -78 88q-56 0 -82 -90q-17 -59 -17 -132q0 -228 99 -228q54 0 78 89q17 59 17 136t-17 137z" />
<glyph unicode="&#xff;" horiz-adv-x="250" d="M153 534q-12 0 -12 19v54q0 17 12 17t13 -17l1 -54q0 -19 -14 -19zM97 534q-12 0 -12 19v54q0 17 12 17q11 0 12 -17l1 -54q0 -19 -13 -19zM118 -179q-105 0 -108 166h25q5 -133 84 -133q92 0 92 168v38q-27 -74 -89 -74q-57 0 -83 68q-18 47 -18 114v322h26v-321 q0 -150 75 -150q89 0 89 204v267h25v-469q0 -200 -118 -200z" />
<glyph unicode="&#x131;" horiz-adv-x="67" d="M21 0v488h26v-488h-26z" />
<glyph unicode="&#x152;" horiz-adv-x="495" d="M231 0q-20 -8 -43 -8q-101 0 -146 133q-30 89 -30 212q0 125 29 213q44 133 147 133q17 0 33 -5h260v-33h-205q81 -81 87 -275h103v-33h-101q0 -213 -85 -304h204v-33h-253zM248 630v-260h90q-6 197 -90 260zM248 337v-291q27 21 48 63q43 86 43 228h-91zM223 643 q-17 7 -35 7q-88 0 -126 -123q-25 -80 -25 -190t25 -190q38 -123 126 -123q18 0 35 7v612z" />
<glyph unicode="&#x153;" horiz-adv-x="515" d="M274 233q3 -211 98 -211q71 0 92 122h26q-10 -64 -34 -102q-33 -53 -85 -53q-85 0 -112 132q-31 -132 -114 -132q-71 0 -104 100q-22 67 -22 155q0 89 22 156q33 100 105 100q87 0 115 -138q32 138 112 138q70 0 102 -91q23 -63 23 -147v-28zM452 387q-26 80 -79 80 q-52 0 -78 -78q-18 -53 -21 -123h195q0 68 -17 121zM229 381q-27 86 -83 86q-58 0 -85 -89q-17 -59 -17 -134q0 -74 17 -133q27 -89 85 -89q56 0 83 86q19 59 19 136t-19 137z" />
<glyph unicode="&#x160;" horiz-adv-x="315" d="M166 727h-21l-53 147h26l37 -100l37 100h28zM162 -7q-151 0 -151 225v17h25v-13q0 -196 126 -196q58 0 87 47q24 39 24 99q0 96 -55 128q-12 7 -69 33q-33 15 -46 22q-25 14 -40 30q-42 47 -42 133q0 170 131 170q137 0 140 -208h-26q-2 79 -19 116q-26 59 -95 59 q-105 0 -105 -137q0 -70 31 -105q19 -21 67 -39q88 -33 119 -71q35 -43 35 -134q0 -70 -32 -119q-38 -57 -105 -57z" />
<glyph unicode="&#x161;" horiz-adv-x="238" d="M127 537h-20l-53 147h26l37 -99l37 99h28zM122 -13q-109 0 -109 192h26q0 -157 83 -157q39 0 58 36q15 27 15 68q0 70 -52 95q-3 2 -47 16q-73 23 -73 127q0 51 19 91q25 50 72 50q105 0 106 -170h-27q0 135 -77 135q-34 0 -53 -39q-13 -29 -13 -67q0 -69 49 -88 q15 -6 51 -19q71 -27 71 -131q0 -139 -99 -139z" />
<glyph unicode="&#x178;" horiz-adv-x="325" d="M193 724q-12 0 -12 19v54q0 17 12 17q13 0 13 -17v-54q0 -19 -13 -19zM137 724q-13 0 -13 19v54q0 17 13 17q11 0 12 -17l1 -54q0 -19 -13 -19zM176 333v-333h-25v333l-153 347h29l136 -308l136 308h28z" />
<glyph unicode="&#x192;" horiz-adv-x="286" d="M295 634q-68 0 -96 -70q-14 -34 -26 -125h55l-6 -34h-53l-46 -388q-21 -185 -145 -185l3 32q99 0 116 140l47 401h-37l6 34h34l6 42q23 185 145 185z" />
<glyph unicode="&#x2c6;" horiz-adv-x="127" d="M100 540l-37 91l-37 -91h-27l53 134h21l55 -134h-28z" />
<glyph unicode="&#x2c7;" horiz-adv-x="67" d="M41 549h-21l-53 135h27l37 -91l37 91h28z" />
<glyph unicode="&#x2da;" horiz-adv-x="67" d="M31 569q-23 0 -36 26q-10 21 -10 47t10 47q13 26 36 26q24 0 36 -26q11 -21 11 -47t-11 -47q-12 -26 -36 -26zM31 682q-19 0 -19 -40t19 -40q21 0 21 40t-21 40z" />
<glyph unicode="&#x2dc;" horiz-adv-x="179" d="M155 578q-12 -26 -33 -26q-9 0 -36.5 23t-29.5 23q-6 0 -11 -13.5t-5 -46.5l-24 27q0 19 9 38q13 23 32 23q9 0 36.5 -23t28.5 -23q7 0 13 15t6 44l23 -25q-2 -20 -9 -36z" />
<glyph unicode="&#x3bc;" horiz-adv-x="286" />
<glyph unicode="&#x2013;" horiz-adv-x="243" d="M-8 254v20h258v-20h-258z" />
<glyph unicode="&#x2014;" horiz-adv-x="438" d="M-8 254v20h453v-20h-453z" />
<glyph unicode="&#x2018;" horiz-adv-x="86" d="M46 514q-2 -19 -17 -12q-9 4 -7 19l20 143q2 14 12 14q16 0 13 -21z" />
<glyph unicode="&#x2019;" horiz-adv-x="86" d="M46 514q-2 -17 -17 -13q-10 4 -7 20l21 143q2 19 16 12q11 -4 8 -19z" />
<glyph unicode="&#x201a;" horiz-adv-x="143" d="M65 -77q-2 -14 -12 -14q-13 0 -13 15q0 3 1 6l21 143q2 14 10 14q2 0 5 -2q11 -4 8 -19z" />
<glyph unicode="&#x201c;" horiz-adv-x="131" d="M97 514q-2 -19 -16 -12q-11 4 -8 19l21 143q2 17 16 13q11 -4 8 -20zM46 514q-2 -19 -17 -12q-9 4 -7 19l20 143q2 14 12 14q16 0 13 -21z" />
<glyph unicode="&#x201d;" horiz-adv-x="135" d="M98 514q-2 -14 -12 -14q-16 0 -13 21l21 143q3 20 16 12q11 -4 8 -19zM46 514q-2 -17 -17 -13q-10 4 -7 20l21 143q2 19 16 12q11 -4 8 -19z" />
<glyph unicode="&#x201e;" horiz-adv-x="172" d="M116 -77q-2 -19 -17 -12q-8 3 -8 15q0 2 1 3l21 144q3 20 17 12q10 -4 7 -19zM65 -77q-2 -14 -12 -14q-13 0 -13 15q0 3 1 6l21 143q2 14 10 14q2 0 5 -2q11 -4 8 -19z" />
<glyph unicode="&#x2020;" horiz-adv-x="169" d="M94 461v-518h-26v518h-57v34h57v126h26v-126h58v-34h-58z" />
<glyph unicode="&#x2021;" horiz-adv-x="165" d="M96 43v-100h-25v100h-58v34h58v384h-58v34h58v126h25v-126h58v-34h-58v-384h58v-34h-58z" />
<glyph unicode="&#x2022;" horiz-adv-x="143" d="M59 250q-39 0 -39 17v116q0 17 39 17q41 0 41 -17v-116q0 -17 -41 -17z" />
<glyph unicode="&#x2026;" horiz-adv-x="313" d="M257 -2q-13 0 -13 16v55q0 16 13 16t13 -16v-55q0 -16 -13 -16zM164 -2q-12 0 -12 16v55q0 16 12 16q13 0 13 -16v-55q0 -16 -13 -16zM72 -2q-13 0 -13 16v55q0 16 13 16q12 0 12 -16v-55q0 -16 -12 -16z" />
<glyph unicode="&#x2030;" horiz-adv-x="496" d="M415 -19q-73 0 -73 177q0 181 73 181q74 0 74 -181q0 -177 -74 -177zM84 301q-72 0 -72 176q0 180 73 180t73 -180q0 -176 -74 -176zM74 0h-29l240 678h28zM266 -19q-73 0 -73 177q0 181 73 181t73 -181q0 -177 -73 -177zM415 306q-47 0 -47 -148q0 -144 47 -144 q48 0 48 144q0 148 -48 148zM84 624q-46 0 -46 -147q0 -144 47 -144q48 0 48 144q0 147 -49 147zM266 306q-47 0 -47 -148q0 -144 47 -144t47 144q0 148 -47 148z" />
<glyph unicode="&#x2039;" horiz-adv-x="144" d="M28 262v23l88 123v-46l-62 -88l62 -89v-43z" />
<glyph unicode="&#x203a;" horiz-adv-x="144" d="M28 142v43l61 89l-61 88v46l88 -123v-23z" />
<glyph unicode="&#x20ac;" horiz-adv-x="286" d="M174 -12q-73 0 -105 100q-22 67 -22 157v2h-37l3 34h34v91h-25l3 33h22v8q0 89 22 157q33 101 105 101q59 0 95 -77l-17 -30q-34 74 -78 74q-59 0 -85 -90q-16 -58 -16 -135v-8h144l-3 -33h-141v-91h131l-2 -34h-129v-2q0 -74 17 -134q27 -90 84 -90q44 0 78 72l18 -28 q-37 -77 -96 -77z" />
<glyph unicode="&#x2122;" horiz-adv-x="387" d="M341 347v246l-64 -246h-23l-66 252l1 -252h-27v303h-43v-303h-28v303h-72v34h174l73 -272l71 272h32v-337h-28z" />
<glyph unicode="&#x2212;" horiz-adv-x="290" d="M17 231v19h249v-19h-249z" />
<glyph unicode="&#xe000;" horiz-adv-x="490" d="M0 490h490v-490h-490v490z" />
<glyph horiz-adv-x="173" />
<glyph horiz-adv-x="173" />
<glyph horiz-adv-x="173" />
<glyph horiz-adv-x="173" />
<glyph horiz-adv-x="173" />
<glyph horiz-adv-x="173" />
<glyph horiz-adv-x="143" />
<glyph horiz-adv-x="143" />
<glyph horiz-adv-x="143" />
<glyph horiz-adv-x="143" />
<glyph horiz-adv-x="143" />
<glyph horiz-adv-x="143" />
<glyph horiz-adv-x="143" />
<glyph horiz-adv-x="143" />
<glyph horiz-adv-x="143" />
<glyph horiz-adv-x="143" />
<glyph horiz-adv-x="143" />
<glyph horiz-adv-x="143" />
<glyph horiz-adv-x="143" />
<glyph horiz-adv-x="143" />
<glyph horiz-adv-x="143" />
<glyph horiz-adv-x="206" d="M262 442q0 41 -13 72q-16 38 -44 38q-29 0 -45 -42q-11 -30 -11 -64q0 -46 -17 -84q-22 -51 -64 -51t-65 54q-17 38 -17 88h26q0 -38 10 -68q15 -43 46 -43q30 0 45 41q12 29 12 63q0 69 31 109q21 28 49 28q43 0 65 -54q16 -38 16 -90z" />
<glyph horiz-adv-x="171" d="M124 387v-131h-28v131h-131l79 271h29l-70 -236h93v237l28 -3v-234h45v-35h-45z" />
</font>
</defs>
</svg>
